osu file format v6

[General]
AudioFilename: 005. - Darling Star.mp3
AudioLeadIn: 0
PreviewTime: 59061
Countdown: 0
SampleSet: Normal
StackLeniency: 0.7
Mode: 1
LetterboxInBreaks: 1
SkinPreference:Default

[Editor]
DistanceSpacing: 1.39999997615814
BeatDivisor: 4
GridSize: 8

[Metadata]
Title:Darling Star
Artist:Yellow Zebra
Creator:Yes
Version:Taiko Oni
Source:Moment of Impulse
Tags:Touhou Marisa roxkyuubiforever Metroid

[Difficulty]
HPDrainRate:6
CircleSize:4
OverallDifficulty:6
SliderMultiplier:1.4
SliderTickRate:2

[Events]
//Background and Video events
0,0,"33161-marisa_kirisame_350.jpg"
//Break Periods
2,97242,103377
//Storyboard Layer 0 (Background)
//Storyboard Layer 1 (Fail)
//Storyboard Layer 2 (Pass)
//Storyboard Layer 3 (Foreground)
//Storyboard Sound Samples
//Background Colour Transformations
3,100,163,162,255

[TimingPoints]
4735,461.538461538462,4,1,0,83,1,0
60099,-100,4,1,0,83,0,1
89638,-100,4,1,0,83,0,0
148715,-100,4,1,0,83,0,1
178368,-100,4,1,0,83,0,0

[Colours]
Combo1 : 91,165,200
Combo2 : 255,255,255
Combo3 : 236,125,156
Combo4 : 137,165,211
Combo5 : 255,255,170

[HitObjects]
256,192,15811,5,2
256,56,16965,1,0
208,136,17196,1,8
192,272,17427,1,0
336,136,17888,1,0
408,288,18350,1,0
256,192,18811,1,0
256,280,19042,1,8
408,184,19504,5,0
488,136,19735,1,0
400,104,19965,1,8
440,24,20196,1,0
256,48,20658,1,0
256,136,20888,1,8
256,224,21119,1,4
168,192,21350,5,0
224,232,21581,1,0
224,232,21696,1,8
224,232,21927,1,8
224,232,22042,1,0
224,232,22273,1,8
224,232,22504,1,0
224,232,22735,1,8
224,232,22965,1,0
256,352,23196,5,2
104,216,23888,1,0
256,200,24350,1,0
240,112,24581,1,8
328,144,24811,1,0
184,256,25273,1,0
360,312,25735,1,0
248,240,26196,1,0
248,240,26311,1,0
248,240,26427,1,8
288,24,26888,5,0
216,80,27119,1,0
136,32,27350,1,8
64,80,27581,1,0
136,248,28042,1,0
136,160,28273,1,8
224,168,28504,2,0,B|224:312,1,140
304,336,29196,1,8
488,344,29658,5,0
384,328,29773,1,0
424,272,29888,1,8
488,208,30119,1,0
384,328,30235,1,0
424,136,30350,1,8
328,136,30581,5,0
256,192,30811,5,2
192,208,30927,1,0
192,208,31042,1,8
72,192,31273,1,2
136,272,31735,1,0
136,272,31965,1,8
232,288,32196,1,0
232,288,32658,1,0
232,288,33119,1,0
320,192,33581,1,0
320,192,33811,1,8
256,56,34273,5,0
344,56,34504,1,0
432,56,34735,1,8
432,144,34965,1,0
176,176,35427,1,0
176,176,35658,1,8
176,176,35888,1,0
160,232,36119,1,0
208,256,36350,1,0
208,256,36465,1,8
240,160,36696,1,0
320,56,36811,5,0
320,56,36927,1,0
320,56,37042,1,8
280,136,37273,1,0
280,136,37388,1,0
280,136,37504,1,8
352,192,37735,1,2
352,192,37850,1,2
368,160,37965,1,4
288,240,38196,1,0
288,240,38427,1,8
288,240,38658,1,0
176,232,39119,1,0
176,232,39350,1,8
176,232,39581,1,0
272,184,40042,1,0
272,184,40158,1,0
184,88,40273,1,0
272,96,40504,1,0
224,152,40619,1,0
200,216,40735,1,8
200,216,40850,1,8
160,184,40965,1,8
200,216,41081,1,8
368,96,41196,1,8
320,216,41427,1,8
344,168,41542,1,8
448,256,41658,5,4
368,304,41888,1,0
280,336,42119,1,8
192,304,42350,1,0
96,152,42811,1,0
168,208,43042,1,8
256,192,43273,12,0,44888
152,240,45350,5,0
152,240,45581,1,0
152,240,45811,1,8
152,240,46042,1,0
432,264,46273,1,8
312,312,46735,1,8
200,288,46965,1,0
256,200,47196,1,8
32,224,47427,5,0
32,224,47542,1,0
32,224,47658,1,8
56,136,47888,1,8
80,48,48119,5,8
168,72,48350,1,0
200,88,48465,1,0
256,96,48581,1,8
240,152,48811,1,0
208,272,49042,2,2,B|168:328|72:304,1,140,2|8
240,312,49735,1,0
272,280,49965,2,2,B|328:240|416:240,1,140,2|8
256,184,50658,1,0
256,184,50888,1,0
256,184,51119,1,0
256,184,51235,1,0
256,184,51350,1,8
256,184,51581,1,8
160,40,51811,5,4
112,120,52042,1,0
112,120,52158,1,0
112,120,52273,1,8
152,200,52504,1,0
176,176,52735,1,0
176,176,52965,1,0
176,176,53196,1,8
176,176,53427,1,0
360,352,53658,1,0
464,200,54119,1,8
408,272,54350,1,12
48,176,55504,5,8
80,88,55735,1,0
88,192,55850,1,0
168,88,55965,1,8
200,176,56196,1,0
288,160,56427,2,0,B|296:240|400:240,1,140,8|8
464,256,57119,5,2
416,336,57350,1,2
232,336,57811,1,2
152,176,58042,1,0
152,176,58158,1,0
152,176,58273,1,8
152,176,58388,1,0
152,176,58504,1,8
152,176,58619,1,8
152,176,58735,1,8
360,248,58965,5,0
408,160,59196,1,8
336,152,59427,1,0
280,152,59542,1,0
312,88,59658,1,8
224,56,59888,1,0
136,88,60119,1,4
72,152,60350,1,0
48,192,60465,1,0
64,232,60581,1,8
136,280,60811,1,0
304,344,61273,5,0
384,304,61504,1,8
472,272,61735,1,0
408,208,61965,1,4
384,120,62196,1,0
384,120,62311,1,0
384,120,62427,1,8
312,64,62658,1,0
224,24,62888,5,2
376,272,63235,1,2
296,232,63350,1,8
48,192,63581,1,4
160,336,64042,5,0
216,264,64273,1,8
264,336,64504,1,0
320,264,64735,1,0
408,296,64965,1,0
408,296,65081,1,0
408,296,65196,1,8
472,224,65427,1,0
448,136,65658,1,0
368,80,65888,5,0
368,80,66004,1,0
368,80,66119,1,8
304,144,66350,1,0
240,208,66581,1,2
176,272,66811,1,2
80,272,67042,1,0
64,216,67158,1,0
64,216,67273,1,8
64,216,67388,1,8
16,104,67504,5,12
256,96,67850,1,0
208,136,67965,1,8
480,104,68196,1,2
384,264,68658,5,0
336,264,68773,1,0
288,264,68888,1,8
192,264,69119,1,8
104,288,69350,1,8
40,216,69581,1,0
40,216,69696,1,0
40,216,69811,1,8
128,184,70042,1,0
88,104,70273,5,8
248,344,70619,1,0
288,320,70735,1,8
448,48,70965,1,4
456,216,71427,5,0
456,304,71658,1,8
360,304,71888,1,0
296,184,72119,1,0
256,168,72465,1,0
160,136,72581,1,8
456,80,72811,1,0
408,152,73042,1,0
360,216,73273,5,0
360,216,73388,1,0
360,216,73504,1,8
304,288,73735,1,0
224,328,73965,1,8
224,328,74081,1,8
136,312,74311,1,8
64,256,74427,1,8
40,168,74658,1,0
72,80,74888,5,12
224,328,75235,1,0
104,184,75350,1,8
344,56,75581,1,2
208,176,76042,5,0
256,176,76158,1,0
296,176,76273,1,8
248,256,76504,1,0
336,256,76735,1,4
424,264,76965,1,0
424,264,77081,1,0
424,264,77196,1,8
456,176,77427,1,8
456,88,77658,5,0
152,312,78004,1,8
168,144,78119,1,8
168,32,78350,1,4
344,224,78811,5,0
296,304,79042,1,8
200,304,79273,1,0
248,224,79504,1,0
248,224,79735,1,0
120,264,79850,1,0
120,312,79965,1,8
32,336,80196,1,0
32,240,80427,1,0
64,152,80658,5,0
64,152,80773,1,0
64,152,80888,1,8
144,112,81119,1,0
232,128,81350,1,0
272,184,81465,1,0
328,168,81581,1,8
272,184,81696,1,8
408,208,81811,1,8
160,184,82042,1,8
256,304,82273,5,4
336,336,82504,1,0
336,336,82619,1,0
336,336,82734,1,8
416,304,82965,1,0
448,120,83427,5,0
360,104,83542,1,0
368,72,83658,1,8
280,48,83888,1,0
208,96,84119,1,4
288,136,84350,1,0
288,136,84465,1,0
288,136,84581,1,8
296,224,84811,1,0
376,272,85042,5,2
128,40,85388,1,0
128,120,85504,1,8
120,344,85734,1,4
16,192,86196,5,0
40,104,86427,1,8
128,96,86658,1,0
208,136,86888,1,0
288,24,87234,1,0
392,112,87581,1,0
472,296,88042,5,8
416,232,88273,1,0
112,176,88504,1,0
112,176,88619,1,0
112,176,88734,1,8
112,176,88850,1,8
112,176,88965,1,0
112,176,89081,1,8
112,176,89196,1,8
112,176,89311,1,0
112,176,89427,1,0
200,184,89658,5,4
288,184,89888,1,0
288,184,90004,1,2
200,80,90350,1,0
288,80,90581,1,8
376,80,90811,1,0
376,80,90927,1,2
376,216,91273,5,0
376,304,91504,1,8
288,304,91734,1,0
288,304,91850,1,2
152,304,92196,1,0
56,304,92427,1,8
104,224,92658,1,0
104,224,92773,1,8
104,224,92888,1,8
104,128,93119,1,8
192,128,93350,5,4
280,128,93581,1,0
280,128,93696,1,2
392,56,94042,1,0
480,56,94273,1,8
480,144,94504,1,0
480,144,94619,1,2
480,280,94965,5,0
384,280,95196,1,8
288,280,95427,1,0
288,280,95542,1,2
160,224,95888,1,0
248,224,96119,1,8
208,304,96350,1,0
208,304,96465,1,8
208,304,96581,1,8
120,304,96811,1,12
24,304,97042,1,12
192,56,104427,5,2
224,152,104658,1,8
304,200,104888,1,0
376,152,105119,1,0
480,280,105581,5,0
384,280,105811,1,8
288,280,106042,1,0
104,280,106504,1,0
48,104,106965,1,0
104,280,107427,1,0
104,280,107658,1,8
208,136,108119,5,0
288,168,108350,1,0
344,96,108581,1,8
432,128,108811,1,0
440,312,109273,1,0
352,312,109504,1,8
264,312,109734,1,0
176,344,109965,5,0
96,288,110196,1,0
96,288,110311,1,8
56,208,110542,1,0
56,208,110658,1,8
80,120,110888,1,8
128,40,111119,1,0
160,120,111234,1,0
160,120,111350,1,8
208,48,111581,1,8
256,120,111811,5,4
376,256,112273,1,0
376,256,112388,1,0
376,256,112504,1,0
456,96,112965,5,0
496,176,113196,1,8
408,176,113427,1,0
280,48,113888,1,0
184,48,114119,1,8
104,88,114350,1,0
104,272,114811,1,0
104,272,114927,1,0
104,272,115042,1,8
280,320,115504,5,0
360,272,115734,1,0
448,240,115965,1,8
424,160,116196,1,0
280,272,116658,1,0
304,80,116888,1,8
304,80,117119,1,0
208,152,117350,5,8
136,208,117581,1,0
136,208,117696,1,2
72,144,117927,1,0
72,144,118042,1,2
112,64,118273,1,8
112,64,118504,1,0
112,64,118734,1,8
112,64,118965,1,0
264,16,119196,5,4
344,56,119427,5,8
344,56,119542,1,8
464,120,119888,1,8
448,208,120119,1,8
392,280,120350,5,0
304,304,120581,1,8
232,248,120811,1,0
72,328,121273,2,0,B|56:264|136:200,1,140
40,40,122196,1,0
128,64,122427,1,8
312,80,122888,5,0
384,128,123119,1,0
424,208,123350,1,8
416,296,123581,1,0
232,296,124042,1,0
144,272,124273,1,8
56,256,124504,1,0
40,168,124734,5,8
112,120,124965,1,0
112,120,125081,1,2
240,168,125427,1,0
240,168,125542,1,0
240,168,125658,1,2
288,96,125888,1,0
288,96,126004,1,0
288,96,126119,1,8
376,88,126350,1,8
416,168,126581,5,2
336,216,126811,5,0
336,216,126927,1,2
200,216,127273,1,2
112,248,127504,1,4
40,304,127734,5,0
128,304,127965,1,8
216,336,128196,1,0
384,272,128658,1,0
328,200,128888,1,8
288,120,129119,1,0
104,88,129581,1,0
112,128,129696,1,0
120,176,129811,1,8
64,248,130042,1,8
208,336,130273,5,0
288,304,130504,1,0
368,336,130734,1,8
392,248,130965,1,0
464,80,131427,1,0
480,168,131658,1,8
480,256,131888,1,0
392,248,132119,5,2
344,168,132350,1,0
344,168,132465,1,2
224,104,132811,1,0
152,160,133042,1,2
176,248,133273,1,0
176,248,133388,1,0
176,248,133504,1,8
176,248,133734,1,8
296,216,133965,1,0
296,216,134196,1,0
296,216,134427,1,8
296,216,134658,1,0
464,176,134888,2,0,B|312:200,1,140,0|8
256,144,135581,1,0
176,104,135811,5,8
88,128,136042,1,0
88,128,136158,1,2
88,128,136273,1,2
104,216,136504,1,2
120,304,136734,5,2
208,328,136965,1,0
256,328,137081,1,0
296,320,137196,1,8
288,232,137427,1,0
408,40,137658,1,0
408,40,137888,1,0
376,48,138119,1,8
376,48,138350,1,0
376,48,138581,1,0
376,48,138811,1,0
376,48,139042,1,8
376,48,139273,1,0
176,328,139504,5,8
264,328,139734,1,0
264,328,139850,1,0
264,328,139965,1,2
336,272,140196,1,4
424,280,140427,5,0
456,192,140658,1,0
384,152,140773,1,0
432,104,140888,1,8
336,104,141119,1,0
256,56,141350,5,0
216,184,141581,1,0
104,336,141811,1,8
208,208,142042,1,0
432,344,142273,1,0
304,208,142734,1,8
208,208,142965,1,0
256,288,143196,5,8
168,280,143427,1,0
168,280,143542,1,0
168,280,143658,1,8
96,216,143888,1,4
120,128,144119,5,0
56,64,144350,1,0
120,56,144465,1,0
136,24,144581,1,8
224,48,144811,1,0
248,136,145042,1,0
304,216,145273,1,0
424,104,145504,5,8
424,192,145734,1,0
424,280,145965,1,2
240,304,146427,1,8
72,216,146658,1,0
72,216,146773,1,0
72,216,146888,1,0
72,216,147004,1,0
72,216,147119,1,8
72,216,147234,1,8
72,216,147350,1,12
96,120,147581,5,0
48,48,147811,1,0
48,48,148042,1,0
96,80,148158,1,0
288,96,148273,1,8
232,168,148504,1,0
288,240,148734,1,4
336,320,148965,1,0
336,320,149081,1,0
336,320,149196,1,8
416,280,149427,1,0
440,96,149888,5,0
360,48,150119,1,8
288,104,150350,1,0
200,72,150581,1,4
136,144,150811,1,0
136,144,150927,1,0
136,144,151042,1,8
208,192,151273,1,0
232,280,151504,5,2
408,184,151850,1,2
312,184,151965,1,8
40,184,152196,1,4
120,24,152658,5,0
208,24,152888,1,8
296,24,153119,1,0
384,24,153350,1,0
416,112,153581,1,0
416,112,153696,1,0
416,112,153811,1,8
400,200,154042,1,0
328,256,154273,1,8
248,208,154504,5,0
248,208,154619,1,0
248,208,154734,1,8
224,296,154965,1,8
216,256,155081,1,8
136,280,155196,1,0
88,200,155427,1,8
24,136,155658,1,4
208,136,155888,1,4
176,32,156119,5,12
344,248,156465,1,0
344,248,156581,1,8
72,344,156811,1,2
208,224,157273,5,0
208,224,157388,1,0
208,224,157504,1,8
264,152,157734,1,2
344,112,157965,1,4
400,176,158196,1,0
376,216,158311,1,0
360,256,158427,1,8
312,328,158658,1,0
224,328,158888,5,2
304,120,159234,1,2
248,168,159350,1,8
56,40,159581,1,4
240,80,160042,5,0
320,128,160273,1,8
312,216,160504,1,0
192,256,160734,1,0
288,240,161081,1,0
200,160,161196,1,8
472,168,161427,1,0
448,80,161658,1,0
368,40,161888,5,0
368,40,162004,1,0
368,40,162119,1,8
280,48,162350,1,0
224,120,162581,1,8
136,144,162696,5,8
88,64,162927,1,8
200,72,163042,1,8
48,144,163273,1,0
80,176,163388,1,0
88,224,163504,5,4
408,336,163850,1,0
192,216,163965,1,8
384,112,164196,1,2
208,56,164658,5,0
160,56,164773,1,0
120,72,164888,1,8
72,144,165119,1,0
128,216,165350,1,4
208,264,165581,1,0
208,264,165696,1,0
208,264,165811,1,8
288,224,166042,1,2
368,192,166273,5,0
416,64,166619,1,0
424,32,166735,1,8
336,48,166965,1,4
168,120,167427,5,0
240,168,167658,1,8
320,216,167888,1,0
392,264,168119,1,2
312,312,168350,1,0
312,312,168465,1,0
312,312,168581,1,8
224,280,168811,1,0
152,336,169042,1,0
64,312,169273,5,0
64,312,169388,1,0
64,312,169504,1,8
16,232,169735,1,0
80,168,169965,1,8
200,184,170081,1,0
168,136,170196,1,8
200,184,170311,1,8
248,176,170427,1,8
128,88,170542,1,8
128,88,170658,1,0
424,128,170888,5,4
472,208,171119,1,0
472,208,171235,1,0
472,208,171350,1,8
392,248,171581,1,0
280,104,172042,5,0
280,104,172158,1,0
280,104,172273,1,8
248,16,172504,1,0
184,88,172735,1,4
112,144,172965,1,0
96,184,173081,1,0
96,232,173196,1,8
128,312,173427,1,0
216,344,173658,5,2
120,64,174004,1,0
200,112,174119,1,8
384,168,174350,1,4
488,16,174811,5,0
400,32,175042,1,8
328,88,175273,1,0
120,216,175504,1,8
120,216,175850,1,8
80,200,175965,1,0
104,272,176196,1,8
256,192,176427,12,0,177350
168,120,177811,5,8
96,200,178042,1,8
256,192,178273,5,4
