osu file format v6

[General]
AudioFilename: 005. - Darling Star.mp3
AudioLeadIn: 0
PreviewTime: 59061
Countdown: 0
SampleSet: Normal
StackLeniency: 0.7
Mode: 0
LetterboxInBreaks: 1
SkinPreference:Default

[Editor]
Bookmarks: 15791,30561,60099
DistanceSpacing: 1.20000004768372
BeatDivisor: 4
GridSize: 8

[Metadata]
Title:Darling Star
Artist:Yellow Zebra
Creator:Yes
Version:Puzzle Sliderz
Source:Moment of Impulse
Tags:Touhou Marisa roxkyuubiforever Metroid

[Difficulty]
HPDrainRate:0
CircleSize:3
OverallDifficulty:2
SliderMultiplier:1.4
SliderTickRate:1

[Events]
//Background and Video events
0,0,"33161-marisa_kirisame_350.jpg"
//Break Periods
//Storyboard Layer 0 (Background)
//Storyboard Layer 1 (Fail)
//Storyboard Layer 2 (Pass)
//Storyboard Layer 3 (Foreground)
Sprite,Foreground,Centre,"Roxkyuubi diff logo copy.png",320,240 M,0,10253,10715,-53,357,233,359 F,0,10253,10715,0,1 F,0,10715,15445,1 M,0,10715,15676,233,359,268,359 F,0,15445,15676,1,0 S,0,15445,15676,0.8771199,1.49152
//Storyboard Sound Samples
Sample,62407,0,"normal-hitclap.wav",50
Sample,63330,0,"normal-hitclap.wav",50
Sample,65176,0,"normal-hitclap.wav",50
Sample,66791,0,"normal-hitclap.wav",50
Sample,69791,0,"normal-hitclap.wav",50
Sample,70715,0,"normal-hitclap.wav",50
Sample,74176,0,"normal-hitclap.wav",50
Sample,77176,0,"normal-hitclap.wav",50
Sample,78099,0,"normal-hitclap.wav",50
Sample,79945,0,"normal-hitclap.wav",50
Sample,81561,0,"normal-hitclap.wav",50
Sample,84561,0,"normal-hitclap.wav",50
Sample,85484,0,"normal-hitclap.wav",50
//Background Colour Transformations
3,100,163,162,255

[TimingPoints]
4735,461.538461538462,4,1,0,56,1,0
60099,-100,4,1,0,56,0,1
89638,-100,4,1,0,56,0,0

[Colours]
Combo1 : 91,165,200
Combo2 : 255,255,255
Combo3 : 236,125,156
Combo4 : 137,165,211
Combo5 : 255,255,170

[HitObjects]
112,80,15811,2,0,B|144:32|224:16|288:80|272:160|256:176|208:208,1,280,4|0
176,128,16965,2,0,B|128:176|144:240|176:256,2,140
256,272,18350,1,0
336,128,18811,2,0,B|384:96|464:112|480:192|448:240,1,210
384,192,19735,6,0,B|336:224|272:208|256:144,1,140
256,336,20658,1,0
256,336,21119,2,2,B|288:288|240:224|160:192|208:304|128:336|16:288|32:208,1,350
112,208,22504,1,8
112,208,22735,1,8
272,192,23196,6,0,B|336:240|448:176|432:72|352:32,1,280
320,112,24350,1,0
176,32,24811,1,0
32,112,25273,1,0
32,272,25735,1,0
176,352,26196,1,0
176,352,26427,1,0
336,336,26888,6,0,B|416:368|496:256|400:192,1,210
272,288,28042,1,0
272,288,28504,2,2,B|224:224|288:128|384:168,2,210,2|8|8
336,240,30119,1,8
256,96,30581,6,0,B|224:48|144:48|112:112,2,140
200,152,31735,1,0
200,152,31965,1,0
200,152,32196,1,0
192,304,32658,5,0
352,304,33119,1,0
272,160,33581,1,0
272,160,33811,1,0
440,160,34273,2,0,B|432:80|344:72,1,140
352,160,34965,2,0,B|352:224|408:256|456:248,1,140
280,304,35888,2,2,B|312:256|320:216|320:144|240:96|200:88|120:112|80:144|72:208,1,420,2|8
152,232,37504,6,0,B|136:176|216:176|248:208|216:264,1,140,8|0
424,320,39119,2,0,B|456:288|416:240,1,70
352,288,39581,2,0,B|328:240|360:176|424:176,3,140
432,256,41196,1,0
424,88,41658,6,0,B|360:32|288:88,1,140
352,144,42350,2,0,B|288:192|224:128,1,140
168,72,43042,1,0
168,72,43273,2,2,B|88:56|40:128|64:248|184:232,1,280,0|8
160,152,44427,1,0
160,152,44658,1,8
160,152,44888,1,8
288,48,45350,6,0,B|328:56|344:80|336:104|312:128|328:144|344:144|360:128|400:136|408:168|392:184|376:208|392:224|408:240|432:248|464:256|472:280,1,280
288,304,46735,1,0
288,304,46965,1,0
72,56,48119,6,0,B|120:120|0:168|80:256,1,210
88,328,49042,2,2,B|152:320|168:248|144:208,1,140,2|0
184,56,49965,6,2,B|248:32|296:104|272:152,1,140,2|0
192,136,50658,2,0,B|192:184|232:224|304:216,1,140,0|0
472,264,51811,6,0,B|488:320|416:360|368:304,2,140
136,312,53658,1,2
144,56,54350,2,2,B|232:16|360:56|368:208|304:256,1,350
184,352,55965,1,8
256,200,56427,2,0,B|272:160|256:112|216:112|160:120|176:136,2,140
256,192,58042,12,4,60119
256,56,60581,5,8
408,120,61042,1,0
256,192,61504,1,8
104,256,61965,2,0,B|64:272|16:248|0:200,2,105
80,176,62888,2,0,B|136:152|208:200|200:288|160:320,1,210
424,304,64273,5,8
432,136,64735,2,0,B|384:168|328:136,2,105
384,64,65658,2,0,B|336:40|264:56|256:112,3,140,0|8|0|8
256,264,67504,5,4
256,264,67850,1,4
256,56,68427,5,0
88,64,68888,1,8
88,232,69350,2,0,B|88:296|144:320,2,105
168,240,70273,2,0,B|200:280|312:280|368:232,1,210
440,64,71658,5,8
440,232,72119,2,0,B|496:296|416:352,1,140,0|8
368,280,72811,1,0
368,280,73042,2,0,B|344:232|272:232|248:280,3,140,0|8|0|8
256,120,74888,5,4
256,120,75235,1,4
56,192,75811,5,0
152,48,76273,1,8
136,216,76735,2,0,B|128:272|56:280,2,105
208,168,77658,2,0,B|232:216|208:312|128:344,1,210
376,304,79042,5,8
448,152,79504,2,0,B|480:208|432:248,2,105
368,192,80427,1,0
256,64,80888,1,8
144,192,81350,1,0
256,320,81811,1,8
424,320,82273,5,0
424,320,82619,1,0
256,192,83196,5,0
88,192,83658,1,8
176,336,84119,2,0,B|176:208,2,105
256,328,85042,2,0,B|256:208,2,105
392,96,86427,5,8
256,192,86888,1,0
112,96,87350,1,8
256,304,88042,5,0
256,304,88273,1,0
256,192,88504,12,4,89658
