osu file format v6

[General]
AudioFilename: 005. - Darling Star.mp3
AudioLeadIn: 0
PreviewTime: 59061
Countdown: 0
SampleSet: Normal
StackLeniency: 0.6
Mode: 0
LetterboxInBreaks: 1
SkinPreference:Default

[Editor]
DistanceSpacing: 1.20000004768372
BeatDivisor: 4
GridSize: 8

[Metadata]
Title:Darling Star
Artist:Yellow Zebra
Creator:Yes
Version:Normal
Source:Moment of Impulse
Tags:Touhou Marisa roxkyuubiforever Metroid

[Difficulty]
HPDrainRate:2
CircleSize:3
OverallDifficulty:4
SliderMultiplier:1.3
SliderTickRate:1

[Events]
//Background and Video events
0,0,"33161-marisa_kirisame_350.jpg"
//Break Periods
2,89858,103107
//Storyboard Layer 0 (Background)
//Storyboard Layer 1 (Fail)
//Storyboard Layer 2 (Pass)
//Storyboard Layer 3 (Foreground)
Sprite,Foreground,Centre,"Arrow.png",320,240 R,0,20638,,0.8960004 F,0,20638,20936,0,1 M,0,20638,21067,259,180,301,232 M,0,21067,21561,301,232,314,249 F,0,21228,21713,1,0
Sprite,Foreground,Centre,"Arrow.png",320,240 R,0,42791,,0.832 F,0,42791,43248,0,1 M,0,42791,43410,431,99,487,163 M,0,43410,43715,487,163,504,179 F,0,43573,43887,1,0
//Storyboard Sound Samples
//Background Colour Transformations
3,100,163,162,255

[TimingPoints]
4735,461.538461538462,4,1,0,48,1,0
36435,-100,4,2,0,71,0,0
37588,-100,4,1,0,48,0,0
58819,-100,4,2,0,85,0,0
60099,-100,4,2,0,85,0,1
89753,-100,4,2,0,85,0,0
103587,-100,4,1,0,62,0,0
109819,-100,4,2,0,85,0,0
111665,-100,4,1,0,62,0,0
117204,-100,4,2,0,62,0,0
119050,-100,4,1,0,62,0,0
124589,-100,4,2,0,76,0,0
126435,-100,4,1,0,62,0,0
126665,-100,4,2,0,62,0,0
127588,-100,4,1,0,62,0,0
131973,-100,4,2,0,69,0,0
133819,-100,4,1,0,62,0,0
135665,-100,4,2,0,62,0,0
136588,-100,4,1,0,62,0,0
139358,-100,4,2,0,62,0,0
140281,-100,4,1,0,62,0,0
143050,-100,4,2,0,62,0,0
143973,-100,4,1,0,62,0,0
147445,-100,4,2,0,97,0,0
148715,-100,4,2,0,97,0,1
178484,-100,4,2,0,97,0,0

[Colours]
Combo1 : 91,165,200
Combo2 : 255,255,255
Combo3 : 236,125,156
Combo4 : 137,165,211
Combo5 : 255,255,170

[HitObjects]
256,48,15811,1,8
456,192,16965,5,0
456,272,17196,1,8
376,272,17427,2,0,B|328:328|240:296,2,130
224,232,18811,1,0
304,232,19042,1,8
192,336,19504,5,0
112,336,19735,1,0
32,336,19965,1,8
32,256,20196,1,0
32,96,20658,2,0,B|64:160,1,65,0|8
112,208,21119,2,0,B|116:152|116:152|132:192|132:192|172:192|172:192|140:216|140:216|148:256|148:256|116:224|116:224|84:256|84:256|100:208|100:208|60:200|60:200|136:211|136:211,1,455,0|8
168,56,23196,5,2
280,160,23658,1,0
280,160,23888,1,2
408,72,24350,5,0
408,152,24581,1,8
408,232,24811,1,0
272,304,25273,2,0,B|208:344|136:280,1,130
72,152,26196,2,0,B|32:152|16:112,1,65,0|8
160,48,26888,5,0
160,128,27119,1,0
240,128,27350,1,8
320,128,27581,1,0
432,240,28042,1,0
360,272,28273,1,8
280,272,28504,2,0,B|144:192|144:192|24:320,1,325
32,160,30119,1,8
120,32,30581,5,2
312,168,31273,1,0
440,248,31735,6,0,B|520:248,2,65,0|8|0
440,88,32658,1,0
280,88,33119,1,0
280,240,33581,1,0
200,240,33811,1,8
128,104,34273,5,0
48,104,34504,1,0
48,184,34735,1,8
128,184,34965,1,0
152,336,35427,1,0
208,280,35658,1,8
264,224,35888,2,0,B|408:264,1,130
464,280,36581,5,0
392,136,37042,1,2
232,136,37504,1,2
112,232,37965,5,2
256,288,38427,1,8
336,288,38658,1,2
192,232,39119,5,0
112,232,39350,1,8
32,232,39581,1,0
88,88,40042,1,0
168,88,40273,1,8
248,88,40504,1,0
328,224,40965,1,0
328,224,41196,1,8
184,304,41658,5,0
144,232,41888,1,0
104,160,42119,1,8
64,88,42350,1,0
208,40,42811,1,0
208,120,43042,1,8
288,120,43273,2,0,B|292:64|292:64|308:104|308:104|348:104|348:104|316:128|316:128|324:168|324:168|292:136|292:136|260:168|260:168|276:120|276:120|236:112|236:112|312:123|312:123,1,455,0|8
360,248,45350,6,0,B|408:304|408:304|360:344,1,130,4|8
208,336,46273,2,0,B|160:288|160:288|224:240,1,130,0|8
128,248,46965,2,8,B|15:230|40:88,1,195,0|8
184,48,48119,5,8
184,128,48350,1,0
184,208,48581,1,8
184,288,48811,1,0
248,336,49042,2,2,B|352:240,1,130
368,96,49965,2,2,B|400:224,1,130
456,272,50658,2,0,B|272:176,1,195,4|8
288,336,51811,5,0
240,272,52042,1,0
168,240,52273,1,8
96,264,52504,1,0
24,232,52735,2,0,B|-8:168|40:104,1,130,0|8
184,64,53658,2,0,B|328:64,1,130,0|8
392,64,54350,1,4
88,312,55504,5,0
168,312,55735,1,0
248,312,55965,1,8
328,312,56196,1,0
408,312,56427,1,0
256,128,57119,5,2
256,48,57350,1,2
216,200,57811,1,2
256,264,58042,2,2,B|400:288|288:152|440:208,1,195,2|0
416,120,58965,5,0
440,48,59196,2,0,B|352:56,1,65,8|0
296,56,59658,2,0,B|216:48,1,65
160,88,60119,1,4
96,184,60465,1,0
160,280,60811,1,0
288,216,61273,5,0
328,280,61504,1,8
392,320,61735,1,0
472,320,61965,1,4
472,200,62311,2,0,B|472:88,1,97.5
472,24,62888,1,2
368,88,63235,1,2
280,168,63581,1,4
136,224,64042,5,0
136,144,64273,1,8
56,144,64504,1,0
56,64,64735,1,0
168,64,65081,1,2
280,72,65427,2,0,B|344:128,1,65
400,144,65888,5,0
456,200,66119,1,8
416,264,66350,1,0
336,272,66581,2,0,B|264:304,2,65,0|0|8
176,264,67504,5,4
120,160,67850,1,0
232,160,68196,1,2
120,48,68658,5,0
200,48,68888,1,8
280,48,69119,1,2
280,128,69350,2,0,B|376:208,2,97.5
200,128,70273,1,2
104,200,70619,1,2
200,264,70965,1,4
320,352,71427,5,0
376,296,71658,1,8
432,352,71888,1,0
488,296,72119,2,0,B|520:248|472:200,1,97.5
448,96,72811,1,0
368,104,73042,2,0,B|280:208|120:152,1,260,0|4
104,80,74196,6,0,B|144:8,2,65,0|8|0
184,88,74888,1,4
264,168,75235,1,2
352,88,75581,1,2
496,24,76042,5,0
496,104,76273,1,8
496,184,76504,1,0
496,264,76735,2,0,B|488:320|408:296,1,97.5
376,192,77427,1,2
296,192,77658,2,0,B|248:232|192:216,1,97.5
200,104,78350,1,4
48,64,78811,6,0,B|72:0,2,65,0|8|0
128,72,79504,1,0
128,184,79850,1,0
24,240,80196,1,0
80,288,80427,1,0
144,328,80658,5,0
216,296,80888,1,8
280,248,81119,2,0,B|368:240,1,65,0|2
424,248,81581,2,0,B|496:192,1,65,0|8
352,112,82273,5,4
232,96,82619,1,2
128,32,82965,1,0
8,136,83427,5,0
88,136,83658,1,8
168,136,83888,1,0
248,136,84119,2,0,B|208:240,1,97.5
328,232,84811,1,0
408,232,85042,2,0,B|360:120,1,97.5
480,120,85734,1,4
344,40,86196,5,0
296,104,86427,1,8
248,168,86658,1,0
200,232,86888,2,2,B|248:336,2,97.5
256,192,88042,12,4,89658
192,56,104427,5,2
264,192,104888,1,0
344,192,105119,1,0
416,328,105581,5,0
336,328,105811,1,8
272,280,106042,2,0,B|120:296,2,130
184,152,107427,1,0
152,80,107658,1,8
296,24,108119,5,0
322,97,108350,1,0
304,176,108581,1,8
240,224,108811,1,0
360,320,109273,2,0,B|440:280,2,65,0|8|0
280,320,109965,5,0
120,320,110427,1,8
16,200,110888,2,0,B|16:112,1,65,2|0
40,56,111350,2,0,B|120:32,1,65,2|8
176,48,111811,5,2
320,232,112504,1,0
176,288,112965,5,0
96,288,113196,1,8
16,288,113427,1,0
16,128,113888,1,0
96,128,114119,1,8
176,128,114350,2,0,B|184:40|280:48,1,130
256,128,115042,1,8
256,280,115504,5,0
320,328,115734,1,0
400,320,115965,1,8
448,256,116196,1,0
440,96,116658,1,0
360,104,116888,2,0,B|288:48,1,65,8|0
232,64,117350,5,8
232,144,117581,1,0
152,144,117811,1,2
72,144,118042,1,2
72,224,118273,2,4,B|152:256,3,65,4|0|4|0
200,280,119196,5,2
480,32,120350,5,0
400,32,120581,1,8
320,32,120811,1,0
216,152,121273,2,0,B|200:88|256:32,1,130
344,160,122196,1,0
376,232,122427,1,8
216,248,122888,5,0
152,200,123119,1,0
72,224,123350,1,8
40,152,123581,1,0
160,48,124042,1,0
240,48,124273,1,8
320,48,124504,1,0
320,128,124734,6,2,B|456:88,1,130
472,160,125427,1,0
408,208,125658,2,0,B|496:240|456:312,1,130,0|8
384,320,126350,1,4
304,320,126581,5,2
144,320,127042,1,0
64,320,127273,1,4
176,216,127734,6,0,B|256:216,2,65,0|0|0
80,88,128658,1,0
232,72,129119,1,0
384,64,129581,1,0
440,120,129811,1,8
344,240,130273,5,0
424,240,130504,1,0
384,304,130734,1,8
304,304,130965,1,0
184,200,131427,1,0
184,120,131658,1,8
184,200,131888,6,0,B|180:303|180:303|68:247,1,195
40,208,132811,1,2
40,128,133042,2,0,B|40:48|40:48|112:48,1,130,0|8
248,56,133965,6,0,B|392:80,1,130,0|8
416,232,134888,2,0,B|264:256,1,130,0|8
208,272,135581,1,0
128,272,135811,6,0,B|72:224,1,65,2|0
88,152,136273,1,2
120,80,136504,1,2
184,32,136734,5,0
242,83,136965,1,0
302,132,137196,1,8
372,165,137427,1,0
400,240,137658,2,0,B|256:216,1,130,0|8
120,256,138581,2,0,B|88:336,2,65,0|0|8
200,264,139273,1,0
256,320,139504,6,0,B|328:304,1,65
400,304,139965,2,0,B|480:312,1,65
496,240,140427,5,0
424,200,140658,1,0
376,136,140888,1,8
368,56,141119,1,0
288,56,141350,6,0,B|240:200,1,130,0|8
88,200,142273,1,0
272,336,142965,1,4
16,40,144119,5,0
80,88,144350,1,0
88,168,144581,1,8
164,181,144811,1,0
200,112,145042,2,0,B|168:72|192:40|248:32|280:80,1,130,0|8
328,104,145734,1,0
408,120,145965,1,2
432,272,146427,1,8
352,248,146658,2,2,B|144:272,1,195,2|0
88,232,147581,5,0
56,160,147811,2,0,B|120:112,1,65,0|0
168,72,148273,1,8
248,56,148504,1,0
303,111,148734,2,4,B|327:223,1,97.5,4|8
440,208,149427,1,0
360,344,149888,5,0
296,296,150119,1,8
232,344,150350,1,0
168,296,150581,1,4
104,200,150927,1,0
104,80,151273,1,0
184,80,151504,2,2,B|208:128|272:128,2,97.5
328,16,152658,5,0
376,80,152888,1,8
448,112,153119,1,0
480,184,153350,2,0,B|440:288,1,97.5
360,352,154042,1,0
360,272,154273,1,2
296,224,154504,6,0,B|224:232,1,65,0|8
176,288,154965,2,0,B|112:232,1,65
48,264,155427,2,0,B|8:176,1,65,0|4
144,104,156119,5,4
256,80,156465,1,0
368,104,156811,1,2
256,208,157273,5,0
336,208,157504,1,8
416,208,157734,1,2
496,208,157965,1,4
456,320,158311,1,0
336,320,158658,1,0
264,280,158888,2,0,B|168:224,1,97.5,0|0
80,160,159581,1,4
176,40,160042,5,0
256,40,160273,1,8
336,40,160504,1,0
294,106,160734,2,0,B|326:170|390:106,1,97.5
491,121,161427,1,0
462,194,161658,2,0,B|360:240|304:192|336:168|376:176|320:320,1,260,2|4
256,272,162811,5,8
192,224,163042,1,8
128,176,163273,1,0
64,128,163504,5,4
160,64,163850,1,0
248,136,164196,1,2
320,272,164658,5,0
384,320,164888,1,8
448,272,165119,1,0
480,200,165350,2,2,B|496:120|416:120,2,97.5
400,200,166273,1,2
280,200,166619,1,0
280,80,166965,1,4
128,32,167427,5,0
128,112,167658,1,8
128,192,167888,1,0
48,192,168119,1,2
128,112,168465,1,2
216,32,168811,1,0
260,95,169042,6,0,B|324:143,1,65,0|0
381,169,169504,2,0,B|453:169,1,65,8|0
448,248,169965,1,2
368,248,170196,1,8
288,248,170427,1,8
144,304,170888,5,4
40,240,171235,1,2
144,184,171581,1,0
40,64,172042,6,0,B|88:0,1,65,0|8
160,16,172504,1,0
160,96,172735,1,4
272,96,173081,1,0
384,96,173427,1,0
464,96,173658,1,2
384,184,174004,1,0
296,264,174350,1,4
144,296,174811,5,0
72,256,175042,1,8
40,184,175273,1,0
80,112,175504,2,0,B|48:72|72:16,2,97.5
160,112,176427,1,4
256,192,176658,12,4,178273
