osu file format v6

[General]
AudioFilename: 005. - Darling Star.mp3
AudioLeadIn: 0
PreviewTime: 58945
Countdown: 0
SampleSet: Soft
StackLeniency: 0.2
Mode: 0
LetterboxInBreaks: 0
SkinPreference:Default

[Editor]
Bookmarks: 15791,178273
DistanceSpacing: 1
BeatDivisor: 4
GridSize: 16

[Metadata]
Title:Darling Star
Artist:Yellow Zebra
Creator:Yes
Version:Metroid Mix
Source:Moment of Impulse
Tags:Touhou Marisa roxkyuubiforever Metroid

[Difficulty]
HPDrainRate:6
CircleSize:4
OverallDifficulty:6
SliderMultiplier:1.6
SliderTickRate:1

[Events]
//Background and Video events
0,0,"33161-marisa_kirisame_350.jpg"
//Break Periods
2,89857,95992
//Storyboard Layer 0 (Background)
//Storyboard Layer 1 (Fail)
//Storyboard Layer 2 (Pass)
//Storyboard Layer 3 (Foreground)
Sprite,Foreground,Centre,"Arrow.png",320,240 R,0,98176,,0.608 F,0,98176,98388,0,1 M,0,98176,98731,380,111,442,150 M,0,98731,,442,150 M,0,98731,99051,442,150,455,158 F,0,98868,99051,1,0
Sprite,Foreground,Centre,"Arrow.png",320,240 F,0,113220,113407,0,1 M,0,113407,,366,129 F,0,113407,113656,1 P,0,113220,113812,H F,0,113656,113812,1,0
Sprite,Foreground,Centre,"Arrow.png",320,240 M,0,113656,,270,130 F,0,113656,113806,0,0.916 F,0,113806,114044,0.916 F,0,114044,114194,0.916,0
Sprite,Foreground,Centre,"Arrow.png",320,240 M,0,114194,,366,128 F,0,114194,114351,0,1 F,0,114351,114597,1 P,0,114194,114712,H F,0,114597,114712,1,0
Sprite,Foreground,Centre,"MetroidMix.png",320,240 S,0,14245,14907,0.6240002,0.5120001 F,0,14245,15305,0,1 M,0,15779,,185,395 M,0,178011,178554,185,395,203,395 F,0,178011,178554,1,0
Sprite,Foreground,Centre,"finishSB.png",320,240 F,0,9496,,0 T,HitSoundFinish,59658,92427 M,0,1,,319,382 F,1,1,30,0,1 F,1,30,999,1,0 T,HitSoundFinish,148504,179196 M,0,1,,319,382 F,1,1,30,0,1 F,1,30,999,1,0
//Storyboard Sound Samples
//Background Colour Transformations
3,100,163,162,255

[TimingPoints]
4735,461.538461538462,4,2,0,90,1,0
50638,-200,4,2,0,90,0,0
51330,-100,4,2,0,90,0,0
53638,-200,4,2,0,90,0,0
55022,-100,4,2,0,90,0,0
55022,-100,4,2,0,90,0,0
60099,-100,4,2,0,90,0,1
88484,-200,4,2,0,90,0,1
89638,-100,4,2,0,90,0,0
117099,-200,4,2,0,90,0,0
118484,-100,4,2,0,90,0,0
131868,-200,4,2,0,90,0,0
133253,-100,4,2,0,90,0,0
135561,-200,4,2,0,90,0,0
136253,-100,4,2,0,90,0,0
139253,-200,4,2,0,90,0,0
139945,-100,4,2,0,90,0,0
142253,-200,4,2,0,90,0,0
143638,-100,4,2,0,90,0,0
148715,-100,4,2,0,90,0,1
176176,-100,4,2,0,90,0,0
176407,-100,4,2,0,90,0,1
177791,-100,4,2,0,90,0,0

[Colours]
Combo1 : 91,165,200
Combo2 : 255,255,255
Combo3 : 236,125,156
Combo4 : 137,165,211
Combo5 : 255,255,170

[HitObjects]
256,16,15811,1,4
224,336,16965,6,2,B|256:384|296:336,2,80,2|2|10
256,176,17888,1,2
160,48,18350,1,0
256,176,18811,1,8
256,256,19042,1,6
128,160,19504,5,2
80,224,19735,1,2
128,288,19965,1,8
176,224,20196,1,0
272,96,20658,1,8
320,32,20888,1,2
368,96,21119,2,2,B|384:160|352:368|224:352|128:288|144:144,1,480,2|10
144,64,22735,1,10
256,176,23196,5,4
512,368,24119,5,2
448,320,24350,1,2
368,320,24581,1,2
304,368,24811,2,0,B|256:384|208:368|192:304|208:256,3,160,2|8|2|8
208,208,26427,1,6
256,48,26888,5,0
208,112,27119,1,2
256,176,27350,1,8
304,112,27581,1,2
256,256,28042,1,2
256,256,28273,1,8
256,256,28504,2,2,B|256:352|384:352|416:256|416:128|384:32|256:32|208:80,1,480,2|10
192,128,30119,1,8
96,240,30581,5,6
480,336,31735,5,0
400,336,31965,1,8
320,304,32196,2,2,B|256:272|240:240|240:176,3,160,2|10|2|10
240,96,33811,1,6
80,112,34273,1,2
16,160,34504,1,0
16,240,34735,1,8
80,288,34965,1,0
224,208,35427,1,2
224,288,35658,1,10
272,352,35888,2,2,B|480:352|480:48|240:48,1,480,2|10
192,48,37504,1,10
32,48,37965,5,6
208,336,39119,6,0,B|304:336,1,80,0|8
368,336,39581,2,0,B|432:336|432:224|368:224,3,160,2|8|2|8
288,224,41196,1,8
128,240,41658,1,2
48,208,41888,1,0
112,160,42119,1,8
128,240,42350,1,0
256,336,42811,1,0
336,336,43042,1,8
400,304,43273,2,2,B|464:240|464:128|368:80|256:80|256:240,1,400
240,304,44658,1,8
240,304,44888,1,8
256,192,45350,12,2,46273
304,32,46735,5,8
208,32,46965,2,0,B|208:112|320:160|320:256,1,240,0|8
160,240,48119,1,2
192,320,48350,1,0
256,368,48581,1,8
320,320,48811,1,0
352,240,49042,2,2,B|368:176|304:112|256:128,2,160,2|8|2
256,368,50427,1,8
256,368,50658,2,2,B|256:208,1,120,2|8
256,80,51811,5,2
224,160,52042,1,0
144,176,52273,1,8
176,96,52504,1,0
224,160,52735,2,2,B|320:224|224:304,1,160,2|8
80,240,53658,2,2,B|192:240,1,80,2|8
240,240,54350,2,2,B|384:240,1,120,2|8
368,80,55504,5,0
336,160,55735,1,8
256,192,55965,1,8
176,160,56196,1,8
144,80,56427,2,2,B|208:16|272:64|256:144,1,160,2|8
256,192,57119,1,0
256,192,57350,2,2,B|256:288,1,80,2|10
256,352,57811,1,0
256,192,58042,12,6,58735
208,320,58965,5,2
128,272,59196,1,2
64,224,59427,1,2
144,192,59658,1,2
224,176,59888,1,2
256,256,60119,6,0,B|288:336|368:352,2,120,4|8|0
400,176,61273,1,0
400,96,61504,1,8
320,112,61735,1,0
320,192,61965,2,0,B|272:240|208:224,2,120,0|8|0
320,112,62888,2,0,B|352:48|432:48,2,120,0|8|0
256,256,64042,5,0
304,192,64273,1,8
304,112,64504,1,0
256,48,64735,2,0,B|160:64|176:160,2,120,0|8|0
336,48,65658,6,0,B|416:112,1,80,2|0
464,144,66119,2,0,B|384:224,1,80,10|0
352,256,66581,2,0,B|432:320,1,80,2|0
480,352,67042,2,0,B|496:256,1,80,10|2
496,192,67504,6,0,B|496:128|432:80,2,120,0|8|0
336,208,68658,1,0
256,208,68888,1,8
176,208,69119,1,0
208,128,69350,2,0,B|256:64|320:144,2,120,0|8|0
256,192,70273,2,0,B|256:320,2,120,0|8|0
256,32,71427,1,0
256,112,71658,1,8
256,192,71888,1,0
256,272,72119,2,0,B|128:272,2,120,0|8|0
320,336,73042,6,0,B|416:336,1,80,2|0
176,240,73504,2,0,B|64:240,1,80,10|0
320,144,73965,2,0,B|432:144,1,80
176,48,74427,2,0,B|64:48,1,80,10|2
96,48,74888,1,6
64,160,75235,5,8
96,272,75581,1,0
208,160,76042,1,0
192,240,76273,1,8
272,240,76504,1,0
288,160,76735,2,0,B|320:96|384:96,2,120,0|8|0
272,240,77658,2,0,B|224:304|128:288,2,120,0|8|0
368,112,78811,1,0
416,176,79042,1,8
384,256,79273,1,0
320,304,79504,2,0,B|256:352|192:256,2,120,0|8|0
384,256,80427,6,2,B|480:256,1,80,2|0
256,208,80888,2,2,B|160:208,1,80,10|0
384,144,81350,2,2,B|480:144,1,80,2|0
256,96,81811,2,2,B|160:96,1,80,10|2
176,96,82273,6,0,B|32:96,2,120,4|8|0
224,240,83427,1,0
160,288,83658,1,8
224,320,83888,1,0
288,288,84119,2,0,B|320:224|400:256,2,120,0|8|0
288,288,85042,2,0,B|224:224|160:256,2,120,0|8|0
304,128,86196,5,0
224,96,86427,1,8
160,144,86658,1,0
112,208,86888,2,0,B|48:176|32:96,2,120,0|8|4
256,32,88042,5,0
256,112,88273,1,8
256,112,88504,2,2,B|176:192|352:192|224:304,1,200,2|6
256,32,97042,5,4
256,352,97734,1,2
256,176,98427,1,8
256,96,98658,2,2,B|320:112|336:176|336:240|288:272|224:272|160:224|144:160|192:80|320:80|272:96,1,400
176,240,100273,1,8
336,240,100734,5,4
256,16,101427,1,2
256,256,102119,1,8
192,192,102350,1,0
192,112,102581,1,0
256,64,102811,1,0
320,112,103042,1,8
320,192,103273,1,0
256,144,103504,1,2
256,224,103734,1,2
256,256,103850,1,2
256,288,103965,1,2
192,336,104196,1,2
112,336,104427,5,4
224,32,105350,5,2
144,32,105581,1,0
160,112,105811,1,8
144,192,106042,2,0,B|112:288|240:336,3,160,2|8|2|8
208,321,107658,1,8
288,176,108119,1,2
368,160,108350,1,0
384,240,108581,1,8
304,256,108811,1,0
256,96,109273,1,0
176,80,109504,1,8
176,80,109734,2,2,B|96:96|32:192|80:272|144:352|272:240,1,400
288,176,111119,1,8
288,176,111350,1,8
160,80,111811,5,6
384,304,112734,5,2
416,224,112965,1,0
336,208,113196,1,8
296,128,113427,2,0,B|200:128,1,80,0|2
215,128,113888,2,0,B|311:128,1,80,0|8
296,128,114350,2,0,B|200:128,1,80,0|2
215,128,114811,1,8
216,129,115042,1,8
96,240,115504,1,2
144,304,115734,1,0
176,224,115965,1,8
128,160,116196,1,0
256,64,116658,1,0
256,64,116888,1,8
256,64,117119,2,2,B|160:176|352:176|240:304,1,240
258,280,118734,1,8
96,256,119196,5,4
448,64,120350,5,0
400,128,120581,1,8
320,128,120811,2,0,B|240:144|320:240|192:256,3,160,2|8|2|8
144,256,122427,1,8
80,112,122888,1,0
160,96,123119,1,0
96,32,123350,1,8
80,112,123581,1,0
48,272,124042,1,0
128,240,124273,2,2,B|160:176|240:112|272:288|384:224|368:176|304:64|384:48|448:96,1,400,10|2
464,160,125658,1,2
464,240,125888,1,2
448,272,126004,1,2
416,304,126119,1,10
336,320,126350,1,10
256,320,126581,5,4
80,64,127734,6,0,B|64:112|144:144,1,80,0|8
192,112,128196,2,0,B|303:95|303:207,3,160,2|8|2|8
303,192,129811,1,8
160,240,130273,2,0,B|96:224|96:176,3,80,2|0|8|0
176,48,131427,1,0
256,48,131658,1,8
256,48,131888,2,2,B|384:48|384:160|240:160,1,240,2|10
255,159,133504,1,8
256,192,133965,12,2,134658
256,32,134888,6,2,B|256:208,1,160,2|10
256,272,135581,2,0,B|256:352|352:352,1,120,0|8
480,288,136734,1,2
400,256,136965,1,0
464,208,137196,1,8
384,176,137427,1,2
320,224,137658,2,2,B|256:320|192:224,3,160,0|8|0|8
256,176,139273,2,2,B|256:48,1,120,2|10
96,48,140427,5,2
64,128,140658,1,0
96,208,140888,1,8
64,288,141119,1,2
112,352,141350,2,0,B|208:352|256:272,1,160,0|8
336,176,142273,2,2,B|416:112,1,80,2|10
480,128,142965,2,2,B|496:32|400:48,1,120,2|10
256,64,144119,5,2
208,128,144350,1,10
256,192,144581,1,8
304,128,144811,1,8
336,192,145042,2,0,B|320:272|256:288|192:240,1,160,0|8
176,192,145734,1,2
144,272,145965,2,2,B|160:336|240:352|304:336,1,160,2|10
256,192,146658,12,6,147350
192,240,147581,5,2
240,304,147811,1,2
288,240,148042,1,2
272,160,148273,1,2
240,80,148504,1,2
160,48,148734,6,0,B|112:96|144:160,2,120,4|8|0
320,96,149888,1,0
256,144,150119,1,8
288,224,150350,1,0
272,304,150581,2,0,B|208:272|208:192,2,120,0|8|0
352,304,151504,2,0,B|416:320|464:368,2,120,0|8|0
336,144,152658,1,0
368,64,152888,1,8
288,32,153119,1,0
208,48,153350,2,0,B|144:96|160:176,2,120,0|8|0
304,80,154273,6,2,B|416:80,1,80,2|0
208,144,154734,2,2,B|96:144,1,80,10|0
304,208,155196,2,2,B|400:208,1,80,2|0
208,256,155658,2,2,B|96:256,1,80,10|2
128,256,156119,6,0,B|48:256|48:160,2,120,0|8|0
288,272,157273,1,0
368,256,157504,1,8
416,192,157734,1,0
416,112,157965,2,0,B|416:32|320:32,2,120,0|8|0
416,112,158888,2,0,B|416:192|336:192,2,120,0|8|0
256,112,160042,1,0
176,112,160273,1,8
256,112,160504,1,0
256,112,160734,2,0,B|256:256,2,120,0|8|0
320,64,161658,6,2,B|416:64,1,80,2|0
320,64,162119,2,2,B|400:144,1,80,10|0
320,64,162581,2,2,B|320:160,1,80,2|0
320,64,163042,2,2,B|240:128,1,80,10|2
320,64,163504,5,4
208,96,163850,1,8
96,128,164196,1,0
112,288,164658,1,0
176,336,164888,1,8
240,288,165119,1,0
304,336,165350,2,0,B|448:336,2,120,0|8|0
304,336,166273,2,0,B|304:208,2,120,0|8|0
144,336,167427,1,0
80,288,167658,1,8
96,208,167888,1,0
160,256,168119,2,0,B|272:192,2,120,0|8|0
224,304,169042,6,2,B|336:304,1,80,2|0
304,224,169504,2,2,B|208:224,1,80,10|2
224,144,169965,2,2,B|336:144,1,80,2|0
304,64,170427,2,2,B|208:64,1,80,10|2
224,64,170888,6,0,B|96:64,2,120,4|8|0
384,64,172042,1,0
448,112,172273,1,8
384,160,172504,1,0
304,176,172735,2,0,B|240:208|240:272,2,120,0|8|0
304,176,173658,2,0,B|272:80|192:80,2,120,0|8|0
384,320,174811,1,0
304,320,175042,1,8
256,256,175273,1,0
192,208,175504,2,0,B|160:272|224:336,2,120,0|8|0
256,192,176427,12,10,177811
256,192,178273,5,6
