osu file format v6

[General]
AudioFilename: 005. - Darling Star.mp3
AudioLeadIn: 0
PreviewTime: 58945
Countdown: 0
SampleSet: Normal
StackLeniency: 0.5
Mode: 0
LetterboxInBreaks: 1
SkinPreference:Default

[Editor]
DistanceSpacing: 1.39999997615814
BeatDivisor: 4
GridSize: 8

[Metadata]
Title:Darling Star
Artist:Yellow Zebra
Creator:Yes
Version:Hard
Source:Moment of Impulse
Tags:Touhou Marisa roxkyuubiforever Metroid

[Difficulty]
HPDrainRate:7
CircleSize:5
OverallDifficulty:7
SliderMultiplier:1.3
SliderTickRate:2

[Events]
//Background and Video events
0,0,"33161-marisa_kirisame_350.jpg"
//Break Periods
2,97242,103527
//Storyboard Layer 0 (Background)
//Storyboard Layer 1 (Fail)
//Storyboard Layer 2 (Pass)
//Storyboard Layer 3 (Foreground)
Sprite,Foreground,Centre,"Arrow.png",320,240 R,0,42791,,0.8639998 F,0,42791,43050,0,1 M,0,42791,43423,335,119,378,176 M,0,43423,43715,378,176,394,196 F,0,43578,43945,1,0
//Storyboard Sound Samples
//Background Colour Transformations
3,100,163,162,255

[TimingPoints]
4735,461.538461538462,4,1,0,70,1,0
29291,-100,4,2,0,70,0,0
30445,-100,4,1,0,70,0,0
30676,-100,4,2,0,70,0,0
31368,-100,4,1,0,70,0,0
36676,-100,4,2,0,71,0,0
37945,-100,4,1,0,71,0,0
47061,-100,4,2,0,71,0,0
47972,-100,4,1,0,72,0,0
51907,-100,4,2,0,72,0,0
52253,-100,4,1,0,72,0,0
52830,-100,4,2,0,72,0,0
53522,-100,4,1,0,72,0,0
58819,-100,4,2,0,96,0,0
60099,-100,4,2,0,96,0,1
89522,-100,4,2,0,96,0,0
97242,-100,4,1,0,71,0,0
104753,-100,4,2,0,71,0,0
105329,-100,4,1,0,71,0,0
109819,-100,4,2,0,79,0,0
111665,-100,4,1,0,62,0,0
112127,-100,4,2,0,89,0,0
112588,-100,4,1,0,62,0,0
117204,-100,4,2,0,82,0,0
119050,-100,4,1,0,62,0,0
119281,-100,4,2,0,94,0,0
120204,-100,4,1,0,62,0,0
124589,-100,4,2,0,79,0,0
126435,-100,4,1,0,62,0,0
126665,-100,4,2,0,81,0,0
127588,-100,4,1,0,62,0,0
131973,-100,4,2,0,80,0,0
133819,-100,4,1,0,62,0,0
135665,-100,4,2,0,80,0,0
136588,-100,4,1,0,62,0,0
139358,-100,4,2,0,81,0,0
140281,-100,4,1,0,62,0,0
143050,-100,4,2,0,80,0,0
143973,-100,4,1,0,62,0,0
147319,-100,4,2,0,100,0,0
148715,-100,4,2,0,100,0,1
178484,-100,4,2,0,100,0,0

[Colours]
Combo1 : 91,165,200
Combo2 : 255,255,255
Combo3 : 236,125,156
Combo4 : 137,165,211
Combo5 : 255,255,170

[HitObjects]
256,192,15811,1,8
256,56,16965,5,0
160,56,17196,1,8
64,56,17427,1,0
160,208,17888,1,0
344,216,18350,1,0
256,56,18811,1,0
256,144,19042,1,8
368,288,19504,5,0
304,352,19735,1,0
216,352,19965,1,8
152,288,20196,1,0
168,104,20658,1,0
256,104,20888,1,8
344,104,21119,1,4
256,192,21350,12,8,22735
256,352,23196,5,2
88,280,23658,5,0
88,192,23888,1,2
272,192,24350,5,0
272,96,24581,1,8
368,96,24811,1,0
176,96,25273,1,0
176,280,25735,1,0
360,280,26196,2,0,B|272:280,1,65,0|8
128,224,26888,5,0
56,160,27119,1,0
128,104,27350,1,8
56,40,27581,1,0
240,40,28042,1,0
304,104,28273,1,8
240,168,28504,2,0,B|240:312,1,130
304,360,29196,1,8
384,192,29658,5,2
384,104,29888,1,2
288,104,30119,1,8
192,104,30350,1,2
192,8,30581,5,2
112,56,30811,5,2
112,240,31273,1,2
112,56,31735,5,0
24,56,31965,1,8
24,144,32196,1,0
24,328,32658,1,0
208,328,33119,1,0
392,328,33581,1,0
392,240,33811,1,8
256,120,34273,5,0
256,208,34504,1,0
336,168,34735,1,8
336,80,34965,1,0
152,56,35427,1,0
64,88,35658,1,8
107,167,35888,2,0,B|91:79|168:48,1,130,0|0
240,56,36581,1,0
336,56,36811,5,2
336,56,36927,1,2
336,56,37042,1,2
400,120,37273,1,2
400,120,37388,1,2
400,120,37504,1,2
464,184,37735,1,2
464,184,37850,1,2
464,184,37965,5,2
304,272,38427,5,8
208,272,38658,1,2
88,136,39119,5,0
88,224,39350,1,8
88,312,39581,1,0
256,240,40042,1,0
256,144,40273,1,8
256,48,40504,1,0
432,96,40965,1,0
336,96,41196,1,8
440,240,41658,5,0
360,288,41888,1,0
280,336,42119,1,8
200,288,42350,1,0
80,144,42811,1,0
136,216,43042,1,8
200,144,43273,2,0,B|200:88|200:88|216:136|216:136|256:136|256:136|228:152|228:152|236:192|236:192|204:160|204:160|172:192|172:192|188:144|188:144|148:136|148:136|216:144|216:144,1,455,0|8
93,289,45350,6,2,B|237:289,1,130,2|8
421,289,46273,2,2,B|269:289,1,130,2|8
200,280,46965,1,0
112,256,47196,5,0
32,224,47427,1,0
32,224,47542,1,0
32,224,47658,1,8
56,136,47888,1,2
87,50,48119,5,8
174,75,48350,1,0
261,99,48581,1,8
235,186,48811,1,0
208,272,49042,2,2,B|168:328|88:312,1,130,2|8
272,280,49965,2,2,B|328:240|408:248,1,130,2|8
488,232,50658,2,0,B|304:136,1,195,4|8
160,40,51811,5,0
112,120,52042,1,0
112,120,52158,1,0
112,120,52273,1,8
160,200,52504,1,0
136,288,52735,2,0,B|216:304,1,65,0|2
256,232,53196,2,0,B|328:280,1,65,8|2
360,352,53658,1,2
464,200,54119,1,8
416,280,54350,1,4
48,176,55504,5,0
80,88,55735,1,0
168,88,55965,1,8
200,176,56196,1,0
288,160,56427,2,0,B|296:240|400:240,1,130,0|8
464,256,57119,5,2
416,336,57350,1,2
232,336,57811,1,2
136,336,58042,2,2,B|344:336,1,195,2|4
360,248,58965,5,0
376,160,59196,2,8,B|392:128|360:96,1,65,8|0
296,40,59658,1,8
208,32,59888,1,0
128,80,60119,1,4
96,160,60350,1,0
96,160,60465,1,0
96,160,60581,1,8
120,248,60811,1,0
304,344,61273,5,0
392,312,61504,1,8
480,280,61735,1,0
416,208,61965,1,4
472,136,62196,1,0
472,136,62311,1,0
472,136,62427,1,8
392,88,62658,1,0
304,56,62888,5,2
352,336,63235,1,2
48,192,63581,1,4
160,336,64042,5,0
216,264,64273,1,8
264,336,64504,1,0
320,264,64735,1,0
408,296,64965,1,0
408,296,65081,1,0
408,296,65196,1,8
472,224,65427,1,0
448,136,65658,1,0
368,80,65888,5,0
368,80,66004,1,0
368,80,66119,1,8
304,144,66350,1,0
240,208,66581,1,2
176,272,66811,1,2
80,272,67042,1,4
16,104,67504,5,4
256,104,67850,1,0
480,104,68196,1,2
336,208,68658,5,0
336,208,68773,1,0
336,208,68888,1,8
336,299,69119,1,2
244,299,69350,1,4
153,299,69581,1,0
153,299,69696,1,0
153,299,69811,1,8
153,208,70042,1,0
89,143,70273,5,2
320,272,70619,1,2
448,48,70965,1,4
456,216,71427,5,0
456,304,71658,1,8
360,304,71888,1,0
360,216,72119,2,0,B|472:216,1,97.5
456,80,72811,1,0
408,152,73042,1,0
360,216,73273,5,0
360,216,73388,1,0
360,216,73504,1,8
304,288,73735,1,0
224,328,73965,1,8
136,312,74196,1,8
64,256,74427,1,8
40,168,74658,1,2
72,80,74888,5,4
224,328,75235,1,2
344,56,75581,1,2
208,176,76042,5,0
208,176,76158,1,0
208,176,76273,1,8
248,256,76504,1,0
336,256,76735,1,4
424,256,76965,1,0
424,256,77081,1,0
424,256,77196,1,8
384,176,77427,1,2
296,176,77658,5,0
0,280,78004,1,2
168,32,78350,1,4
344,224,78811,5,0
312,312,79042,1,8
224,344,79273,1,0
144,304,79504,1,0
104,176,79850,1,0
56,176,79965,1,8
16,88,80196,1,0
104,88,80427,1,0
192,88,80658,5,0
192,88,80773,1,0
192,88,80888,1,8
256,24,81119,1,0
320,88,81350,1,2
256,152,81581,1,8
192,88,81811,1,8
232,264,82273,5,4
312,312,82504,1,0
312,312,82619,1,0
312,312,82734,1,8
392,264,82965,1,0
456,96,83427,5,0
384,40,83658,1,8
352,128,83888,1,0
272,80,84119,1,4
240,168,84350,1,0
240,168,84465,1,0
240,168,84581,1,8
262,255,84811,1,0
348,284,85042,5,2
141,55,85388,1,0
120,344,85734,1,4
16,192,86196,5,0
104,192,86427,1,8
192,192,86658,1,0
280,192,86888,1,0
360,80,87234,1,2
496,80,87581,1,2
480,264,88042,5,2
392,240,88273,1,0
408,328,88504,2,2,B|328:280|296:352|248:384|200:304|224:248,1,260,2|0
200,184,89658,5,4
288,184,89888,1,0
288,184,90004,1,2
200,80,90350,1,0
288,80,90581,1,8
376,80,90811,1,0
376,80,90927,1,2
376,216,91273,5,0
376,304,91504,1,8
288,304,91734,1,0
288,304,91850,1,2
152,304,92196,1,0
56,304,92427,1,8
104,224,92658,1,0
104,224,92773,1,8
104,224,92888,1,2
104,128,93119,1,8
192,128,93350,5,4
280,128,93581,1,0
280,128,93696,1,2
392,56,94042,1,0
480,56,94273,1,8
480,144,94504,1,0
480,144,94619,1,2
480,280,94965,5,0
384,280,95196,1,8
288,280,95427,1,0
288,280,95542,1,2
160,224,95888,1,0
248,224,96119,1,8
208,304,96350,1,0
208,304,96465,1,0
208,304,96581,1,8
117,304,96811,1,8
26,304,97042,5,4
192,56,104427,5,2
104,216,104888,5,0
192,216,105119,1,2
376,216,105581,5,0
376,128,105811,1,8
467,128,106042,1,0
284,128,106504,1,0
96,128,106965,1,0
96,310,107427,1,0
96,219,107658,1,8
280,216,108119,5,0
336,280,108350,1,0
400,216,108581,1,8
464,152,108811,1,0
336,280,109273,1,0
264,344,109504,1,8
192,280,109734,1,0
128,344,109965,5,0
64,280,110196,1,0
64,280,110311,1,8
48,192,110542,1,0
48,192,110658,1,8
96,112,110888,1,4
152,40,111119,1,0
200,112,111350,1,4
264,48,111581,1,2
352,48,111811,5,2
256,200,112273,5,0
256,200,112388,1,0
256,200,112504,1,4
440,200,112965,5,0
440,288,113196,1,8
376,352,113427,1,0
192,352,113888,1,0
136,288,114119,1,8
136,200,114350,1,0
16,48,114811,1,0
16,48,114927,1,0
16,48,115042,1,8
200,48,115504,5,0
288,48,115734,1,0
288,136,115965,1,8
376,136,116196,1,0
376,320,116658,1,0
464,320,116888,2,0,B|496:256,1,65,8|0
472,176,117350,5,8
448,88,117581,1,0
448,88,117696,1,2
368,48,117927,1,0
368,48,118042,1,2
288,88,118273,2,4,B|352:144,3,65,4|0|4|0
344,224,119196,5,2
272,280,119427,5,0
272,280,119542,1,0
136,304,119888,1,2
48,280,120119,1,4
48,184,120350,5,0
112,120,120581,1,8
168,184,120811,1,0
352,184,121273,2,0,B|336:120|392:64,1,130
208,64,122196,1,0
120,64,122427,1,8
296,64,122888,5,0
360,128,123119,1,0
416,192,123350,1,8
472,256,123581,1,0
288,264,124042,1,0
224,200,124273,1,8
160,264,124504,1,0
88,200,124734,5,8
112,112,124965,1,0
112,112,125081,1,2
232,48,125427,1,0
232,48,125542,1,0
232,48,125658,1,2
320,64,125888,1,0
320,64,126004,1,0
320,64,126119,1,4
392,112,126350,1,4
456,176,126581,5,2
440,264,126811,5,0
440,264,126927,1,2
336,352,127273,1,2
256,312,127504,1,4
168,312,127734,5,0
168,216,127965,1,8
259,216,128196,1,0
76,216,128658,1,0
76,125,128888,1,8
168,125,129119,1,0
8,48,129581,1,0
8,48,129696,1,0
8,48,129811,1,8
96,48,130042,1,8
184,48,130273,5,0
272,48,130504,1,0
360,48,130734,1,8
448,48,130965,1,0
368,208,131427,1,0
276,208,131658,1,8
186,208,131888,1,0
95,208,132119,5,2
60,292,132350,1,0
60,292,132465,1,2
188,339,132811,1,0
256,280,133042,1,2
344,312,133273,1,0
344,312,133388,1,0
344,312,133504,1,8
344,221,133734,1,8
344,130,133965,6,0,B|432:130,1,65
445,214,134427,2,0,B|519:224,1,65,8|0
472,304,134888,2,0,B|320:312,1,130,0|8
248,320,135581,1,0
160,328,135811,5,8
80,288,136042,1,0
80,288,136158,1,2
80,288,136273,1,2
72,200,136504,1,2
128,128,136734,5,0
192,192,136965,1,0
256,256,137196,1,8
320,192,137427,1,0
376,120,137658,2,0,B|280:120,1,65
240,64,138119,2,0,B|160:48,1,65,8|0
128,128,138581,2,0,B|48:136,1,65
48,224,139042,2,0,B|112:264,1,65,8|0
160,328,139504,5,8
248,336,139734,1,0
248,336,139850,1,2
248,336,139965,1,2
320,280,140196,1,4
408,280,140427,5,0
456,200,140658,1,0
408,120,140888,1,8
344,48,141119,1,0
256,56,141350,5,0
104,336,141811,1,8
432,344,142273,1,0
304,208,142734,1,8
208,208,142965,1,0
256,288,143196,5,8
168,280,143427,1,0
168,280,143542,1,2
168,280,143658,1,2
112,208,143888,1,4
136,120,144119,5,0
136,24,144350,1,0
224,24,144581,1,8
224,120,144811,1,0
312,120,145042,2,0,B|392:120,1,65
464,120,145504,5,8
408,192,145734,1,0
424,280,145965,1,2
240,304,146427,1,8
144,296,146658,2,2,B|-8:360|88:200,1,195,2|4
96,120,147581,5,0
160,56,147811,2,0,B|248:64,1,65,0|0
224,61,148158,1,0
224,61,148273,1,8
312,64,148504,1,0
400,56,148734,1,4
416,144,148965,1,0
416,144,149081,1,0
416,144,149196,1,8
360,216,149427,1,0
216,328,149888,5,0
128,304,150119,1,8
96,216,150350,1,0
120,128,150581,1,4
184,64,150811,1,0
184,64,150927,1,0
184,64,151042,1,8
272,64,151273,1,0
360,64,151504,5,2
128,232,151850,1,2
408,288,152196,1,4
256,192,152658,5,0
168,192,152888,1,8
72,192,153119,1,0
24,264,153350,1,0
72,336,153581,1,0
72,336,153696,1,0
72,336,153811,1,8
128,264,154042,1,0
72,192,154273,1,2
72,96,154504,5,0
72,96,154619,1,0
72,96,154734,1,8
152,56,154965,1,0
240,80,155196,1,2
328,56,155427,1,2
328,144,155658,1,4
488,56,156119,5,4
152,128,156465,1,0
344,320,156811,1,2
456,176,157273,5,0
456,176,157388,1,0
456,176,157504,1,8
376,216,157734,1,2
288,232,157965,1,4
200,200,158196,1,0
200,200,158311,1,0
200,200,158427,1,8
144,128,158658,1,0
136,40,158888,5,2
128,320,159234,1,2
416,136,159581,1,4
416,320,160042,5,0
320,320,160273,1,8
224,320,160504,1,0
160,256,160734,2,0,B|48:248,1,97.5
32,112,161427,1,0
112,72,161658,1,0
200,40,161888,5,0
200,40,162004,1,0
200,40,162119,1,8
200,128,162350,1,2
288,128,162581,1,2
376,128,162811,5,8
376,216,163042,1,8
376,304,163273,1,0
464,304,163504,5,4
256,192,163850,1,0
64,72,164196,1,2
64,256,164658,5,0
64,256,164773,1,0
64,256,164888,1,8
120,328,165119,1,0
208,328,165350,1,4
296,328,165581,1,0
296,328,165696,1,0
296,328,165811,1,8
296,232,166042,1,2
368,280,166273,5,0
448,168,166619,1,0
448,120,166735,1,8
448,32,166965,1,4
264,64,167427,5,0
176,32,167658,1,8
88,40,167888,1,0
32,104,168119,1,2
32,192,168350,1,0
32,192,168465,1,0
32,192,168581,1,8
96,248,168811,1,0
184,256,169042,1,0
248,192,169273,5,0
248,192,169388,1,0
248,192,169504,1,8
336,192,169735,1,0
400,256,169965,1,2
464,192,170196,1,8
400,120,170427,1,8
232,48,170888,5,4
144,72,171119,1,0
144,72,171235,1,0
144,72,171350,1,8
176,160,171581,1,0
136,336,172042,5,0
136,336,172158,1,0
136,336,172273,1,8
224,336,172504,1,0
224,240,172735,1,4
304,208,172965,1,0
304,208,173081,1,0
304,208,173196,1,8
304,112,173427,1,0
368,48,173658,5,2
80,112,174004,1,0
256,336,174350,1,4
376,216,174811,5,0
440,160,175042,1,8
440,72,175273,1,0
352,72,175504,2,0,B|320:128|248:88,1,97.5
184,192,176196,1,0
120,136,176427,1,4
256,192,176658,12,8,177811
256,192,178273,5,4
