osu file format v9

[General]
AudioFilename: Blind New.mp3
AudioLeadIn: 0
PreviewTime: 15177
Countdown: 0
SampleSet: Normal
StackLeniency: 0.7
Mode: 0
LetterboxInBreaks: 0

[Editor]
Bookmarks: 28892,104760,173323,193903,200109,214688
DistanceSpacing: 1
BeatDivisor: 4
GridSize: 8

[Metadata]
Title:Blind New
Artist:Yellow Zebra
Creator:S i R i R u
Version:Rurion
Source:Touhou
Tags:Fujimiya yuki Rumia orioncomet

[Difficulty]
HPDrainRate:7
CircleSize:4
OverallDifficulty:7
ApproachRate:8
SliderMultiplier:1.7
SliderTickRate:1

[Events]
//Background and Video events
0,0,"BG.jpg"
//Break Periods
2,173531,186295
//Storyboard Layer 0 (Background)
//Storyboard Layer 1 (Fail)
//Storyboard Layer 2 (Pass)
//Storyboard Layer 3 (Foreground)
Sprite,Foreground,Centre,"SiRiRu.png",320,240 M,0,15188,,199,226 F,0,15188,15617,0,1 S,0,15188,104760,0.5071997,0.5007997 F,0,15617,104331,1 F,0,104331,104760,1,0 F,0,104760,186617,0 F,0,186617,187045,0,0.9856 F,0,187045,193474,0.9856,1 F,0,193474,193903,1,0 F,0,193903,200331,0 F,0,200331,200760,0,1 F,0,200760,214045,1 F,0,214045,214474,1,0
Sprite,Foreground,Centre,"orioncomet.png",320,240 M,0,104760,,204,225 S,0,104760,,0.5519998 F,0,104760,105188,0,0.9439999 F,0,105188,105295,0.9439999 F,0,105295,173331,0.9439999,1 F,0,173331,173760,1,0 F,0,173760,193903,0 F,0,193903,194331,0,1 F,0,194331,199903,1 F,0,199903,200331,1,0 F,0,200331,214474,0 F,0,214474,214903,0,1 F,0,214903,228188,1 F,0,228188,228617,1,0
//Storyboard Sound Samples
//Background Colour Transformations
3,100,0,0,0

[TimingPoints]
1903,428.571428571429,4,2,1,50,1,0
15617,-100,4,2,1,50,0,1
15831,-100,4,2,1,50,0,0
25903,-100,4,1,0,40,0,0
27403,-100,4,2,1,40,0,0
27724,-100,4,1,0,31,0,0
28367,-100,4,1,0,41,0,0
28795,-100,4,1,0,50,0,0
29331,-125,4,2,1,40,0,0
54831,-125,4,1,0,29,0,0
55795,-125,4,1,0,44,0,0
56224,-125,4,1,0,60,0,0
56760,-100,4,2,1,50,0,0
67903,-100,4,1,0,40,0,0
68760,-100,4,1,0,30,0,0
69724,-100,4,1,0,41,0,0
70474,-100,4,2,1,50,0,1
70688,-100,4,2,1,50,0,0
80974,-100,4,1,0,39,0,0
81831,-100,4,1,0,50,0,0
83545,-100,4,1,0,40,0,0
84188,-100,4,2,1,50,0,1
84403,-100,4,2,1,50,0,0
94474,-100,4,1,0,40,0,0
95867,-100,4,2,1,40,0,0
96188,-100,4,1,0,40,0,0
98117,-200,4,2,1,40,0,0
103153,-125,4,1,0,40,0,0
103581,-200,4,2,1,40,0,0
103795,-200,4,1,0,40,0,0
104760,-100,4,2,1,55,0,0
108081,-100,4,2,1,40,0,0
108295,-100,4,2,1,55,0,0
130581,-100,4,1,1,40,0,0
132081,-100,4,2,1,55,0,0
138081,-100,4,2,1,20,0,0
138295,-100,4,2,1,30,0,0
138510,-100,4,2,1,40,0,0
138724,-100,4,2,1,60,0,0
145903,-100,4,2,1,60,0,1
146117,-100,4,2,1,60,0,0
155867,-100,4,2,1,35,0,0
156081,-100,4,2,1,60,0,0
158010,-100,4,2,1,40,0,0
158224,-100,4,2,1,55,0,0
159617,-100,4,2,1,55,0,1
159831,-100,4,2,1,55,0,0
171724,-100,4,2,1,30,0,0
172153,-100,4,2,1,40,0,0
172795,-100,4,2,1,55,0,0
186938,-200,4,2,1,30,0,0
198081,-100,4,1,1,49,0,0
200760,-100,4,2,1,50,0,0
201188,-100,4,2,1,50,0,1
201403,-100,4,2,1,50,0,0
213831,-100,4,1,1,31,0,0
214474,-100,4,2,1,50,0,1
214581,-100,4,2,1,60,0,0
226581,-100,4,2,1,40,0,0
227438,-100,4,2,1,60,0,0
228188,-100,4,1,1,69,0,0

[Colours]
Combo1 : 227,138,209
Combo2 : 255,149,43
Combo3 : 255,47,47
Combo4 : 130,175,46

[HitObjects]
168,64,15188,1,0
368,128,15402,1,0
192,320,15617,6,0,B|256:304|272:248,1,85,4|0
272,120,16045,2,0,B|224:160|232:224,1,85,8|0
320,208,16474,2,0,B|328:248|360:280|408:288|440:272,1,127.5
412,278,16902,2,0,B|472:280,2,42.5,8|0|0
336,336,17331,1,0
240,344,17545,1,0
168,280,17760,2,0,B|112:280|80:232,1,85,8|0
168,192,18188,2,0,B|216:184|272:120|248:48,1,170,0|8
160,88,18831,1,0
64,88,19045,37,0
64,88,19260,1,0
160,88,19474,2,0,B|160:16,2,42.5,8|0|0
256,88,19903,2,0,B|256:152|184:176,1,85
144,216,20331,5,8
216,280,20545,1,0
256,304,20653,1,0
304,304,20760,1,0
280,216,20974,1,0
376,232,21188,2,0,B|432:232|464:280,1,85,8|0
344,144,21617,2,0,B|304:96|200:120|200:176,1,170,0|8
201,166,22260,1,0
104,168,22474,37,4
64,240,22688,1,0
104,312,22903,1,8
152,240,23117,2,0,B|200:240,2,42.5,0|0|0
192,312,23545,1,0
320,312,23760,37,8
368,240,23974,1,0
368,152,24188,1,0
288,192,24403,1,0
288,104,24617,1,8
216,144,24831,2,0,B|184:104,2,42.5
216,232,25260,1,0
288,280,25474,1,8
288,192,25688,1,0
360,120,25903,37,0
392,152,26117,1,0
408,192,26331,1,0
408,232,26545,1,0
392,272,26760,1,0
392,272,26867,6,0,B|392:352,1,42.5
312,272,27188,2,0,B|312:176,1,85,0|4
144,136,27831,37,0
40,224,28045,1,0
88,352,28260,1,0
112,272,28474,5,0
176,216,28688,1,0
256,248,28903,1,0
256,336,29117,1,0
424,160,29331,38,0,B|392:112|328:88|280:96,1,136,4|0
232,96,29974,2,0,B|152:96,1,68
40,168,30403,2,0,B|88:168|120:144,1,68,0|8
184,176,30831,1,0
168,264,31045,6,0,B|168:344,1,68
248,304,31474,2,0,B|248:224,2,68
328,280,32117,1,0
392,336,32331,1,8
472,312,32545,1,0
472,224,32760,38,0,B|472:64,1,136
392,112,33403,2,0,B|392:32,1,68
328,168,33831,2,0,B|328:216|360:248,1,68,0|8
312,88,34260,1,0
248,144,34474,2,0,B|200:144|152:112|136:72,1,136
137,76,35117,1,0
216,48,35331,5,0
144,160,35545,1,0
168,296,35760,1,8
296,344,35974,1,0
296,264,36188,38,0,B|384:264,1,68,4|0
336,192,36617,2,0,B|408:192,1,68,0|0
376,120,37045,2,0,B|448:120,2,68,0|0|8
88,56,37903,5,0
144,120,38117,1,0
112,200,38331,1,0
168,264,38545,1,0
192,184,38760,37,0
256,304,38974,1,0
128,336,39188,1,8
128,336,39403,1,0
264,224,39617,6,0,B|312:224|336:280,1,68
368,320,40045,1,0
392,240,40260,1,0
456,184,40474,1,0
416,112,40688,1,0
336,96,40903,2,0,B|256:96,1,68,8|4
120,176,41545,1,0
184,232,41760,1,0
184,320,41974,37,0
312,280,42188,1,0
256,152,42403,1,0
384,120,42617,1,8
384,120,42831,1,0
320,64,43045,6,0,B|272:32|208:32|160:48,1,136,4|0
72,136,43688,2,0,B|120:128|136:88,1,68
208,120,44117,2,0,B|240:136|256:176,1,68,0|8
184,208,44545,1,0
104,224,44760,2,0,B|104:280|176:312|208:288,1,136
264,240,45402,2,0,B|304:216|344:216,2,68
280,320,46045,1,8
280,320,46260,1,0
256,152,46474,38,0,B|224:96|304:112|256:24,2,136
256,232,47545,1,0
184,192,47760,2,0,B|104:192,1,68,8|0
32,192,48188,2,0,B|32:144|72:104|136:112,1,136
200,112,48831,1,0
256,48,49045,6,0,B|312:48|344:72,1,68
352,312,49474,2,0,B|327:283|327:251,1,68,8|0
456,128,49902,38,0,B|456:264,2,136,4|0|0
376,112,50974,1,0
320,176,51188,2,0,B|288:160|248:168,1,68,8|0
200,224,51617,2,0,B|176:248|128:248,1,68
72,192,52045,1,0
104,112,52260,1,0
184,136,52474,2,0,B|232:136|256:104,1,68
394,103,52902,2,0,B|352:88|320:96,1,68,8|0
256,192,53331,6,0,B|256:328,1,136
256,328,53974,1,0
336,304,54188,2,0,B|336:152,1,136,0|8
256,40,55045,37,0
256,80,55260,1,0
256,128,55474,1,0
256,176,55688,1,0
256,304,55902,5,0
56,192,56117,1,0
256,80,56331,1,0
456,192,56545,1,0
120,296,56760,38,0,B|118:242|168:192,1,85,4|0
176,184,57081,2,0,B|208:152|208:136,1,42.5,0|8
256,80,57402,1,0
304,152,57617,2,2,B|376:144|424:184|424:232,2,127.5
272,240,58474,5,4
120,232,58795,1,0
104,208,58902,1,8
176,136,59117,1,0
208,40,59331,1,0
296,96,59545,38,0,B|368:32,1,85,0|8
392,120,59974,2,0,B|320:184,1,85,0|4
208,224,60510,1,0
168,224,60617,2,0,B|56:224,1,85,8|0
64,144,61045,2,0,B|80:112|136:80|200:88,1,127.5
216,88,61474,2,0,B|280:88,2,42.5,8|0|0
256,168,61902,2,0,B|248:216|328:248|368:192,1,127.5,4|0
349,210,62331,2,0,B|448:208,2,85,8|0|8
392,136,62974,5,0
280,48,63188,1,8
136,80,63402,1,8
88,216,63617,37,4
120,296,63831,1,0
120,296,63938,1,0
120,296,64045,2,0,B|224:296,1,85,8|0
200,208,64474,2,0,B|272:208|312:264|320:280,1,127.5
309,263,64902,2,0,B|310:356,1,85,8|0
384,312,65331,2,0,B|384:160,1,127.5
384,144,65760,1,8
320,64,65974,5,0
232,64,66188,2,0,B|224:104|176:128,1,85
136,48,66617,1,8
72,104,66831,1,0
72,192,67045,38,0,B|72:296,1,85,4|0
72,320,67367,2,0,B|72:368,1,42.5,0|8
160,352,67688,1,0
232,304,67902,2,0,B|288:296,2,42.5
176,240,68331,2,0,B|144:200,2,42.5
232,304,68760,5,0
256,216,68974,1,0
344,160,69188,1,0
456,152,69402,1,0
456,240,69617,37,0
416,312,69831,1,0
400,312,69938,1,0
384,312,70045,1,0
368,312,70152,1,0
352,312,70260,1,0
336,312,70367,1,0
320,312,70474,1,4
136,192,70688,5,0
224,184,70902,2,0,B|256:136|240:80,1,85,8|0
101,54,71331,2,0,B|120:96|160:112,1,85
200,40,71760,1,8
288,40,71974,1,0
360,88,72188,1,0
384,168,72402,1,0
296,160,72617,38,0,B|256:192|192:184,1,85,8|0
56,128,73045,2,0,B|104:120|144:152,1,85
136,232,73474,1,8
216,272,73688,1,0
216,272,73795,1,0
216,272,73902,1,0
288,328,74117,5,0
328,352,74224,1,0
376,344,74331,2,0,B|408:304|408:240,1,85,8|0
344,208,74760,2,0,B|344:120,1,85
272,80,75188,1,8
192,112,75402,2,0,B|144:56,2,42.5,0|0|0
168,192,75831,1,0
104,144,76045,37,8
88,224,76260,1,0
120,304,76474,1,0
152,336,76581,1,8
192,344,76688,2,0,B|280:344,1,85,0|8
344,288,77117,1,0
408,232,77331,6,0,B|408:184|376:152,1,85,4|0
312,208,77760,2,0,B|216:208,1,85,8|0
152,256,78188,37,0
72,72,78402,1,0
160,72,78617,5,8
216,136,78831,1,0
296,104,79045,1,0
376,136,79260,1,0
312,192,79474,2,0,B|288:240|312:288,1,85,8|0
384,240,79902,2,0,B|432:240|464:272,1,85
400,328,80331,37,8
232,312,80545,1,0
112,192,80760,1,0
200,192,80974,5,0
216,112,81188,1,0
280,168,81402,1,0
296,88,81617,1,0
360,144,81831,1,0
376,64,82045,1,0
440,120,82260,1,4
456,288,82688,37,0
392,344,82902,1,0
336,280,83117,2,0,B|368:224,2,42.5
248,280,83545,5,0
232,280,83652,1,0
216,280,83760,1,0
200,280,83867,1,0
184,280,83974,1,0
168,280,84081,1,0
152,280,84188,1,4
96,40,84402,37,0
104,128,84617,2,0,B|144:160|192:152,1,85,8|0
176,72,85045,2,0,B|240:32|328:40,1,127.5
344,40,85474,2,0,B|408:40,2,42.5,8|0|0
376,120,85902,5,0
344,288,86117,1,0
288,128,86331,1,8
416,240,86545,1,0
336,200,86760,38,0,B|224:248,1,85
184,264,87188,2,0,B|72:312,1,85,8|0
72,104,87617,6,0,B|96:56|152:56|200:88|192:136,1,170,0|8
120,176,88260,2,0,B|112:216,2,42.5
32,184,88688,1,0
40,272,88902,1,8
104,328,89117,1,0
136,304,89224,1,0
176,304,89331,1,0
248,352,89545,1,0
336,344,89760,37,8
432,200,89974,1,0
384,40,90188,1,8
384,40,90295,2,0,B|336:40|280:72|272:128,1,127.5,8|8
279,101,90831,1,0
280,184,91045,5,4
112,232,91260,1,0
48,72,91474,1,8
208,24,91688,1,0
280,184,91902,38,0,B|256:232|280:280,1,85
352,240,92331,1,8
344,328,92545,1,0
424,288,92760,5,0
400,120,92974,1,0
232,104,93188,1,8
176,264,93402,1,0
88,264,93617,38,0,B|88:208|48:184,1,85
112,128,94045,2,0,B|160:96|160:40,1,85,8|0
184,176,94474,5,0
272,184,94688,1,0
320,112,94902,2,0,B|360:128|384:168|376:216,1,127.5
376,256,95331,2,0,B|376:328,2,42.5
272,272,95760,37,0
40,312,95974,1,4
144,152,96402,5,0
184,128,96617,1,0
224,120,96831,1,0
264,120,97045,1,0
304,120,97260,1,0
392,128,97474,37,0
392,152,97581,1,0
392,176,97688,1,0
392,200,97795,1,0
392,224,97902,1,4
296,280,98117,5,0
208,280,98331,2,0,B|152:280,1,42.5,2|0
112,216,98760,1,0
112,128,98974,2,0,B|160:128,1,42.5,0|8
216,64,99402,1,0
304,64,99617,2,0,B|304:128,1,63.75,0|0
304,168,100045,2,0,B|304:216,1,42.5,2|0
384,192,100474,37,8
296,336,100688,1,0
128,320,100902,1,8
56,168,101117,1,0
144,168,101331,6,0,B|216:168,1,63.75,4|0
232,136,101760,2,0,B|280:136,1,42.5,2|0
272,48,102188,1,0
344,88,102402,1,0
360,168,102617,1,8
80,312,103045,37,4
80,224,103260,2,0,B|56:200,2,34
152,264,103688,1,0
152,176,103902,1,0
216,120,104117,5,0
232,136,104224,1,0
248,152,104331,1,0
264,168,104438,1,0
280,184,104545,1,0
296,200,104652,1,0
312,216,104760,6,0,B|360:312|272:368,1,170,4|2
256,280,105402,1,0
256,280,105831,2,0,B|216:296|160:280,1,85,2|8
136,208,106260,2,0,B|224:160|304:216,1,170
328,136,106902,1,2
328,136,107117,6,0,B|408:176|384:288,1,170,0|2
320,224,107760,1,8
248,272,107974,1,0
312,328,108188,2,0,B|224:384|160:288,1,170,4|2
80,320,108831,1,0
48,240,109045,2,0,B|88:216|144:224,1,85,2|0
160,144,109474,37,8
328,144,109688,1,0
232,288,109902,2,0,B|200:232|272:184|232:120,1,170,4|2
160,160,110545,1,0
88,200,110760,2,0,B|80:296|192:320,1,170,0|8
256,56,111617,5,4
320,112,111831,1,0
256,168,112045,2,0,B|152:168|128:72,2,170,2|2|8
320,112,113117,1,0
360,184,113331,2,0,B|328:280|208:240,1,170,4|2
280,176,113974,1,0
320,96,114188,2,0,B|216:80|176:176,1,170,0|8
456,344,115045,37,4
384,296,115260,1,2
384,296,115474,2,0,B|304:352,2,85,2|0|0
392,208,116117,2,0,B|480:152,1,85,2|8
392,112,116545,2,0,B|288:136|320:264,1,170,4|2
315,241,117188,5,2
208,328,117402,1,0
120,224,117617,1,2
272,304,117831,37,0
160,176,118045,1,8
32,288,118260,1,0
32,184,118474,6,0,B|56:88|168:96,1,170,4|2
272,104,119117,2,0,B|296:64|344:40,1,85,2|0
352,160,119545,2,0,B|327:198|280:224,1,85,2|8
400,232,119974,2,0,B|444:225|488:192,1,85
440,96,120402,1,2
440,96,120617,1,2
328,96,120831,38,0,B|304:176|232:104|192:176,1,170,0|0
192,264,121474,1,8
192,176,121688,1,2
112,208,121902,2,0,B|64:304|184:360,1,170,0|2
384,240,122760,6,0,B|424:144|344:72,1,170,2|8
312,152,123402,1,0
240,104,123617,2,0,B|208:192|296:256,1,170,0|2
376,240,124260,1,0
376,240,124474,2,0,B|416:144|352:64,1,170,0|8
192,56,125331,37,2
192,56,125760,2,0,B|240:120|168:160|208:224,1,170,2|0
328,336,126617,1,8
328,336,127046,2,0,B|280:272|352:232|312:168,1,170,0|2
248,224,127688,1,0
176,176,127903,2,0,B|128:240|200:280|160:344,1,170,0|8
176,96,128760,6,0,B|256:40|352:104,1,170,4|0
256,144,129403,1,0
176,192,129617,2,0,B|256:256|352:184,2,170,2|8|2
96,160,130688,37,0
192,40,130903,1,0
336,88,131117,1,0
256,216,131331,1,0
264,240,131438,1,0
272,264,131545,1,0
280,288,131653,1,0
288,312,131760,1,0
360,264,131974,5,0
440,296,132188,2,0,B|448:192|368:144,1,170,4|8
296,112,132831,1,2
360,56,133045,2,0,B|280:8|192:64,1,170,0|8
128,104,133688,1,0
200,152,133903,1,4
104,232,134224,2,0,B|80:280,1,42.5,0|8
168,296,134545,1,2
168,296,134974,37,0
248,328,135188,1,8
304,264,135403,1,0
384,280,135617,2,0,B|408:176|320:128,1,170,4|8
328,132,136260,1,2
304,216,136474,2,0,B|208:176|240:64,2,170,2|8|2
416,280,137653,6,0,B|456:328,1,42.5,0|8
368,352,137974,1,0
304,296,138188,1,8
232,256,138403,1,8
160,296,138617,1,8
80,320,138831,1,8
64,304,138938,1,8
48,288,139045,38,0,B|32:184|136:160,2,170,4|8|2
176,264,140224,2,0,B|208:224,1,42.5,0|8
144,168,140545,1,2
216,120,140760,2,0,B|304:152|296:256,2,170,4|8|0
136,144,141831,5,2
184,32,142045,1,8
312,80,142260,1,2
264,208,142474,2,0,B|256:312|376:336,1,170,4|8
352,248,143117,37,0
416,192,143331,1,2
352,136,143545,2,0,B|312:112|256:112,1,85,0|8
248,192,143974,1,2
200,120,144188,5,12
80,208,144617,1,2
136,352,145045,1,2
184,280,145260,37,8
200,256,145367,1,0
216,232,145474,1,8
232,208,145581,1,0
248,184,145688,1,8
264,160,145795,1,8
280,136,145903,5,4
384,48,146117,1,0
384,48,146331,1,8
496,128,146545,1,0
496,128,146760,2,0,B|480:232|368:224,1,170,4|8
378,224,147403,1,0
378,224,147617,1,2
272,320,147831,37,0
176,232,148045,1,8
280,160,148260,1,0
368,248,148474,1,4
280,80,148903,5,8
280,80,149117,1,2
280,80,149331,2,0,B|344:160|272:240,1,170,2|8
277,234,149974,1,0
277,234,150188,1,2
128,312,150617,37,8
72,248,150831,1,0
80,224,150938,1,0
88,200,151045,1,2
160,152,151260,1,0
160,152,151474,2,0,B|216:160|208:256|288:256,1,170,8|2
432,56,152331,5,8
352,96,152545,2,0,B|359:146|400:184,1,85,0|4
480,192,152974,2,0,B|456:232|400:264,1,85,2|8
336,248,153403,2,0,B|342:296|376:336,1,85,0|2
80,328,154045,37,8
160,288,154259,2,0,B|153:237|112:200,1,85,0|2
152,128,154688,2,0,B|192:152|224:208,1,85,0|8
296,200,155117,2,0,B|290:151|256:112,1,85,0|2
144,248,155760,5,8
216,288,155974,1,10
256,192,156188,12,4,157688
256,192,158117,37,4
256,192,158331,1,8
216,112,158545,1,8
200,96,158653,1,0
184,80,158760,1,8
104,104,158974,1,8
96,128,159081,1,0
104,152,159188,1,8
112,176,159295,1,0
104,200,159403,1,8
96,224,159510,1,8
104,248,159617,1,12
176,288,159831,5,0
240,232,160045,1,8
264,152,160260,1,2
280,72,160474,2,0,B|368:120|328:216,1,170,4|8
272,280,161117,37,2
352,312,161331,1,2
440,312,161545,1,2
504,248,161760,2,0,B|408:248|360:160,1,170,8|4
256,352,162617,5,8
200,288,162831,1,2
248,216,163045,2,0,B|344:240|336:352,2,170,4|8|2
136,88,164331,37,8
224,80,164545,1,0
256,88,164653,1,0
288,96,164760,1,2
352,152,164974,1,2
384,232,165188,2,0,B|368:280|320:296,1,85,8|0
328,292,165617,1,2
160,328,166045,6,0,B|64:288|80:192,1,170,8|2
160,80,166688,1,0
264,168,166903,1,8
152,248,167117,1,0
48,168,167331,1,6
216,168,167760,37,8
216,168,167974,1,0
216,168,168188,1,2
168,256,168403,1,0
168,256,168617,1,8
248,312,168831,1,2
248,312,169045,2,0,B|328:368|416:304,1,170,2|8
328,240,169688,1,2
416,232,169903,2,0,B|392:136|288:128,1,170,4|8
288,216,170545,5,8
264,216,170653,1,0
240,216,170760,1,8
216,216,170867,1,8
192,216,170974,1,8
128,160,171188,1,8
152,40,171403,37,8
352,40,171831,1,8
296,104,172045,1,8
360,160,172260,1,8
416,224,172474,1,8
352,280,172688,1,8
280,328,172903,1,8
256,312,173010,1,0
232,296,173117,1,8
216,280,173224,1,8
200,264,173331,1,12
104,288,187045,22,0,B|208:288,1,85,4|0
256,232,187688,1,0
256,144,187903,2,0,B|304:144|320:176,2,63.75
168,144,188760,1,4
72,288,189188,1,0
160,288,189403,2,0,B|160:344,1,42.5
248,288,189831,2,0,B|248:184,1,85
248,203,190474,1,4
328,104,190795,5,0
328,104,190903,1,0
384,168,191117,1,0
408,88,191331,2,0,B|408:48|368:32,2,63.75
464,152,192188,1,4
464,240,192403,38,0,B|464:296,1,42.5
256,344,192831,2,0,B|256:288,1,42.5
48,232,193260,2,0,B|48:288,1,42.5
256,344,193688,1,0
256,232,193903,22,0,B|256:128,2,85,4|2|2
328,280,194974,1,0
400,240,195188,2,0,B|400:152,1,85,0|4
448,88,195831,2,0,B|480:88,2,21.25
360,88,196260,1,2
360,88,196474,1,2
312,160,196688,5,0
264,232,196903,1,0
184,208,197117,1,0
136,136,197331,2,0,B|181:120|232:136,1,85,4|0
256,56,197974,1,0
328,96,198188,38,0,B|392:96,2,42.5
264,152,198617,2,0,B|224:176,2,42.5
344,184,199045,1,0
280,240,199260,1,0
216,296,199474,1,0
216,296,199688,1,0
288,344,199903,1,0
368,328,200117,21,0
368,328,200224,1,0
368,328,200331,2,0,B|384:280|368:240,1,85
296,208,200760,1,0
128,208,200974,2,0,B|176:232|232:208,1,85,0|4
240,136,201403,1,0
272,56,201617,2,0,B|328:56|376:104|384:152,1,127.5,4|0
376,168,202045,2,0,B|376:224,2,42.5,0|0|8
456,128,202474,5,0
392,256,202688,1,0
248,280,202903,1,4
112,240,203117,1,0
192,208,203331,38,0,B|216:160|192:96,1,85,4|0
256,64,203760,1,8
288,144,203974,1,8
328,120,204081,1,8
344,80,204188,1,4
440,128,204403,5,0
440,168,204510,1,0
440,208,204617,2,0,B|440:288,2,42.5,8|0|0
360,240,205045,1,0
328,320,205260,1,0
272,256,205474,38,0,B|240:224|192:224,1,85,8|0
152,224,205795,2,0,B|96:224,1,42.5
48,160,206117,1,0
128,144,206331,2,0,B|192:152|256:120|280:56,1,170,8|0
360,72,206974,1,0
448,64,207188,5,0
448,320,207403,1,0
360,328,207617,37,4
224,224,207831,1,0
392,248,208045,1,8
232,312,208260,1,0
304,264,208474,6,0,B|320:176,1,85
272,104,208903,2,0,B|320:80|368:104,1,85,8|0
192,136,209331,2,0,B|152:160|104:144,1,85
136,64,209760,1,8
216,32,209974,37,0
216,248,210188,1,0
216,32,210403,1,0
216,248,210617,2,0,B|216:336,2,85,8|0|4
464,192,211474,5,8
464,280,211688,1,0
384,312,211903,1,0
328,248,212117,1,0
376,176,212331,37,8
256,336,212545,1,4
256,48,212974,5,0
176,88,213188,1,8
184,216,213510,1,0
200,200,213617,1,8
256,136,213831,37,0
280,136,213938,1,0
304,136,214045,1,0
328,136,214153,1,0
352,136,214260,1,0
376,136,214367,1,0
400,136,214474,1,4
448,208,214688,37,2
400,280,214903,1,8
320,312,215117,2,0,B|232:312,2,85,0|2|0
272,240,215760,37,8
360,240,215974,1,0
312,168,216188,1,2
208,288,216403,5,2
424,288,216617,1,8
312,96,216831,1,2
312,96,217045,2,0,B|344:160|264:192|312:264,1,170,4|8
376,208,217688,37,0
448,256,217903,2,0,B|480:192|400:160|448:88,1,170,4|8
368,48,218545,1,2
296,88,218760,1,2
296,176,218974,1,2
296,280,219188,5,8
296,280,219403,1,2
296,280,219617,2,0,B|208:320|120:272,2,170,0|0|4
256,40,220903,37,8
192,96,221117,1,0
264,136,221331,1,2
208,200,221545,2,0,B|136:256,1,85,0|8
312,200,221974,2,0,B|384:264,1,85,0|2
256,352,222617,5,8
256,264,222831,1,0
256,176,223045,1,2
200,104,223260,2,0,B|128:168,1,85,0|8
304,104,223688,2,0,B|376:168,1,85,0|2
256,288,224331,37,8
256,200,224545,1,8
256,192,224760,12,4,226260
256,192,226689,5,4
256,192,226903,1,12
280,272,227117,1,4
360,304,227332,1,12
432,256,227546,1,8
432,232,227653,1,0
424,208,227760,1,8
416,184,227867,1,0
400,160,227975,1,8
384,144,228082,1,8
360,128,228189,1,4
