osu file format v9

[General]
AudioFilename: Blind New.mp3
AudioLeadIn: 0
PreviewTime: 15177
Countdown: 0
SampleSet: Soft
StackLeniency: 0.7
Mode: 0
LetterboxInBreaks: 0

[Editor]
DistanceSpacing: 1.2
BeatDivisor: 4
GridSize: 8

[Metadata]
Title:Blind New
Artist:Yellow Zebra
Creator:S i R i R u
Version:Normal
Source:Touhou
Tags:Fujimiya yuki Rumia orioncomet

[Difficulty]
HPDrainRate:1
CircleSize:3
OverallDifficulty:3
ApproachRate:4
SliderMultiplier:0.8
SliderTickRate:1

[Events]
//Background and Video events
0,0,"BG.jpg"
//Break Periods
2,98103,103440
2,173530,185725
//Storyboard Layer 0 (Background)
//Storyboard Layer 1 (Fail)
//Storyboard Layer 2 (Pass)
//Storyboard Layer 3 (Foreground)
//Storyboard Sound Samples
//Background Colour Transformations
3,100,255,255,255

[TimingPoints]
1903,428.571428571429,4,2,1,40,1,0
15617,-100,4,2,1,40,0,1
15831,-100,4,2,1,40,0,0
19367,-100,4,1,1,40,0,0
19581,-100,4,2,1,40,0,0
22795,-100,4,1,1,40,0,0
23010,-100,4,2,1,40,0,0
25903,-100,4,2,1,29,0,0
27403,-100,4,2,1,40,0,0
27831,-100,4,1,0,50,0,0
29331,-100,4,2,1,40,0,0
55045,-100,4,2,1,30,0,0
56760,-100,4,2,1,40,0,0
67367,-100,4,1,1,40,0,0
67581,-100,4,2,1,40,0,0
70474,-100,4,2,1,40,0,1
70688,-100,4,2,1,40,0,0
80760,-100,4,2,1,40,0,0
82260,-100,4,2,1,40,0,0
82688,-100,4,1,0,50,0,0
84188,-100,4,2,1,40,0,1
84403,-100,4,2,1,40,0,0
87938,-100,4,1,1,40,0,0
88153,-100,4,2,1,40,0,0
88795,-100,4,1,1,40,0,0
89010,-100,4,2,1,40,0,0
94474,-100,4,2,1,24,0,0
95974,-100,4,2,1,40,0,0
96403,-100,4,1,0,49,0,0
97903,-100,4,2,2,61,0,0
104760,-100,4,2,1,39,0,0
130474,-100,4,2,1,25,0,0
132188,-100,4,2,1,39,0,0
135081,-100,4,1,1,39,0,0
135295,-100,4,2,1,39,0,0
135938,-100,4,1,1,39,0,0
136153,-100,4,2,1,39,0,0
141081,-100,4,1,1,39,0,0
141295,-100,4,2,1,39,0,0
143653,-100,4,1,1,39,0,0
143867,-100,4,2,1,39,0,0
145903,-100,4,2,1,39,0,1
146117,-100,4,2,1,39,0,0
149653,-100,4,1,1,39,0,0
149867,-100,4,2,1,39,0,0
155653,-100,4,1,1,39,0,0
155867,-100,4,2,1,39,0,0
158117,-100,4,1,1,34,0,0
158760,-100,4,1,1,44,0,0
159617,-100,4,2,1,39,0,1
159831,-100,4,2,1,39,0,0
163367,-100,4,1,1,39,0,0
163581,-100,4,2,1,39,0,0
166474,-100,4,2,1,25,0,0
169045,-100,4,2,1,39,0,0
169688,-100,4,2,1,30,0,0
171403,-100,4,2,1,39,0,0
171831,-100,4,1,1,49,0,0
173331,-100,4,2,1,39,0,0
199045,-100,4,2,1,30,0,0
200760,-100,4,2,1,20,0,0
201188,-100,4,2,1,39,0,1
201403,-100,4,2,1,39,0,0
204510,-100,4,1,1,39,0,0
204724,-100,4,2,1,39,0,0
206224,-100,4,1,1,39,0,0
206438,-100,4,2,1,39,0,0
207081,-100,4,1,1,39,0,0
207295,-100,4,2,1,39,0,0
211045,-100,4,2,1,26,0,0
212545,-100,4,2,1,39,0,0
212974,-100,4,1,1,51,0,0
214474,-100,4,2,1,39,0,1
214688,-100,4,2,1,39,0,0
218224,-100,4,1,1,39,0,0
218438,-100,4,2,1,39,0,0
221331,-100,4,2,1,30,0,0
223903,-100,4,2,1,39,0,0
224760,-100,4,2,1,26,0,0
226260,-100,4,2,1,39,0,0
226688,-100,4,1,1,50,0,0
228188,-100,4,1,1,50,0,0

[Colours]
Combo1 : 238,57,57
Combo2 : 171,252,203
Combo3 : 128,0,0
Combo4 : 249,254,186

[HitObjects]
256,192,15188,1,0
160,192,15617,2,0,B|64:192,2,80,4|8|0
208,112,16902,1,8
296,80,17331,1,0
392,80,17760,2,0,B|440:80,2,40,8|0|0
392,176,18617,1,8
392,272,19045,6,0,B|368:320|304:336|240:304,1,160
160,296,20331,2,0,B|112:264,2,40,8|0|0
216,216,21188,1,8
312,216,21617,1,0
352,128,22045,1,8
256,112,22474,6,0,B|240:72|168:64|128:72|104:104,1,160,4|0
176,168,23760,2,0,B|176:256,4,80,8|0|8|0|8
256,192,25903,12,4,27403
256,192,27831,2,0,B|256:144,7,40
344,112,29760,5,0
400,192,30188,1,0
344,272,30617,1,8
248,272,31045,2,0,B|216:272|192:272|168:296|168:312,2,80
248,176,32331,1,8
184,104,32760,1,0
264,56,33188,5,0
360,56,33617,2,0,B|400:56,2,40,0|0|8
360,152,34474,2,0,B|368:192|344:232|336:224,2,80
264,152,35760,1,8
168,144,36188,6,0,B|168:240,2,80,0|0|0
72,168,37474,1,8
72,264,37903,2,0,B|72:352,2,80
168,264,39188,1,8
264,288,39617,6,0,B|264:192,1,80
264,160,40260,1,0
200,88,40688,1,0
152,88,40903,2,0,B|96:88,2,40,8|4|0
152,184,41760,1,0
200,272,42188,1,0
296,248,42617,1,8
296,344,43045,6,0,B|360:352|400:296|392:232,1,160,4|0
392,144,44331,1,8
296,144,44760,1,0
200,144,45188,2,0,B|200:56,2,80,0|0|8
112,192,46474,6,0,B|64:192,2,40
184,256,47331,2,0,B|264:256,1,80,0|8
360,256,48188,2,0,B|360:224|328:192|304:184,1,80
224,176,49045,2,0,B|224:80,2,80,0|8|4
136,224,50331,5,0
136,320,50760,1,0
216,272,51188,1,8
296,320,51617,1,0
296,224,52045,1,0
376,272,52474,2,0,B|464:272,2,80,0|8|4
296,224,53760,5,0
224,160,54188,1,0
152,96,54617,1,8
256,192,55045,12,4,56760
168,216,57188,6,0,B|168:120,2,80,8|0|8
256,264,58474,1,0
304,344,58903,2,0,B|352:320|360:280|360:224|320:200,1,160,8|8
328,112,60188,6,0,B|384:104|400:72,2,80,0|8|0
232,112,61474,1,8
232,112,61903,2,0,B|232:208,1,80,0|8
168,264,62760,1,8
88,312,63188,2,0,B|32:312,2,40,8|8|4
80,216,64045,5,8
272,216,64903,1,8
272,216,65331,1,0
352,272,65760,1,8
352,272,66188,1,0
448,272,66617,1,8
448,176,67045,6,0,B|448:120|400:80|344:80|328:88,1,160
240,88,68331,2,0,B|152:88,2,80,8|4|2
200,176,69617,1,2
200,272,70045,5,8
200,272,70260,1,0
200,272,70474,2,0,B|104:272,2,80,4|8|0
296,272,71760,1,8
376,216,72188,2,0,B|368:184|328:160|304:160,1,80,0|8
256,96,73045,1,0
184,160,73474,6,0,B|104:160,2,80,8|0|8
256,224,74760,1,0
256,320,75188,2,0,B|304:320,2,40,8|0|0
176,272,76045,1,8
80,272,76474,1,0
80,176,76903,5,8
144,104,77331,1,4
240,104,77760,2,0,B|240:160,2,40,8|0|0
336,104,78617,2,8,B|392:104|424:152|424:208|408:224,1,160
312,216,79903,2,0,B|256:216,2,40,0|0|8
256,192,80760,12,4,82260
256,192,82688,6,0,B|256:240,7,40
168,192,84617,5,8
72,192,85045,2,0,B|72:104,2,80,0|8|8
136,264,86331,1,8
232,264,86760,1,0
296,192,87188,1,8
352,272,87617,6,0,B|408:232|408:176|400:120|352:96|304:72|232:96|224:136,1,320
192,208,89760,1,8
192,304,90188,1,0
96,296,90617,5,8
96,296,91045,1,4
40,216,91474,2,0,B|40:168|72:136,1,80,8|0
160,112,92331,1,8
256,112,92760,1,0
256,208,93188,2,0,B|352:208,2,80,8|0|8
256,192,94474,12,4,95974
256,192,96403,2,0,B|256:144,7,40,0|0|0|0|0|0|0|4
256,320,104760,6,0,B|304:320|344:272|344:224|328:192,1,160
240,200,106045,2,0,B|240:112,2,80,8|0|0
144,200,107331,1,0
144,200,107760,1,8
144,104,108188,5,0
232,128,108617,2,0,B|304:192,2,80,0|0|8
304,64,109903,1,0
392,112,110331,1,0
432,200,110760,1,0
432,296,111188,1,8
352,248,111617,5,4
264,208,112045,1,0
176,248,112474,1,0
176,344,112903,1,8
88,304,113331,2,0,B|88:216,1,80
152,152,114188,2,0,B|184:120|240:136,2,80,0|8|0
56,152,115474,5,0
96,240,115903,1,0
184,280,116331,1,8
280,280,116760,2,0,B|360:280,2,80
184,280,118045,1,8
120,352,118474,6,0,B|80:336|48:256|88:184|152:176|184:184,1,240,4|8
272,184,120188,2,0,B|448:184,1,160
464,272,121474,1,8
368,272,121903,6,0,B|352:312|304:328,1,80
232,272,122760,2,0,B|184:272|152:224,1,80,0|8
216,160,123617,2,0,B|224:112|256:88|304:64|352:80,1,160
432,80,124903,1,8
432,176,125331,5,0
312,328,126188,1,0
216,328,126617,1,8
152,256,127045,1,0
152,64,127903,1,0
248,64,128331,1,8
248,160,128760,5,0
328,112,129188,1,0
424,112,129617,1,0
424,112,130045,1,8
256,192,130474,12,4,132188
256,192,132617,5,8
320,264,133045,2,0,B|416:264,2,80,0|8|0
224,264,134331,1,8
208,168,134760,2,0,B|168:160|128:192|112:232|120:280,2,160
304,168,136903,1,8
304,264,137331,6,0,B|304:304,2,40,0|0|8
208,264,138188,1,8
208,264,138617,1,8
144,192,139045,6,0,B|144:96,2,80,4|8|0
72,256,140331,1,8
136,328,140760,2,0,B|312:328,1,160
360,256,142045,1,8
360,160,142474,6,0,B|272:160,1,80,0|8
256,64,143331,2,0,B|184:96|168:160|192:240|256:248,1,240,0|8
344,248,145045,1,0
344,344,145474,5,8
344,344,145903,1,4
248,344,146331,2,0,B|192:344,2,40,8|0|0
248,248,147188,1,8
184,176,147617,1,0
88,176,148045,1,8
136,88,148474,1,0
232,88,148903,1,8
328,88,149331,6,0,B|400:88|440:152|440:192,1,160
376,256,150617,1,0
304,320,151045,1,0
232,256,151474,1,8
232,160,151903,1,0
152,208,152331,5,8
152,208,152545,1,0
152,208,152760,1,4
56,208,153188,2,0,B|56:152,2,40,8|0|0
104,296,154045,2,0,B|104:336|144:360,2,80,8|0|8
176,232,155331,2,0,B|344:232,1,160
408,168,156617,1,8
448,80,157045,1,0
448,80,157260,2,0,B|448:40,2,40,0|8|4
352,80,158117,5,0
304,80,158331,1,0
208,80,158760,2,0,B|160:80,4,40,0|0|0|0|4
224,176,160045,5,8
224,272,160474,1,0
304,224,160903,2,0,B|352:224|376:264,2,80,8|0|8
224,272,162188,1,0
128,272,162617,1,8
72,192,163045,6,0,B|72:144|104:104|160:96|192:104,1,160
280,104,164331,1,8
352,168,164760,2,0,B|352:248,2,80,0|8|0
272,112,166045,1,8
256,192,166474,12,0,169045
256,192,169474,5,8
256,192,169903,12,4,171403
256,192,171831,6,0,B|256:152,7,40,0|0|0|0|0|0|0|4
256,136,187045,5,4
256,328,187903,1,0
256,136,188760,1,2
440,192,189617,1,0
440,192,189831,2,0,B|440:64,1,120
256,64,191331,5,0
120,192,192188,1,0
120,288,192617,1,0
200,240,193045,1,0
200,336,193474,1,0
296,336,193903,5,0
424,192,194760,2,0,B|424:96,2,80,0|0|2
256,96,196474,1,0
88,192,197331,5,2
88,192,198188,1,8
160,256,198617,1,8
256,192,199045,12,0,200760
256,192,201188,5,4
160,192,201617,1,0
96,264,202045,2,0,B|96:320,2,40,0|0|4
64,176,202903,2,0,B|72:120|120:104,1,80,4|4
200,104,203760,1,0
296,104,204188,6,0,B|456:104,1,160,4|0
416,192,205474,1,8
320,192,205903,2,0,B|160:192,2,160,0|0|4
416,192,208045,5,8
256,296,208903,1,8
184,232,209331,2,0,B|136:240|120:296,2,80,0|8|0
184,136,210617,1,8
256,192,211045,12,4,212545
256,192,212974,2,0,B|256:152,7,40,0|0|0|0|0|0|0|4
256,56,214903,5,8
328,120,215331,2,0,B|344:168|384:184,1,80,0|8
424,96,216188,2,0,B|480:32,2,80,0|8|0
424,192,217474,1,0
424,288,217903,6,0,B|376:296|312:256|312:192|320:136|376:112,1,240,0|8
456,152,219617,2,0,B|456:64,2,80,0|8|0
456,248,220903,1,8
256,192,221331,12,0,223903
368,120,224331,5,8
256,192,224760,12,4,226260
256,192,226688,2,0,B|256:152,7,40,0|0|0|0|0|0|0|4
