osu file format v9

[General]
AudioFilename: Blind New.mp3
AudioLeadIn: 0
PreviewTime: 15177
Countdown: 0
SampleSet: Normal
StackLeniency: 0.7
Mode: 0
LetterboxInBreaks: 0

[Editor]
Bookmarks: 28892,69617,104331,132403,145260,186617,212760
DistanceSpacing: 1
BeatDivisor: 4
GridSize: 8

[Metadata]
Title:Blind New
Artist:Yellow Zebra
Creator:S i R i R u
Version:Hard
Source:Touhou
Tags:Fujimiya yuki Rumia orioncomet

[Difficulty]
HPDrainRate:5
CircleSize:4
OverallDifficulty:6
ApproachRate:7
SliderMultiplier:1
SliderTickRate:1

[Events]
//Background and Video events
0,0,"BG.jpg"
//Break Periods
2,98102,103860
2,173531,186145
//Storyboard Layer 0 (Background)
//Storyboard Layer 1 (Fail)
//Storyboard Layer 2 (Pass)
//Storyboard Layer 3 (Foreground)
//Storyboard Sound Samples
//Background Colour Transformations
3,100,255,255,255

[TimingPoints]
1903,428.571428571429,4,2,1,45,1,0
15617,-100,4,2,1,45,0,1
15831,-100,4,2,1,45,0,0
19367,-100,4,1,1,45,0,0
19581,-100,4,2,1,45,0,0
22795,-100,4,1,1,45,0,0
23010,-100,4,2,1,45,0,0
25903,-100,4,2,1,29,0,0
27403,-100,4,2,1,45,0,0
27831,-100,4,1,0,50,0,0
29331,-100,4,2,1,40,0,0
55045,-100,4,1,1,30,0,0
55903,-100,4,1,1,41,0,0
56331,-100,4,1,1,50,0,0
56760,-100,4,2,1,45,0,0
67367,-100,4,1,1,45,0,0
67581,-100,4,2,1,45,0,0
70474,-100,4,2,1,45,0,1
70688,-100,4,2,1,45,0,0
81081,-100,4,1,1,45,0,0
81295,-100,4,2,1,45,0,0
81938,-100,4,1,1,45,0,0
82153,-100,4,2,1,45,0,0
82688,-100,4,1,0,50,0,0
84188,-100,4,2,1,45,0,1
84403,-100,4,2,1,45,0,0
87938,-100,4,1,1,45,0,0
88153,-100,4,2,1,45,0,0
88795,-100,4,1,1,45,0,0
89010,-100,4,2,1,45,0,0
94474,-100,4,2,1,24,0,0
95974,-100,4,2,1,40,0,0
96403,-100,4,1,0,49,0,0
97903,-100,4,2,2,61,0,0
104760,-100,4,2,1,40,0,0
130474,-100,4,2,1,25,0,0
132188,-100,4,2,1,45,0,0
135081,-100,4,1,1,45,0,0
135295,-100,4,2,1,45,0,0
135938,-100,4,1,1,45,0,0
136153,-100,4,2,1,45,0,0
141081,-100,4,1,1,45,0,0
141295,-100,4,2,1,45,0,0
143653,-100,4,1,1,45,0,0
143867,-100,4,2,1,45,0,0
144510,-100,4,1,1,45,0,0
144724,-100,4,2,1,45,0,0
145903,-100,4,2,1,45,0,1
146117,-100,4,2,1,45,0,0
149653,-100,4,1,1,45,0,0
149867,-100,4,2,1,45,0,0
155653,-100,4,1,1,45,0,0
155867,-100,4,2,1,45,0,0
158117,-100,4,1,1,40,0,0
158760,-100,4,1,1,45,0,0
159617,-100,4,2,1,45,0,1
159831,-100,4,2,1,45,0,0
163367,-100,4,1,1,45,0,0
163581,-100,4,2,1,45,0,0
166045,-100,4,2,1,25,0,0
167331,-100,4,2,1,45,0,0
167760,-100,4,2,1,25,0,0
169045,-100,4,2,1,45,0,0
170653,-100,4,1,1,45,0,0
170867,-100,4,2,1,45,0,0
171831,-100,4,1,1,55,0,0
173331,-100,4,2,1,45,0,0
199045,-100,4,2,1,49,0,0
200331,-100,4,2,1,45,0,0
201188,-100,4,2,1,45,0,1
201403,-100,4,2,1,45,0,0
211045,-100,4,2,1,26,0,0
212545,-100,4,2,1,45,0,0
212974,-100,4,1,1,51,0,0
214474,-100,4,2,1,45,0,1
214688,-100,4,2,1,45,0,0
221653,-100,4,1,1,45,0,0
221867,-100,4,2,1,45,0,0
223367,-100,4,1,1,45,0,0
223581,-100,4,2,1,45,0,0
224760,-100,4,2,1,30,0,0
226260,-100,4,2,1,39,0,0
226688,-100,4,1,1,60,0,0
228188,-100,4,1,1,60,0,0

[Colours]
Combo1 : 238,57,57
Combo2 : 171,252,203
Combo3 : 128,0,0
Combo4 : 249,254,186

[HitObjects]
256,192,15188,1,0
256,192,15402,1,0
256,192,15617,2,0,B|136:192,2,100,4|8|0
256,104,16902,1,8
296,88,17117,1,0
344,88,17331,1,0
344,176,17760,2,0,B|392:176,2,50,8|0|0
344,264,18617,1,8
344,264,19045,6,0,B|312:320|216:328|160:288,1,200
112,216,20331,2,0,B|112:176,2,25,8|0|0
112,216,20760,1,0
200,192,21188,2,0,B|256:192,1,50,8|0
296,192,21617,2,0,B|368:192,2,50,0|0|8
256,112,22474,6,0,B|240:72|168:64|104:88|96:144,1,200,4|0
96,184,23545,1,0
96,232,23760,2,0,B|96:336,4,100,8|0|8|0|8
256,192,25903,12,4,27403
256,192,27831,5,0
256,192,28045,2,0,B|256:144,6,50,0|0|0|0|0|0|4
256,280,29760,5,0
256,280,29974,2,0,B|144:280,1,100,0|0
112,280,30617,1,8
136,192,31045,2,0,B|136:160|120:128|104:112|72:104,2,100
200,128,32331,2,0,B|240:160|296:144,1,100,8|0
360,208,33188,5,0
280,248,33617,2,0,B|224:280,2,50,0|0|8
352,296,34474,2,0,B|392:304|432:280|440:248,2,100
320,328,35545,2,0,B|256:328,1,50,0|8
176,328,36188,6,0,B|72:328,1,100,4|0
40,248,37045,2,0,B|144:248,1,100,0|8
176,168,37903,2,0,B|216:128,2,50
232,240,38760,1,0
240,288,38974,1,0
272,320,39188,1,8
320,240,39617,6,0,B|320:128,1,100
320,96,40260,1,0
248,40,40688,1,0
248,40,40903,2,0,B|176:40,1,50,0|4
256,248,41545,5,0
312,192,41760,1,0
256,136,41974,1,0
200,192,42188,1,0
256,136,42403,1,0
312,192,42617,1,8
160,128,43045,6,0,B|96:128|48:184|56:248|64:280,1,200,4|0
152,248,44331,1,8
200,248,44545,2,0,B|256:248,1,50
312,184,45188,2,0,B|352:128,2,50
232,144,46045,1,8
144,144,46474,6,0,B|88:144,2,50
192,64,47331,2,0,B|248:64,2,50,0|0|8
104,64,48188,2,0,B|72:64|40:96|48:136,1,100
48,176,48831,1,0
48,224,49045,2,0,B|48:328,2,100,0|8|4
136,224,50331,5,0
192,152,50760,1,0
280,152,51188,1,8
360,112,51617,1,0
408,184,52045,1,0
408,232,52260,1,0
408,280,52474,2,0,B|408:336,2,50,0|0|8
320,264,53331,6,0,B|264:264|224:240,1,100
208,200,53974,1,0
208,152,54188,1,0
152,80,54617,1,8
96,152,55045,5,0
96,200,55260,1,0
104,248,55474,1,0
128,288,55688,1,0
168,304,55903,2,0,B|232:304,4,50,0|0|0|0|4
168,216,57188,6,0,B|168:104,2,100,8|0|8
248,176,58474,2,0,B|248:120,1,50
248,80,58903,2,0,B|272:48|312:32|336:32,2,100,8|0|8
328,120,60188,6,0,B|384:112|432:144,1,100,0|8
448,176,60831,1,0
448,224,61045,2,0,B|448:328,2,100,0|8|0
368,264,62331,2,0,B|328:304,2,50,8|0|8
312,192,63188,2,0,B|352:160,2,50,8|8|4
224,192,64045,5,8
136,192,64474,2,0,B|64:192,2,50,0|0|8
136,104,65331,1,0
208,48,65760,1,8
256,48,65974,1,0
296,64,66188,1,0
328,96,66403,1,0
328,144,66617,1,8
400,232,67045,6,0,B|400:280|360:336|312:344|240:344,1,200
168,280,68331,2,0,B|112:280,2,50,8|0|4
168,168,69188,1,2
168,280,69617,1,2
256,232,70045,5,8
256,232,70260,1,0
256,232,70474,2,0,B|256:176|288:144|304:136,1,100,4|8
344,216,71331,2,0,B|368:264,2,50,0|0|8
400,144,72188,2,0,B|392:112|352:88|320:96,1,100,0|8
280,96,72831,2,0,B|232:96,1,50
136,96,73474,6,0,B|80:96,2,50,8|0|0
184,176,74331,2,0,B|184:288,1,100,8|0
264,240,75188,2,0,B|296:240,2,25,8|0|0
264,240,75617,1,0
264,152,76045,1,8
336,96,76474,1,0
416,144,76903,6,0,B|416:200,2,50,8|0|4
416,56,77760,2,0,B|464:24,2,50,8|0|0
328,56,78617,2,8,B|240:56|240:152|144:136,1,200
152,48,79903,2,0,B|88:48,2,50,0|0|8
240,48,80760,6,0,B|328:32|392:152|352:280|224:272,1,350,4|4
160,232,82688,1,0
160,232,82903,2,0,B|120:280,4,50
160,144,84188,6,0,B|208:144|240:184|240:200,1,100,4|8
240,288,85045,2,0,B|240:344,2,50,0|0|8
312,232,85903,1,0
336,192,86117,1,0
344,144,86331,1,8
256,144,86760,1,0
256,56,87188,1,8
256,144,87617,6,0,B|256:344,2,200
256,144,89760,1,8
256,144,90188,1,0
168,144,90617,5,8
136,176,90831,1,0
136,224,91045,1,4
224,224,91474,2,0,B|240:256|232:288,2,50,8|0|0
176,296,92331,2,0,B|160:320|136:328,2,50,8|0|0
224,224,93188,2,0,B|256:184|320:192,1,100,8|0
296,280,94045,2,0,B|352:280,1,50,8|0
256,192,94474,12,4,95974
256,192,96403,5,0
256,192,96617,2,0,B|256:128,6,50
256,320,104760,6,0,B|304:320|344:272|320:184|248:192,1,200
208,192,105831,2,0,B|176:232,2,50,0|8|0
208,144,106474,2,0,B|208:32,2,100
296,144,107760,1,8
328,176,107974,1,0
376,176,108188,1,0
368,88,108617,6,0,B|368:32,2,50
448,128,109474,2,0,B|472:152|472:192|464:216|440:232,1,100,8|0
368,248,110331,2,0,B|352:288|360:328|384:344,2,100,0|0|8
280,248,111617,5,4
216,192,112045,1,0
144,240,112474,1,0
112,160,112903,1,8
168,88,113331,2,0,B|280:88,1,100
312,88,113974,1,0
312,88,114188,2,0,B|432:88,2,100,0|8|0
312,208,115474,5,0
312,208,115688,1,0
256,344,116117,1,0
256,344,116331,1,8
256,344,116545,1,4
120,248,116974,5,0
80,176,117188,1,0
120,104,117403,1,0
200,104,117617,1,0
280,104,117831,1,0
320,176,118045,1,8
136,240,118474,6,0,B|136:176|192:152,1,100,4|0
224,152,119117,2,0,B|344:152,1,100
368,152,119760,2,0,B|416:152,2,50,8|0|0
368,240,120617,2,0,B|368:288,2,50
280,240,121474,1,8
224,312,121903,6,0,B|184:336|144:336|120:328,1,100
152,240,122760,2,0,B|168:216|168:176|152:144,1,100,0|8
64,168,123617,2,0,B|64:216|24:256,2,100
64,120,124688,1,0
64,72,124903,2,0,B|64:16,2,50,8|0|4
152,104,125760,5,0
184,192,126188,1,0
272,200,126617,1,8
336,264,127045,1,0
416,304,127474,2,0,B|416:352,2,50
408,216,128331,5,8
432,176,128545,1,0
432,128,128760,1,0
344,152,129188,1,0
320,192,129403,1,0
320,240,129617,1,0
256,304,130045,1,8
256,192,130474,12,4,132188
200,232,132617,5,8
200,232,132831,1,0
200,232,133045,2,0,B|312:232,1,100,0|8
336,144,133903,2,0,B|384:144,2,50,0|0|8
256,104,134760,2,0,B|208:104|168:136|144:208|184:256,2,200
352,104,136903,1,8
416,168,137331,6,0,B|456:200,2,50,0|0|8
352,232,138188,1,8
312,248,138403,1,0
272,232,138617,1,8
232,248,138831,1,8
192,232,139045,1,4
104,232,139474,6,0,B|104:336,2,100,8|0|8
104,144,140760,2,0,B|104:96|168:64|248:88|248:152,1,200
176,200,142045,2,0,B|176:304,2,100,8|0|8
264,200,143331,2,0,B|312:200|344:264|320:344|256:344,2,200
176,200,145474,6,0,B|128:200,2,50,8|0|4
176,112,146331,1,8
200,72,146545,1,0
240,48,146760,1,0
304,112,147188,6,0,B|344:152,2,50,8|0|0
256,192,148045,1,8
256,240,148260,1,0
256,288,148474,1,0
344,320,148903,1,8
432,320,149331,6,0,B|480:264|472:160|416:120,1,200
344,136,150617,2,0,B|304:136,2,25,8|0|0
344,136,151045,1,0
344,224,151474,1,8
264,256,151903,1,0
176,256,152331,5,8
160,216,152545,1,0
176,176,152760,1,4
176,88,153188,2,0,B|224:48,2,50,8|0|0
256,136,154045,6,8,B|301:135|333:199|309:279|253:279,1,200
192,208,155331,2,0,B|136:207|112:287|144:351|190:351,1,200
280,352,156617,2,0,B|336:336|352:288,1,100,8|0
352,240,157260,2,0,B|352:184,2,50,0|8|4
272,208,158117,5,0
248,168,158331,1,0
208,152,158545,1,0
160,152,158760,2,0,B|104:152,4,50
160,240,160045,5,8
160,288,160260,2,0,B|160:336,2,50
160,240,160903,2,0,B|160:120,2,100,8|0|8
248,240,162188,1,0
328,192,162617,5,8
344,152,162831,1,0
384,136,163045,2,0,B|429:135|461:199|437:279|381:279,1,200
296,280,164331,1,8
296,280,164545,1,0
296,280,164653,1,0
296,280,164760,2,0,B|192:280,2,100,0|8|0
256,192,166045,12,0,167331
256,192,167760,12,0,169045
256,192,169474,6,0,B|256:144,2,50,8|0|4
328,248,170331,2,0,B|328:293|264:325|184:301|184:245,1,200,8|8
184,246,171403,1,4
256,56,171831,5,0
256,80,172045,1,0
256,104,172260,1,0
256,128,172474,1,0
256,152,172688,1,0
256,176,172903,1,0
256,200,173117,1,0
256,224,173331,1,0
96,192,187045,5,4
256,280,187903,1,0
416,192,188760,1,2
256,280,189617,1,0
256,280,189831,2,0,B|256:160,1,100
256,136,190474,1,2
328,248,191331,6,0,B|328:293|264:325|184:301|184:245,3,200,0|2|0|4
256,192,194760,6,0,B|256:80,2,100,0|0|2
256,192,196474,1,0
256,344,197331,5,2
256,344,198188,1,8
256,344,198617,1,8
256,256,199045,5,0
256,208,199260,1,0
256,160,199474,2,0,B|256:96,4,50
256,160,200760,1,0
256,160,201188,1,4
256,160,201403,1,0
256,160,201617,1,0
344,192,202045,6,0,B|392:192,2,50,8|8|4
344,280,202903,2,0,B|344:328|296:352|264:352,1,100,4|4
192,352,203760,2,0,B|144:352,2,50,8|8|4
192,264,204617,2,8,B|192:216|144:160|96:144|32:152,1,200
48,240,205903,2,0,B|48:304,2,50,0|0|8
136,240,206760,1,0
208,192,207188,5,8
240,160,207403,1,0
272,128,207617,2,0,B|352:56,2,100,4|8|0
344,184,208903,1,8
312,216,209117,1,0
280,248,209331,2,0,B|208:320,2,100,0|8|0
352,296,210617,1,8
256,192,211045,12,4,212545
256,192,212974,6,0,B|256:128,1,50
336,120,213403,2,0,B|336:184,1,50
336,248,213831,1,0
392,304,214045,1,0
336,360,214260,1,0
280,304,214474,1,4
168,240,214903,6,0,B|112:240,1,50,8|0
96,192,215331,2,0,B|56:192|24:160|24:120,1,100,0|8
24,80,215974,1,0
72,80,216188,2,0,B|192:80,1,100,0|8
272,80,217045,2,0,B|336:80|368:128,1,100,0|8
360,168,217688,1,0
360,216,217903,6,0,B|360:328,2,100,0|8|0
448,160,219188,2,0,B|448:128,2,25,8|0|0
448,208,219617,2,0,B|448:328,2,100,0|8|0
448,104,220903,1,8
352,104,221331,6,0,B|296:80|192:80|144:112,1,200,4|0
80,152,222617,1,8
80,240,223045,2,0,B|136:264|240:264|288:232,1,200
336,168,224331,1,8
256,192,224760,12,4,226260
256,192,226688,5,0
256,192,226903,2,0,B|256:136,6,50,0|0|0|0|0|0|4
