osu file format v7

[General]
AudioFilename: Believe heart.mp3
AudioLeadIn: 1500
PreviewTime: 50305
Countdown: 0
SampleSet: Normal
StackLeniency: 0.7
Mode: 0
LetterboxInBreaks: 1

[Editor]
Bookmarks: 16749,50278,85925,119470,164999,175940
DistanceSpacing: 1.20000004768372
BeatDivisor: 4
GridSize: 8

[Metadata]
Title:Believe Heart!
Artist:Yellow Zebra
Creator:Frill
Version:Normal
Source:Touhou
Tags:suwako yuki fujimiya suireika orbit of diffusion

[Difficulty]
HPDrainRate:3
CircleSize:3
OverallDifficulty:3
SliderMultiplier:0.699999999999999
SliderTickRate:1

[Events]
//Background and Video events
0,0,"suwakoo.jpg"
//Break Periods
2,73447,84512
2,142447,149454
2,153740,163571
//Storyboard Layer 0 (Background)
//Storyboard Layer 1 (Fail)
//Storyboard Layer 2 (Pass)
//Storyboard Layer 3 (Foreground)
//Storyboard Sound Samples
//Background Colour Transformations
3,100,64,0,64

[TimingPoints]
1247,352.941176470588,4,1,0,70,1,0
11014,-100,4,1,0,60,0,0
15074,-100,4,1,0,70,0,0
49501,-100,4,2,0,70,0,0
50658,-100,4,2,0,81,0,1
50923,-100,4,1,0,70,0,1
56545,-100,4,1,0,70,0,1
61952,-100,4,1,0,79,0,1
62192,-100,4,1,0,70,0,1
73246,-100,4,2,0,100,0,0
85952,-100,4,1,0,70,0,0
119835,-100,4,2,0,70,0,1
120452,-100,4,1,0,70,0,1
125560,-100,4,1,0,70,0,1
131104,-100,4,1,0,100,0,1
140923,-100,4,1,0,39,0,1
142246,-100,4,2,0,100,0,0
150780,-100,4,1,0,70,0,0
164986,-100,4,2,0,85,0,0
176923,-100,4,1,0,70,0,0
187589,-100,4,2,0,100,0,1
188129,-100,4,1,0,70,0,1
199158,-100,4,2,0,100,0,1
199463,-100,4,1,0,70,0,1
210178,-100,4,2,0,100,0,0

[Colours]
Combo1 : 0,240,0
Combo2 : 174,255,166
Combo3 : 237,232,18

[HitObjects]
424,120,1246,2,0,B|272:120,1,140,0|2
112,120,2658,2,0,B|112:264,1,140,0|2
280,264,4070,1,0
448,264,4776,1,2
448,96,5482,2,2,B|464:48,2,35,2|0|2
360,96,6188,2,2,B|320:104,2,35,2|0|2
360,184,6894,6,0,B|360:264|256:264,1,140,0|2
96,264,8305,2,8,B|96:120,2,140
264,264,10423,2,2,B|304:264,2,35
256,192,11129,12,4,15188
144,296,16776,6,2,B|288:296,1,140
456,296,18188,2,0,B|456:168|408:160,2,140,8|8|8
288,296,20305,2,2,B|136:296,1,140,2|0
64,296,21364,2,2,B|40:336,2,35
64,208,22070,5,0
64,120,22423,2,0,B|128:56|200:128,2,140
64,208,24188,1,0
152,208,24541,1,0
152,208,24894,2,0,B|184:168,2,35,2|2|0
152,288,25599,2,0,B|304:288,1,140
336,288,26482,5,0
424,288,26835,2,2,B|424:248,1,35
424,168,27364,2,2,B|424:120,1,35
304,168,28070,5,0
304,168,28246,1,0
304,168,28423,2,8,B|232:168|176:112,1,140
96,120,29482,2,0,B|96:32,2,69.9999999999999,0|8|0
96,248,30717,6,2,B|128:280,1,35,2|0
208,272,31246,2,0,B|288:272,1,69.9999999999999,0|2
360,272,31952,1,0
360,192,32305,2,0,B|360:112,2,69.9999999999999,0|2|0
360,280,33364,5,0
360,280,33541,1,0
360,280,33717,2,2,B|208:280,1,140
136,280,34776,1,0
56,280,35129,2,0,B|56:128,1,140,8|8
224,136,36541,5,8
304,136,36894,1,0
384,136,37247,1,8
464,136,37599,2,0,B|464:216,1,69.9999999999999,0|4
384,304,38482,2,2,B|400:344,2,35
256,304,39364,6,2,B|128:304|72:192,1,210
80,120,40776,1,0
160,120,41129,2,0,B|184:80,2,35
288,120,42011,6,0,B|408:120,1,105,0|8
392,208,42894,1,0
392,208,43247,2,8,B|392:328|328:328,1,140,8|0
296,328,44129,1,2
256,328,44305,1,4
128,328,44835,6,0,B|128:208,1,105,4|0
128,136,45717,1,0
128,48,46070,1,0
216,48,46423,2,2,B|296:48,1,69.9999999999999
368,48,47129,2,2,B|368:128,1,69.9999999999999
256,192,47835,12,4,49952
256,192,50658,5,4
256,280,51011,2,0,B|192:320|104:288,2,140,8|8|8
344,280,52776,1,2
344,112,53482,2,2,B|192:112,1,140
200,280,54894,5,2
280,280,55247,1,2
360,280,55599,1,2
440,280,55952,1,2
440,280,56129,1,0
440,280,56305,6,4,B|440:200,1,69.9999999999999,4|0
440,128,57011,2,0,B|344:48|232:128,2,210
440,216,59482,1,0
440,304,59835,1,0
256,192,60188,12,4,61247
256,192,61952,5,0
256,104,62305,2,8,B|112:104,2,140
344,104,64070,2,0,B|416:152|376:240,2,140,2|8|8
176,104,66188,5,0
176,192,66541,1,0
176,280,66894,1,0
256,280,67247,1,0
256,280,67423,1,0
256,280,67599,6,0,B|344:280,1,69.9999999999999
408,280,68305,1,0
408,200,68658,1,0
408,112,69011,2,2,B|400:24|304:56,1,140
224,56,70070,1,0
136,56,70423,6,2,B|96:48,2,35
136,144,71129,2,2,B|96:168,2,35
256,192,71835,12,4,73247
384,96,85952,6,0,B|240:96,2,140,0|0|0
384,264,88070,1,0
296,264,88423,1,0
208,264,88776,2,0,B|136:264|112:168,2,140,0|2|0
296,264,90541,2,2,B|336:288,2,35
296,184,91247,6,2,B|272:96|192:104,1,140
112,104,92305,1,0
112,272,93011,2,0,B|80:304,2,35
200,272,93717,1,0
200,272,94070,2,8,B|344:272,2,140
160,272,95658,1,2
160,184,96011,2,2,B|160:144,1,35
240,184,96541,2,2,B|240:136,1,35
360,192,97247,6,0,B|360:344,1,140,0|2
272,336,98305,1,0
184,336,98658,2,2,B|184:184,1,140
184,72,99894,6,0,B|136:72,1,35
64,72,100423,2,2,B|64:32,2,35
64,160,101129,1,0
64,160,101482,2,2,B|64:312,1,140
152,304,102541,2,2,B|168:344,2,35
280,304,103423,6,2,B|392:304,1,105,2|0
472,304,104305,2,2,B|472:184,1,105,2|4
328,80,105717,6,2,B|256:80,3,69.9999999999999
176,80,107129,2,0,B|136:80,2,35,4|0|4
176,168,107835,2,0,B|144:208,2,35,4|0|4
264,168,108541,6,2,B|336:208|304:288,1,140
216,288,109599,1,0
128,288,109952,2,0,B|56:288,2,69.9999999999999,8|0|8
128,160,111188,6,2,B|248:160,1,105,2|8
320,160,112070,1,0
400,160,112423,2,0,B|400:72,2,69.9999999999999,8|0|8
400,200,113305,1,0
400,240,113482,1,8
296,312,114011,6,0,B|176:312,1,105,4|2
192,224,114894,1,0
192,144,115247,1,0
192,64,115599,2,2,B|104:72|96:160,1,140
96,280,116835,2,4,B|216:280,1,105,4|0
256,192,117717,12,4,119129
256,192,119835,6,0,B|112:192,2,140,4|0|0
344,192,121599,1,0
432,192,121952,1,8
352,48,122658,5,8
264,48,123011,1,0
176,48,123364,2,0,B|176:128,1,69.9999999999999,8|0
176,200,124070,5,2
264,200,124423,1,2
352,200,124776,1,2
432,200,125129,1,2
432,200,125305,1,0
432,200,125482,6,0,B|432:344,2,140,4|8|4
432,112,127247,1,8
344,112,127599,2,2,B|200:112,1,140,2|0
120,112,128658,1,0
120,200,129011,1,0
120,288,129364,1,0
208,288,129717,2,2,B|352:288,1,140
432,288,130776,1,2
432,288,130952,1,0
432,288,131129,6,0,B|432:144,1,140,0|8
432,64,132188,1,0
344,64,132541,1,8
264,64,132894,2,0,B|192:64,1,69.9999999999999,0|8
88,192,133952,2,2,B|232:192,2,140
88,280,135717,1,0
176,280,136070,6,0,B|328:280,1,140
400,280,137129,1,0
400,280,137482,2,2,B|400:136,2,140
232,280,139599,6,0,B|184:280,2,35
232,192,140305,2,2,B|280:192,2,35
256,192,141011,12,4,142247
256,192,150894,6,0,B|176:192,2,69.9999999999999
256,280,151952,1,0
256,280,152305,2,0,B|376:280,1,105
360,192,153188,6,0,B|360:144,2,35,0|0|0
384,104,165011,6,2,B|240:104,1,140
72,112,166423,2,2,B|72:256,1,140
240,256,167835,2,2,B|240:296,2,35
328,256,168541,2,0,B|376:256,2,35
328,168,169247,2,2,B|328:80|232:88,2,140,2|2|4
328,336,171364,6,0,B|176:336,1,140,0|2
104,336,172423,1,0
104,248,172776,1,2
104,80,173482,2,0,B|64:48,2,35
192,80,174188,2,2,B|232:80,2,35,2|2|6
256,192,174894,12,4,176305
256,192,177011,6,0,B|112:192,1,140,0|8
120,104,178070,1,0
120,104,178423,2,8,B|272:104,1,140
344,104,179482,1,0
424,104,179835,2,0,B|424:192,1,69.9999999999999,8|0
424,256,180541,6,2,B|448:328,2,69.9999999999999
336,256,181599,1,0
336,256,181776,1,0
336,256,181952,6,2,B|192:256,1,140
112,256,183011,1,0
112,168,183364,1,0
112,80,183717,1,0
200,80,184070,2,2,B|352:80,1,140
424,80,185129,1,0
424,168,185482,1,0
424,168,185835,1,0
424,168,186188,6,0,B|272:168,1,140,4|4
120,176,187599,6,4,B|120:264|208:264,1,140,4|0
288,264,188658,1,0
376,264,189011,1,2
376,264,189188,1,2
376,264,189364,1,2
464,264,189717,2,0,B|464:120,1,140,0|0
464,40,190776,2,0,B|360:48|360:128,1,140
360,200,191835,5,0
280,200,192188,1,0
200,200,192541,1,0
120,200,192894,1,0
120,200,193070,1,0
120,200,193247,6,4,B|128:104|208:96,1,140,4|0
368,96,194658,2,2,B|368:248,1,140
224,320,196070,6,0,B|144:320,1,69.9999999999999
72,320,196776,2,0,B|72:240,1,69.9999999999999
256,192,197482,12,4,199247
256,192,199599,6,8,B|104:192,2,140,0|8|8
344,192,201364,1,0
432,192,201717,2,2,B|440:240,2,35,2|0|2
432,104,202423,2,2,B|464:72,2,35,2|0|2
344,104,203129,1,2
256,104,203482,1,0
168,104,203835,6,2,B|168:248,1,140,2|0
168,328,204894,1,0
256,328,205247,2,0,B|352:328|352:232,1,140,4|0
352,160,206305,1,0
352,80,206658,2,0,B|264:80,1,69.9999999999999,2|2
256,192,207364,12,4,210188
