osu file format v9

[General]
AudioFilename: VocalBGM.mp3
AudioLeadIn: 993
PreviewTime: 62843
Countdown: 0
SampleSet: Soft
StackLeniency: 0.5
Mode: 0
LetterboxInBreaks: 1

[Editor]
Bookmarks: 93932,109416,233045
DistanceSpacing: 0.8
BeatDivisor: 4
GridSize: 4

[Metadata]
Title:Hoshiiro Yozora
Artist:Yellow Zebra & Denkai Seisakusho
Creator:frost-b-spec
Version:Normal+
Source:Touhou M-1 Grand prix
Tags:koi iro master spark yuki fujimiya marisa kirisame

[Difficulty]
HPDrainRate:6
CircleSize:4
OverallDifficulty:4
ApproachRate:6
SliderMultiplier:1.4
SliderTickRate:1

[Events]
//Background and Video events
0,0,"marisa0002.jpg"
//Break Periods
//Storyboard Layer 0 (Background)
//Storyboard Layer 1 (Fail)
//Storyboard Layer 2 (Pass)
//Storyboard Layer 3 (Foreground)
//Storyboard Sound Samples
//Background Colour Transformations
3,100,255,255,0

[TimingPoints]
1029,483.870967741935,4,2,1,50,1,0
62964,-100,4,2,1,50,0,1
93932,-100,4,2,1,50,0,0

[Colours]
Combo1 : 64,0,128
Combo2 : 255,255,0
Combo3 : 0,0,0
Combo4 : 0,0,128

[HitObjects]
96,96,1029,1,0
144,72,1270,1,0
192,48,1513,1,2
360,48,2238,1,0
392,96,2480,1,2
416,144,2722,1,0
424,200,2964,1,2
416,256,3206,1,0
392,304,3448,1,2
56,328,4900,5,0
80,280,5141,1,0
120,240,5384,1,2
256,336,6109,1,0
304,304,6352,1,2
328,256,6593,1,0
344,200,6835,2,0,B|424:160|336:96|424:80|432:48,1,140,2|2
72,72,8770,5,0
112,112,9012,1,0
160,88,9255,1,2
112,256,9980,1,0
88,304,10222,1,2
112,256,10464,1,0
152,216,10706,1,2
200,192,10948,1,0
256,192,11190,1,2
424,80,12158,5,2
400,128,12400,1,0
360,168,12642,1,2
312,192,12884,1,0
256,192,13126,1,2
256,80,13609,1,0
256,192,14093,1,2
256,304,14577,1,0
256,192,15061,1,2
464,256,16512,5,0
384,336,16996,1,2
160,328,17964,1,2
112,296,18206,1,0
80,248,18448,1,2
56,192,18690,1,0
56,136,18932,2,0,B|112:24|328:48,1,280,2|2
408,72,20383,5,0
432,120,20625,1,0
424,176,20867,1,2
408,344,21593,1,0
352,344,21835,1,2
376,296,22077,1,0
320,296,22319,1,2
352,248,22561,1,0
296,248,22803,2,2,B|296:96|72:80,1,280
88,192,24254,6,0,B|88:280,2,70,0|0|2
256,192,25464,2,0,B|256:88,4,70,0|2|0|2|0
256,256,26674,2,2,B|408:256,1,140
344,160,27641,6,0,B|344:128|344:128|384:128|384:128|376:128,4,70,2|0|2|0|2
456,192,29093,1,0
456,304,29577,1,2
344,304,30061,1,0
256,192,30545,12,2,31512
80,64,31996,5,0
80,120,32238,1,0
80,176,32480,2,2,B|80:312|80:312|32:248|32:248|168:248,1,350
166,248,33932,5,2
166,248,34174,1,0
166,248,34416,1,2
264,112,35141,1,0
312,80,35383,1,2
360,112,35625,1,0
312,136,35867,1,2
424,104,36351,6,0,B|520:312|272:344,1,350
277,343,37803,1,2
277,343,38045,1,0
277,343,38287,1,2
136,248,39012,1,0
136,248,39254,1,2
56,168,39738,5,2
80,120,39980,1,0
128,88,40222,2,2,B|264:56|336:56|488:96,1,350,2|0
473,92,41674,1,2
473,92,41916,1,0
473,92,42158,2,2,B|472:320|248:320,1,350
265,319,43609,1,0
265,319,43851,1,2
256,192,44093,12,2,46028
120,56,47480,5,0
176,56,47722,1,2
148,104,47964,2,0,B|148:184|148:264|148:336|148:336|148:320,1,210,0|2
256,320,49174,5,2
312,320,49416,1,0
256,320,49658,1,2
284,272,49899,2,0,B|284:192|284:112|284:40|284:40|284:56,1,210,0|2
376,128,51109,5,2
416,168,51351,1,0
416,224,51593,1,2
368,196,51835,2,0,B|288:196|208:196|136:196|136:196|152:196,1,210,0|2
128,80,53045,5,2
184,80,53287,1,0
240,80,53528,1,2
296,80,53770,2,0,B|448:96|488:208|480:216,1,210,0|2
470,182,54738,1,2
449,292,55222,6,0,B|377:324,1,70
256,192,55706,12,2,56432
80,88,56916,5,0
80,144,57158,1,2
128,120,57399,1,0
256,192,57641,12,2,58367
256,136,58851,5,0
256,192,59093,1,2
256,248,59335,1,0
256,192,59577,12,2,61028
64,64,61512,5,0
120,64,61754,1,8
120,120,61996,1,0
176,120,62238,1,8
176,176,62480,1,4
176,64,62964,5,0
232,64,63206,1,8
288,64,63448,2,0,B|376:64|376:64|368:64,1,70,0|8
416,64,63932,1,0
416,120,64174,1,8
416,176,64416,2,0,B|416:256,1,70,0|8
360,248,64899,1,0
360,304,65141,1,8
416,304,65383,1,0
416,248,65625,1,0
360,248,65867,1,8
304,248,66109,2,0,B|304:336,1,70,0|8
192,304,66835,5,0
136,304,67077,1,8
80,304,67319,2,0,B|80:232,1,70,0|8
80,176,67803,1,0
136,176,68045,1,0
136,232,68287,1,8
192,232,68528,1,0
192,176,68770,1,0
192,120,69012,1,8
144,96,69254,1,0
96,72,69496,1,0
96,128,69738,2,0,B|24:128,2,70,8|0|8
192,40,70706,5,0
248,56,70948,1,8
304,72,71190,2,0,B|376:72,1,70,0|8
416,104,71674,1,0
360,120,71916,1,8
304,136,72158,2,0,B|224:136,1,70,0|8
184,160,72641,1,0
200,216,72883,1,8
232,256,73125,1,0
280,280,73367,1,8
336,296,73609,1,0
392,288,73851,1,0
440,256,74093,1,8
400,136,74577,5,0
400,80,74819,1,8
344,80,75061,2,0,B|344:152,1,70,0|8
288,152,75545,1,0
232,168,75787,1,0
216,224,76028,1,8
128,184,76512,5,0
408,192,76996,1,8
408,48,77238,1,8
264,48,77480,1,8
264,192,77722,1,8
144,120,77964,1,12
56,192,78448,5,0
88,240,78690,1,0
120,288,78932,1,8
232,272,79416,1,0
200,224,79658,1,0
168,176,79899,1,8
104,80,80383,2,0,B|136:48|200:48|192:48,1,70,0|8
224,48,80867,2,0,B|224:128,4,70,0|8|0|8|0
296,136,82319,5,0
328,88,82561,1,0
360,40,82803,1,8
472,40,83287,1,0
440,88,83528,1,0
408,136,83770,1,8
376,184,84012,1,0
336,224,84254,2,0,B|288:168,2,70,8|0|8
296,264,84980,2,0,B|376:352,3,70,0|8|0|8
232,336,86190,5,0
204,288,86432,1,8
176,336,86674,2,0,B|80:336|80:336|96:336,1,70,0|8
64,300,87158,1,0
104,260,87399,1,8
148,224,87641,2,0,B|148:152,1,70,0|8
108,116,88125,1,0
100,60,88367,1,8
152,40,88609,1,0
204,60,88851,1,8
192,116,89093,1,0
148,152,89335,1,0
108,116,89577,1,8
256,64,90061,5,0
296,104,90303,1,0
320,160,90545,1,8
376,64,91028,1,0
416,104,91270,1,0
440,160,91512,1,8
440,272,91996,6,8,B|384:344|320:272,1,140,2|8
256,152,92722,1,8
152,64,92964,1,8
120,200,93206,1,8
256,192,93448,1,12
