osu file format v9

[General]
AudioFilename: VocalBGM.mp3
AudioLeadIn: 993
PreviewTime: 62843
Countdown: 0
SampleSet: Soft
StackLeniency: 0.5
Mode: 0
LetterboxInBreaks: 1

[Editor]
Bookmarks: 93932,109416,233045
DistanceSpacing: 1.4
BeatDivisor: 4
GridSize: 8

[Metadata]
Title:Hoshiiro Yozora
Artist:Yellow Zebra & Denkai Seisakusho
Creator:frost-b-spec
Version:Insane
Source:Touhou M-1 Grand prix
Tags:koi iro master spark yuki fujimiya

[Difficulty]
HPDrainRate:8
CircleSize:5
OverallDifficulty:8
ApproachRate:7
SliderMultiplier:2.5
SliderTickRate:2

[Events]
//Background and Video events
0,0,"marisa0002.jpg"
//Break Periods
//Storyboard Layer 0 (Background)
//Storyboard Layer 1 (Fail)
//Storyboard Layer 2 (Pass)
//Storyboard Layer 3 (Foreground)
//Storyboard Sound Samples
//Background Colour Transformations
3,100,255,255,0

[TimingPoints]
1029,483.870967741935,4,2,1,50,1,0
62964,-100,4,2,1,50,0,1
93932,-100,4,2,1,50,0,0

[Colours]
Combo1 : 64,0,128
Combo2 : 255,255,0
Combo3 : 0,0,0
Combo4 : 0,0,128

[HitObjects]
168,72,1029,2,0,B|80:72|56:160,1,125,0|2
232,72,1512,2,0,B|448:72|448:336,1,375,0|2
328,192,2480,1,2
152,192,2722,1,0
240,344,2964,1,2
416,344,3206,1,0
496,192,3448,2,0,B|424:48|136:48,1,375,2|0
64,192,4416,1,2
128,192,4537,1,0
192,192,4658,1,2
344,56,4899,5,0
456,192,5141,1,2
344,328,5383,2,0,B|344:64,1,250,0|2
208,192,6109,1,0
384,192,6351,1,2
240,296,6593,1,2
184,312,6714,1,0
136,272,6835,1,2
48,120,7077,1,0
208,192,7319,2,0,B|480:192,1,250,0|2
304,112,8045,1,2
248,144,8166,1,0
208,192,8287,1,2
456,192,8770,5,0
280,192,9012,1,2
176,336,9254,2,0,B|32:80|296:16|288:16,1,375,0|2
432,56,10222,1,0
416,232,10464,1,2
368,272,10585,1,0
312,296,10706,1,2
256,128,10948,1,2
256,304,11190,2,0,B|80:304|80:160,1,250,0|2
432,192,12158,5,0
256,192,12399,1,2
256,192,12520,1,0
256,192,12641,1,2
80,192,12883,1,2
256,192,13125,1,0
88,128,13609,5,0
416,256,14093,1,2
120,64,14577,1,0
368,312,15061,1,2
256,192,15182,12,4,16028
160,56,16512,5,2
88,216,16754,1,0
208,344,16996,2,0,B|208:160|336:112|480:160|472:352,1,500,0|2
336,232,18206,1,2
336,168,18327,1,0
336,104,18448,1,2
168,56,18690,1,2
168,240,18932,2,0,B|352:368|344:368,2,187.5,0|2|0
168,240,19899,1,2
464,64,20383,6,0,B|336:64,1,125,0|2
472,176,20867,2,0,B|80:176,1,375,0|2
256,256,21835,1,0
432,256,22077,1,2
432,256,22198,1,0
432,256,22319,1,2
256,256,22561,1,2
80,256,22803,1,0
256,192,22924,12,4,23770
256,344,24254,5,0
424,288,24496,1,2
408,112,24738,2,0,B|248:352,1,250,0|2
112,240,25464,1,0
232,112,25706,1,2
296,112,25827,1,0
360,112,25948,1,2
440,264,26190,1,2
272,304,26432,1,0
112,240,26674,2,0,B|32:96|200:56,1,250,0|2
392,344,27641,5,2
376,168,27883,1,0
280,312,28125,1,2
448,256,28367,1,0
280,208,28609,1,2
88,152,29093,5,0
432,192,29577,1,2
88,232,30061,1,0
432,192,30545,1,2
256,192,30666,12,4,31512
168,48,31996,5,0
344,48,32238,1,2
256,200,32480,2,0,L|96:352|96:168|256:344,1,625,0|2
352,192,33932,1,0
256,48,34174,1,2
160,192,34416,1,0
424,64,34899,1,2
360,72,35020,1,0
312,112,35141,1,2
160,192,35383,1,2
472,344,35867,1,8
120,352,36351,6,0,L|48:40|384:40,1,625,0|2
432,192,37803,1,0
256,192,38045,1,2
432,192,38287,1,0
256,192,38528,1,2
256,192,38649,1,0
256,192,38770,1,2
80,192,39012,1,2
256,192,39254,1,0
256,192,39738,5,0
104,288,39980,1,2
136,112,40222,2,0,L|376:24|472:240|352:304,1,625,0|2
184,272,41674,5,0
344,192,41916,1,2
192,112,42158,2,0,L|336:352,1,250,0|2
320,326,42762,1,0
320,326,42883,1,2
320,326,43004,1,0
320,326,43125,1,2
144,320,43367,5,0
240,176,43609,1,2
320,328,43851,1,0
240,176,44093,1,2
256,192,44214,12,2,46028
104,104,47480,5,0
256,192,47722,1,2
424,104,47964,2,0,B|256:104|144:160,1,250,0|2
256,312,48690,1,0
256,312,48811,1,0
256,312,48932,1,2
112,192,49174,5,0
296,192,49416,1,2
200,32,49658,1,0
384,64,49899,2,0,B|464:176|464:184,1,125,0|2
296,64,50383,2,0,B|216:176|216:184,1,125,0|2
392,248,50867,6,0,B|472:360|472:368,1,125,0|2
304,248,51351,2,0,B|224:360|224:368,1,125,0|2
72,256,51835,5,0
160,88,52077,2,0,B|128:56|80:48,2,62.5,0|0|2
232,264,52561,1,0
408,192,52803,2,0,B|264:192,1,125,0|2
96,192,53287,2,0,B|256:192,1,125,0|2
256,8,53770,1,0
440,56,54012,1,0
384,80,54133,1,0
336,120,54254,1,2
256,280,54496,1,0
256,280,54738,1,2
256,200,55222,5,0
256,200,55464,1,2
256,192,55706,12,0,57158
256,192,57399,5,2
256,192,57641,12,0,58609
344,192,58851,5,0
160,192,59093,1,2
256,32,59335,1,0
256,216,59577,1,2
464,48,60061,5,0
256,328,60545,1,0
48,48,61028,1,2
256,344,61512,5,0
256,40,61754,1,8
256,272,61996,1,0
256,112,62238,1,8
256,192,62480,1,4
136,48,62964,6,0,L|88:176,1,125,0|8
56,336,63448,2,0,L|192:256,1,125,0|8
336,312,63932,2,0,L|272:160,1,125,0|8
384,48,64416,2,0,L|368:192,1,125,0|8
200,224,64899,2,0,L|296:128,1,125,0|8
112,112,65383,2,0,L|256:104,1,125,0|8
328,256,65867,2,0,L|352:128,1,125,0|8
256,280,66351,1,8
448,328,66835,6,0,L|312:328,1,125,0|8
144,336,67319,2,0,L|240:224,1,125,0|8
392,192,67803,2,0,L|312:80,1,125,0|8
152,32,68287,2,0,L|64:152,1,125,0|8
64,304,68770,2,0,L|160:168|160:176,1,125,0|8
296,136,69254,2,0,L|216:256,1,125,0|8
328,96,69738,2,0,L|464:96,1,125,0|8
464,272,70222,2,0,L|352:160,1,125,0|8
200,192,70706,5,0
64,88,70948,1,8
80,264,71190,2,0,L|192:360,1,125,0|8
256,192,71674,1,0
432,192,71916,1,8
344,40,72158,2,0,L|344:168,1,125,0|8
352,336,72641,1,0
176,336,72883,1,8
256,192,73125,2,0,L|80:192,1,125,0|8
304,192,73609,1,0
480,192,73851,1,0
392,344,74093,2,0,L|392:160,1,125,0|8
400,48,74577,6,0,L|224:48,1,125,0|8
96,48,75061,2,0,L|96:184,1,125,0|8
104,352,75545,2,0,L|272:352,1,125,0|8
408,352,76028,2,0,L|408:216,1,125,0|8
336,96,76512,1,8
64,112,76996,5,0
456,272,77238,1,8
64,272,77480,1,0
456,112,77722,1,8
64,112,77964,1,4
384,192,78448,5,0
384,192,78690,1,8
256,72,78932,2,0,B|168:72|168:168,1,125,0|8
304,264,79416,1,0
304,264,79658,1,8
169,143,79899,2,0,B|97:143|97:231,1,125,0|8
224,344,80383,1,0
224,344,80625,1,8
172,144,80867,2,0,B|170:72|258:72,1,125,0|8
432,72,81351,1,0
304,192,81593,1,8
432,312,81835,1,0
80,336,82319,6,0,B|80:192|80:184,1,125,0|8
256,200,82803,2,0,B|256:48|256:40,1,125,0|8
376,200,83287,2,0,B|376:336,1,125,0|8
256,200,83770,2,0,B|256:352,1,125,0|8
136,192,84254,2,0,B|136:56,1,125,0|8
312,64,84738,2,0,B|456:64,1,125,0|8
440,240,85222,2,0,B|440:104,1,125,0|8
312,240,85706,1,8
32,32,86190,5,0
32,208,86432,1,8
208,192,86674,1,0
288,352,86916,1,8
360,192,87158,1,0
288,32,87399,1,8
208,192,87641,1,0
288,352,87883,1,8
360,192,88125,1,0
288,32,88367,1,8
208,192,88609,2,0,B|80:192,1,125,0|8
208,64,89093,2,0,B|376:64,1,125,0|8
168,128,89577,1,8
456,328,90061,6,0,B|312:352,1,125,0|8
176,264,90545,2,0,B|320:296,1,125,0|8
456,208,91028,2,0,B|320:232,1,125,0|8
176,144,91512,2,0,B|336:176|328:176,1,125,0|8
296,336,91996,1,8
216,48,92480,5,0
48,232,92722,1,8
296,336,92964,1,0
464,152,93206,1,8
216,48,93448,1,4
432,192,94416,5,0
80,192,94899,1,2
256,256,95625,6,0,B|256:328,2,62.5,2|0|2
256,80,96109,1,2
24,344,96593,5,0
112,192,96835,1,2
288,192,97077,1,0
376,344,97319,1,2
464,192,97561,1,0
288,192,97803,1,2
376,40,98045,1,0
232,48,98287,6,0,B|136:48,3,62.5,2|0|2|0
280,288,99012,2,0,B|360:288,3,62.5,2|0|2|0
448,48,99738,5,0
344,192,99980,1,2
168,192,100222,1,0
64,336,100464,1,2
64,160,100706,1,0
168,304,100948,1,2
336,248,101190,1,0
160,248,101432,1,2
248,96,101674,1,0
424,96,101916,1,2
248,96,102158,6,0,B|96:96|96:288|96:288,1,250,0|2
97,264,103125,1,0
272,264,103367,1,2
328,296,103488,1,0
384,312,103609,1,2
400,136,103851,1,2
56,72,104335,5,2
56,248,104577,1,0
120,88,104819,1,2
120,264,105061,1,0
184,104,105303,1,2
184,280,105545,1,0
248,120,105787,1,2
248,296,106028,6,0,B|280:152|392:56,1,250,0|2
56,248,106996,2,0,B|88:104|200:8,1,250,0|2
456,56,107964,5,2
56,328,108448,1,2
456,56,108932,1,4
