osu file format v9

[General]
AudioFilename: VocalBGM.mp3
AudioLeadIn: 993
PreviewTime: 62843
Countdown: 0
SampleSet: Soft
StackLeniency: 0.7
Mode: 0
LetterboxInBreaks: 1

[Editor]
Bookmarks: 70706,86190,93932,109416,233045
DistanceSpacing: 0.8
BeatDivisor: 4
GridSize: 8

[Metadata]
Title:Hoshiiro Yozora
Artist:Yellow Zebra & Denkai Seisakusho
Creator:frost-b-spec
Version:Easy
Source:Touhou M-1 Grand prix
Tags:koi iro master spark yuki fujimiya marisa kirisame

[Difficulty]
HPDrainRate:3
CircleSize:3
OverallDifficulty:2
ApproachRate:2
SliderMultiplier:1.4
SliderTickRate:1

[Events]
//Background and Video events
0,0,"marisa0002.jpg"
//Break Periods
//Storyboard Layer 0 (Background)
//Storyboard Layer 1 (Fail)
//Storyboard Layer 2 (Pass)
//Storyboard Layer 3 (Foreground)
//Storyboard Sound Samples
//Background Colour Transformations
3,100,255,255,0

[TimingPoints]
1029,483.870967741935,4,2,1,50,1,0
62964,-100,4,2,1,50,0,1
93932,-100,4,2,1,50,0,0

[Colours]
Combo1 : 64,0,128
Combo2 : 255,255,0
Combo3 : 0,0,0
Combo4 : 0,0,128

[HitObjects]
96,96,1029,1,0
200,56,1513,1,2
368,48,2238,2,0,B|448:48,3,70
376,136,3448,1,0
256,136,4900,5,0
256,248,5384,1,2
328,328,5867,1,0
440,312,6351,1,0
360,232,6835,2,0,B|440:192|352:128|440:112|448:80,1,140,2|2
216,336,8770,5,0
136,256,9255,1,2
96,32,10222,2,0,B|216:112|368:40,1,280
448,248,12158,6,0,B|384:304|320:248,1,140
256,160,13125,1,0
88,312,14093,1,2
80,88,15061,1,2
400,184,16512,5,0
464,272,16996,1,4
248,328,17964,1,2
264,216,18448,1,2
160,176,18932,2,0,B|200:56|288:80|368:72|440:88,1,280,2|2
424,192,20383,5,0
448,304,20867,1,2
224,328,21835,1,2
208,216,22319,1,2
320,200,22803,2,2,B|296:128|224:80|144:88|80:96,1,280
88,208,24254,6,0,B|88:296,2,70,0|0|2
256,192,25464,2,0,B|256:88,4,70,0|2|0|2|0
256,248,26674,2,2,B|416:248,1,140
368,136,27641,6,0,B|368:104|368:104|408:104|408:104|400:104,4,70,2|0|2|0|2
464,192,29093,1,0
464,304,29577,1,2
352,304,30061,1,0
256,192,30545,12,2,31512
80,64,31996,5,0
80,176,32480,2,2,B|80:312|80:312|32:248|32:248|168:248,1,350
166,248,33932,5,2
264,304,34416,2,0,B|264:136,1,140
320,64,35383,1,0
376,160,35867,1,2
456,88,36351,6,0,B|512:216|504:272|304:328,1,350
307,327,37803,1,2
307,327,38287,1,2
160,240,39254,1,2
56,168,39738,5,2
80,56,40222,2,2,B|136:40|216:24|144:272|456:64,1,420,2|0
448,68,42158,2,2,B|446:159|422:247|366:279|294:287|214:295,1,350
237,292,43609,1,0
256,192,44093,12,2,46028
144,64,47480,5,0
256,40,47964,2,0,B|400:80|456:264|456:264,1,280,0|2
400,336,49416,5,0
288,352,49899,2,0,B|144:312|88:128|88:128,1,280,0|2
200,104,51351,5,2
312,128,51835,2,0,B|512:184|384:352,1,280,0|2
304,272,53287,5,0
224,192,53770,2,0,B|40:192|40:376,1,280,0|2
256,192,55706,12,2,58609
64,288,59577,6,0,B|208:288,2,140
64,176,61028,1,0
64,64,61512,5,0
144,144,61996,1,0
224,224,62480,1,4
304,144,62964,5,0
224,64,63448,2,0,B|368:64,1,140,0|8
432,152,64416,2,0,B|432:304,1,140,0|8
320,312,65383,1,0
296,200,65867,2,0,B|256:128|168:144,1,140,0|8
168,256,66835,5,0
64,304,67319,2,0,B|64:160,1,140,0|8
120,64,68287,1,0
216,120,68770,1,8
312,64,69254,1,0
408,120,69738,2,0,B|408:192,2,70,8|0|8
320,192,70706,5,0
360,296,71190,2,0,B|208:296,1,140,0|8
184,192,72158,2,0,B|40:192,1,140,0|8
96,288,73125,1,8
208,312,73609,1,0
320,288,74093,1,8
392,200,74577,5,0
352,96,75061,2,0,B|216:48,1,140,0|8
112,72,76028,1,8
192,152,76512,5,0
248,248,76996,1,8
136,280,77480,1,8
120,168,77964,1,12
16,216,78448,5,0
104,280,78932,1,8
216,280,79416,1,0
160,184,79899,1,8
104,88,80383,2,0,B|136:56|200:56|192:56,1,70,0|8
224,56,80867,2,0,B|224:128,4,70,0|8|0|8|0
312,128,82319,5,0
376,32,82803,1,8
488,32,83287,1,0
424,128,83770,1,8
352,216,84254,2,0,B|304:160,6,70,8|0|8|0|8|0|8
288,304,86190,5,0
184,336,86674,2,0,B|40:336,1,140,0|8
120,256,87641,2,0,B|120:112,1,140,0|8
24,184,88609,1,8
40,72,89093,1,0
144,32,89577,1,8
256,56,90061,5,0
312,152,90545,1,8
384,64,91028,1,0
456,152,91512,1,8
440,264,91996,6,8,B|384:336|320:264,1,140,2|8
256,176,92964,1,8
256,288,93448,1,12
