osu file format v13

[General]
AudioFilename: Nicopuri Joshidou.mp3
AudioLeadIn: 0
PreviewTime: 3047
Countdown: 0
SampleSet: Soft
StackLeniency: 0.7
Mode: 0
LetterboxInBreaks: 1
WidescreenStoryboard: 0

[Editor]
Bookmarks: 223922,233522
DistanceSpacing: 2
BeatDivisor: 4
GridSize: 4
TimelineZoom: 1

[Metadata]
Title:Nicopuri Joshidou
TitleUnicode:にこぷり♥女子道
Artist:Yazawa Nico
ArtistUnicode:矢澤にこ
Creator:Betsuto
Version:Insane
Source:Love Live
Tags:u's muse
BeatmapID:540927
BeatmapSetID:232986

[Difficulty]
HPDrainRate:8
CircleSize:4
OverallDifficulty:8
ApproachRate:9
SliderMultiplier:2.1
SliderTickRate:1

[Events]
//Background and Video events
0,0,"NicoBG.jpg",0,0
//Break Periods
//Storyboard Layer 0 (Background)
//Storyboard Layer 1 (Fail)
//Storyboard Layer 2 (Pass)
//Storyboard Layer 3 (Foreground)
//Storyboard Sound Samples
//Background Colour Transformations
3,100,163,162,255

[TimingPoints]
722,300,4,2,1,50,1,0
722,-200,4,2,1,50,0,0
3122,-100,4,2,1,70,0,0
3722,-133.333333333333,4,2,1,40,0,0
4322,-100,4,2,1,70,0,0
4922,-133.333333333333,4,2,1,40,0,0
5522,-100,4,2,1,70,0,0
6122,-133.333333333333,4,2,1,40,0,0
6722,-100,4,2,1,70,0,0
7322,-133.333333333333,4,2,1,70,0,0
7922,-100,4,2,1,70,0,0
8522,-133.333333333333,4,2,1,40,0,0
9122,-100,4,2,1,70,0,0
9722,-133.333333333333,4,2,1,40,0,0
10322,-100,4,2,1,70,0,0
10922,-133.333333333333,4,2,1,70,0,0
12722,-100,4,2,1,70,0,0
22322,-133.333333333333,4,2,1,60,0,0
36722,-200,4,2,1,60,0,0
37022,-200,4,2,1,40,0,0
37622,-200,4,2,1,60,0,0
38222,-200,4,2,1,40,0,0
38822,-200,4,2,1,60,0,0
39422,-200,4,2,1,40,0,0
39722,-200,4,2,1,60,0,0
40022,-200,4,2,1,40,0,0
40322,-133.333333333333,4,2,1,60,0,0
55922,-200,4,2,1,60,0,0
56222,-200,4,2,1,40,0,0
56822,-200,4,2,1,60,0,0
57422,-200,4,2,1,40,0,0
58022,-200,4,2,1,60,0,0
58622,-200,4,2,1,40,0,0
58922,-200,4,2,1,60,0,0
59222,-200,4,2,1,40,0,0
59522,-133.333333333333,4,2,1,60,0,0
71522,-133.333333333333,4,2,1,70,0,1
91922,-133.333333333333,4,2,1,70,0,0
93122,-133.333333333333,4,2,1,70,0,1
102722,-200,4,2,1,60,0,0
107522,-100,4,2,1,70,0,0
108122,-133.333333333333,4,2,1,40,0,0
108722,-100,4,2,1,70,0,0
109322,-133.333333333333,4,2,1,40,0,0
109922,-100,4,2,1,70,0,0
110522,-133.333333333333,4,2,1,40,0,0
111122,-100,4,2,1,70,0,0
111722,-133.333333333333,4,2,1,70,0,0
112322,-100,4,2,1,70,0,0
112922,-133.333333333333,4,2,1,40,0,0
113522,-100,4,2,1,70,0,0
114122,-133.333333333333,4,2,1,40,0,0
114722,-100,4,2,1,70,0,0
117122,-133.333333333333,4,2,1,60,0,0
118472,-100,4,2,1,70,0,0

[HitObjects]
80,176,722,6,0,P|140:132|212:164,1,157.5,4|0,3:1|3:0,0:0:0:0:
280,216,1322,2,0,L|392:208,1,105,8|0,0:1|3:0,0:0:0:0:
456,152,1772,2,0,P|464:100|452:44,1,105,8|8,0:1|0:1,0:0:0:0:
280,216,2372,5,0,1:0:0:0:
76,268,2522,1,8,0:0:0:0:
76,268,2597,1,8,0:0:0:0:
76,268,2672,1,8,0:0:0:0:
156,136,2822,1,8,0:0:0:0:
204,348,2972,1,8,0:0:0:0:
280,216,3122,5,8,1:2:0:0:
312,60,3272,1,8,1:2:0:0:
468,92,3422,1,8,1:2:0:0:
436,248,3572,1,8,1:2:0:0:
312,60,3722,6,0,L|232:48,1,78.7500030040742,2|0,0:0|0:0,0:0:0:0:
200,148,4022,2,0,L|280:136,1,78.7500030040742,2|0,0:0|0:0,0:0:0:0:
232,304,4322,5,8,1:2:0:0:
44,180,4472,1,8,1:2:0:0:
76,336,4622,1,8,1:2:0:0:
200,148,4772,1,8,1:2:0:0:
232,304,4922,6,0,L|316:320,1,78.7500030040742,2|0,0:0|0:0,0:0:0:0:
280,216,5222,2,0,L|196:232,1,78.7500030040742,2|0,0:0|0:0,0:0:0:0:
108,104,5522,5,8,1:2:0:0:
312,60,5672,1,8,1:2:0:0:
352,264,5822,1,8,1:2:0:0:
148,308,5972,1,8,1:2:0:0:
200,148,6122,5,2,0:0:0:0:
280,216,6272,1,0,0:0:0:0:
352,140,6422,2,0,L|432:124,1,78.7500030040742,2|0,0:0|0:0,0:0:0:0:
280,216,6722,5,8,1:2:0:0:
100,88,6872,1,8,1:2:0:0:
124,244,7022,1,8,1:2:0:0:
256,60,7172,1,8,1:2:0:0:
200,148,7322,5,2,0:0:0:0:
360,292,7472,1,2,0:0:0:0:
352,140,7622,1,8,0:2:0:0:
208,300,7772,1,2,0:0:0:0:
124,164,7922,6,0,L|20:144,1,105,8|8,1:2|1:2,0:0:0:0:
208,300,8222,2,0,L|312:320,1,105,8|8,1:2|1:2,0:0:0:0:
352,140,8522,5,2,0:0:0:0:
424,124,8672,1,0,0:0:0:0:
480,176,8822,1,2,0:0:0:0:
476,252,8972,1,0,0:0:0:0:
312,204,9122,6,0,L|208:232,1,105,8|8,1:2|1:2,0:0:0:0:
36,260,9422,2,0,L|140:232,1,105,8|8,1:2|1:2,0:0:0:0:
236,132,9722,5,2,0:0:0:0:
216,56,9872,1,0,0:0:0:0:
148,20,10022,1,2,0:0:0:0:
76,48,10172,1,0,0:0:0:0:
212,208,10322,6,0,L|280:288,1,105,8|8,1:2|1:2,0:0:0:0:
468,332,10622,2,0,L|400:252,1,105,8|8,1:2|1:2,0:0:0:0:
400,116,10922,5,2,0:0:0:0:
280,108,11072,1,0,3:0:0:0:
212,208,11222,2,0,P|160:260|76:272,1,157.500006008148,4|0,1:0|3:0,0:0:0:0:
104,152,11672,1,0,0:0:0:0:
104,152,11747,1,0,0:0:0:0:
104,152,11822,1,0,1:0:0:0:
212,208,11972,5,0,1:0:0:0:
248,212,12047,1,0,1:0:0:0:
284,216,12122,2,0,L|336:212,3,39.3750015020371,0|0|0|0,1:0|1:0|1:0|1:0,0:0:0:0:
408,232,12422,2,0,L|460:228,3,39.3750015020371,8|8|8|8,1:2|1:2|1:2|1:2,0:0:0:0:
500,160,12722,6,0,P|504:100|488:60,1,105,4|0,1:0|3:0,0:0:0:0:
348,20,13022,1,10,0:0:0:0:
236,108,13172,2,0,B|180:116|180:116|96:160|128:260,1,210,0|0,3:0|3:0,0:0:0:0:
216,344,13622,1,10,0:0:0:0:
212,208,13772,6,0,L|424:232,1,210,0|0,3:0|3:0,0:0:0:0:
500,160,14222,2,0,P|504:96|488:60,2,105,10|0|0,0:0|3:0|3:0,0:0:0:0:
348,136,14672,1,0,3:0:0:0:
212,208,14822,2,0,L|100:212,1,105,10|0,0:0|0:0,0:0:0:0:
24,96,15122,5,0,3:0:0:0:
132,28,15272,2,0,P|192:32|240:68,1,105,0|10,0:0|0:0,0:0:0:0:
348,136,15572,2,0,P|372:188|352:336,1,210,0|0,3:0|3:0,0:0:0:0:
216,236,16022,1,10,0:0:0:0:
256,72,16172,6,0,P|324:32|440:72,1,210,0|0,3:0|3:0,0:0:0:0:
476,240,16622,1,10,0:0:0:0:
304,252,16772,2,0,L|88:264,1,210,0|0,3:0|3:0,0:0:0:0:
16,112,17222,2,0,P|40:64|92:32,1,105,10|0,0:0|1:0,0:0:0:0:
256,72,17522,6,0,L|368:80,2,105,4|0|10,0:0|3:0|0:0,0:0:0:0:
136,132,17972,2,0,P|104:200|128:284,1,157.5,0|0,3:0|0:0,0:0:0:0:
184,336,18272,1,0,3:0:0:0:
184,336,18347,1,0,0:0:0:0:
184,336,18422,2,0,P|240:344|288:328,1,105,10|0,0:0|3:0,0:0:0:0:
336,268,18647,5,0,0:0:0:0:
336,268,18722,2,0,L|368:168,1,105,0|0,0:0|3:0,0:0:0:0:
468,100,19022,1,10,0:0:0:0:
292,112,19172,2,0,L|136:132,1,157.5,0|0,3:0|0:0,0:0:0:0:
64,164,19472,1,8,0:0:0:0:
64,164,19547,1,0,0:0:0:0:
64,164,19622,2,0,P|40:216|52:264,1,105,10|0,0:0|3:0,0:0:0:0:
104,324,19847,5,0,0:0:0:0:
104,324,19922,2,0,L|212:340,1,105,8|0,0:0|1:0,0:0:0:0:
400,288,20222,2,0,L|292:304,1,105,8|4,0:0|0:0,0:0:0:0:
144,212,20522,2,0,L|252:228,1,105,0|0,3:0|3:0,0:0:0:0:
444,180,20822,2,0,L|336:196,1,105,12|0,0:0|1:0,0:0:0:0:
144,212,21122,6,0,P|104:172|96:120,1,105,12|0,1:2|3:0,0:0:0:0:
160,28,21422,2,0,P|200:68|208:120,1,105,8|0,1:2|3:0,0:0:0:0:
104,292,21722,1,8,1:2:0:0:
228,196,21872,1,8,1:2:0:0:
352,288,22022,1,8,1:2:0:0:
372,284,22097,1,8,1:2:0:0:
392,280,22172,1,8,1:2:0:0:
412,276,22247,1,8,1:2:0:0:
432,272,22322,6,0,B|456:196|456:196|432:120,1,157.500006008148,4|8,3:1|0:0,0:0:0:0:
336,72,22772,1,0,0:0:0:0:
228,196,22922,2,0,L|64:188,1,157.500006008148,0|8,3:0|0:0,0:0:0:0:
32,88,23372,2,0,B|104:56|104:56|196:60,1,157.500006008148,0|0,3:0|3:0,0:0:0:0:
280,132,23822,2,0,P|356:152|416:96,1,157.500006008148,8|0,0:0|3:0,0:0:0:0:
264,52,24272,1,0,3:0:0:0:
228,196,24422,1,8,0:0:0:0:
340,268,24572,5,8,0:0:0:0:
216,332,24722,2,0,B|160:324|160:324|132:280|132:280|76:268,2,157.500006008148,0|8|0,3:0|0:0|3:0,0:0:0:0:
304,192,25472,1,0,3:0:0:0:
368,352,25622,1,8,0:0:0:0:
228,196,25772,2,0,P|256:128|332:120,1,157.500006008148,0|0,3:0|3:0,0:0:0:0:
296,348,26222,2,0,L|304:188,1,157.500006008148,8|0,0:0|3:0,0:0:0:0:
228,48,26672,1,0,3:0:0:0:
156,188,26822,2,0,L|72:196,1,78.7500030040742,8|0,0:0|0:0,0:0:0:0:
120,280,27122,6,0,B|168:276|168:276|228:244|228:244|272:240,1,157.500006008148,0|8,3:0|0:0,0:0:0:0:
388,296,27572,1,0,3:0:0:0:
244,352,27722,2,0,L|84:364,1,157.500006008148,0|8,3:0|0:0,0:0:0:0:
72,172,28172,2,0,P|92:132|204:116,1,157.500006008148,0|0,3:0|3:0,0:0:0:0:
304,176,28622,2,0,L|384:180,1,78.7500030040742,8|0,0:0|3:0,0:0:0:0:
488,96,28922,2,0,P|496:40|488:12,1,78.7500030040742,0|0,0:0|3:0,0:0:0:0:
304,176,29222,2,0,P|296:232|304:260,1,78.7500030040742,8|0,0:0|3:0,0:0:0:0:
392,56,29522,6,0,B|328:52|328:52|288:28|288:28|240:24,2,157.500006008148,0|8|0,3:0|0:0|3:0,0:0:0:0:
472,168,30272,2,0,P|476:208|464:248,1,78.7500030040742,8|0,0:0|0:0,0:0:0:0:
232,216,30572,2,0,B|212:168|236:128|236:128|204:128|176:100,1,157.500006008148,4|0,3:1|3:0,0:0:0:0:
304,176,31022,2,0,L|384:180,1,78.7500030040742,8|0,0:0|3:0,0:0:0:0:
448,288,31322,5,8,0:0:0:0:
320,312,31472,1,8,0:0:0:0:
232,216,31622,1,8,0:0:0:0:
272,92,31772,1,0,1:0:0:0:
272,92,31847,1,0,1:0:0:0:
272,92,31922,6,0,B|320:84|320:84|380:88|380:88|432:80,2,157.500006008148,4|8|0,1:2|0:0|3:0,0:0:0:0:
132,184,32672,2,0,P|104:156|96:116,1,78.7500030040742,0|8,0:0|0:0,0:0:0:0:
232,216,32972,2,0,L|272:368,1,157.500006008148,0|0,3:0|3:0,0:0:0:0:
360,276,33422,2,0,L|440:264,1,78.7500030040742,8|0,0:0|3:0,0:0:0:0:
468,128,33722,2,0,L|388:140,1,78.7500030040742,0|0,0:0|3:0,0:0:0:0:
232,216,34022,1,8,0:0:0:0:
272,92,34172,1,8,0:0:0:0:
276,292,34322,6,0,P|216:300|148:228,1,157.500006008148,0|8,3:0|0:0,0:0:0:0:
148,124,34772,2,0,L|132:44,1,78.7500030040742,0|0,0:0|3:0,0:0:0:0:
272,92,35072,2,0,L|288:172,1,78.7500030040742,8|0,0:0|3:0,0:0:0:0:
432,212,35372,2,0,B|444:132|444:132|404:64,1,157.500006008148,8|0,0:0|3:0,0:0:0:0:
384,276,35822,2,0,P|420:292|464:284,1,78.7500030040742,8|0,0:0|0:0,0:0:0:0:
288,168,36122,2,0,P|252:152|208:160,1,78.7500030040742,0|8,3:0|0:0,0:0:0:0:
76,276,36422,1,8,0:0:0:0:
112,168,36572,5,0,0:0:0:0:
112,168,36647,1,0,0:0:0:0:
112,168,36722,2,0,L|136:64,1,105,4|2,1:0|0:0,0:0:0:0:
216,72,37172,1,0,0:0:0:0:
288,40,37322,2,0,L|340:44,1,52.5,2|0,0:0|0:0,0:0:0:0:
440,32,37622,5,0,1:0:0:0:
472,240,37922,2,0,L|400:320,1,105,0|2,1:0|0:0,0:0:0:0:
320,292,38372,1,0,0:0:0:0:
240,320,38522,2,0,L|184:312,1,52.5,2|0,0:0|0:0,0:0:0:0:
108,248,38822,6,0,P|100:208|112:140,2,105,0|0|2,1:0|1:0|0:0,0:0:0:0:
168,72,39722,1,0,1:0:0:0:
108,248,40022,1,2,0:0:0:0:
168,72,40322,1,0,1:0:0:0:
264,232,40622,1,0,1:0:0:0:
168,72,40922,6,0,L|252:56,1,78.7500030040742,0|0,1:0|1:0,0:0:0:0:
316,84,41147,1,0,1:0:0:0:
316,84,41222,2,0,L|360:76,3,39.3750015020371,0|0|8|8,1:0|1:0|1:2|1:2,0:0:0:0:
432,104,41522,6,0,P|472:160|456:248,1,157.500006008148,4|8,1:2|0:0,0:0:0:0:
356,296,41972,1,0,0:0:0:0:
264,232,42122,2,0,L|104:224,1,157.500006008148,0|8,3:0|0:0,0:0:0:0:
172,300,42572,2,0,P|204:248|180:152,1,157.500006008148,0|0,3:0|3:0,0:0:0:0:
96,100,43022,2,0,L|64:20,1,78.7500030040742,8|0,0:0|3:0,0:0:0:0:
28,224,43322,2,0,L|60:304,1,78.7500030040742,0|0,0:0|3:0,0:0:0:0:
172,300,43622,1,8,0:0:0:0:
264,232,43772,1,8,0:0:0:0:
352,308,43922,6,0,B|412:320|412:320|452:308|452:308|508:316,2,157.500006008148,0|8|0,3:0|0:0|3:0,0:0:0:0:
264,232,44672,2,0,P|256:192|268:152,1,78.7500030040742,8|0,0:0|0:0,0:0:0:0:
376,88,44972,2,0,L|216:80,1,157.500006008148,0|0,3:0|3:0,0:0:0:0:
88,120,45422,2,0,P|60:92|48:52,1,78.7500030040742,8|0,0:0|0:0,0:0:0:0:
172,144,45722,1,0,3:0:0:0:
264,232,45872,1,0,3:0:0:0:
164,312,46022,2,0,L|116:376,1,78.7500030040742,8|0,0:0|0:0,0:0:0:0:
60,224,46322,6,0,B|120:196|160:252|220:216,1,157.500006008148,0|8,3:0|0:0,0:0:0:0:
272,116,46772,1,0,3:0:0:0:
388,140,46922,2,0,L|468:128,1,78.7500030040742,0|0,3:0|0:0,0:0:0:0:
372,284,47222,1,0,0:0:0:0:
264,232,47372,2,0,P|200:232|140:300,1,157.500006008148,0|0,3:0|3:0,0:0:0:0:
272,116,47822,6,0,P|276:68|264:36,1,78.7500030040742,8|0,0:0|3:0,0:0:0:0:
120,96,48122,2,0,P|116:144|128:176,1,78.7500030040742,0|0,0:0|3:0,0:0:0:0:
232,316,48422,1,0,0:0:0:0:
272,116,48572,1,0,0:0:0:0:
388,140,48722,6,0,B|432:152|432:152|456:212|400:256,2,157.500006008148,0|8|0,3:0|0:0|3:0,0:0:0:0:
280,208,49472,2,0,L|196:188,1,78.7500030040742,8|0,0:0|3:0,0:0:0:0:
120,96,49772,2,0,P|84:160|104:260,1,157.500006008148,4|0,1:0|3:0,0:0:0:0:
200,304,50222,6,0,L|280:296,1,78.7500030040742,8|0,0:0|0:0,0:0:0:0:
388,140,50522,2,0,L|309:147,1,78.7500030040742,8|8,0:0|0:0,0:0:0:0:
120,96,50822,1,8,0:0:0:0:
208,152,50972,5,8,0:0:0:0:
208,152,51047,1,8,0:0:0:0:
208,152,51122,2,0,P|216:200|208:232,1,78.7500030040742,4|0,0:0|0:0,0:0:0:0:
120,272,51422,2,0,P|112:224|120:192,1,78.7500030040742,8|0,0:0|0:0,0:0:0:0:
264,72,51722,1,0,3:0:0:0:
388,140,51872,2,0,L|472:144,1,78.7500030040742,0|8,0:0|0:0,0:0:0:0:
484,300,52172,6,0,P|408:312|340:276,1,157.500006008148,0|0,3:0|3:0,0:0:0:0:
280,184,52622,2,0,L|208:152,1,78.7500030040742,8|0,0:0|3:0,0:0:0:0:
48,240,52922,2,0,L|120:272,1,78.7500030040742,0|0,0:0|3:0,0:0:0:0:
280,184,53222,1,8,0:0:0:0:
128,84,53372,1,8,0:0:0:0:
236,256,53522,6,0,B|288:276|328:252|328:252|400:252,2,157.500006008148,0|8|0,3:0|0:0|3:0,0:0:0:0:
148,160,54272,2,0,L|127:84,1,78.7500030040742,0|8,0:0|0:0,0:0:0:0:
160,248,54572,2,0,B|88:240|68:188|68:188|56:148,1,157.500006008148
236,256,55022,6,0,L|280:332,1,78.7500030040742,8|0,0:0|0:0,0:0:0:0:
416,336,55322,2,0,L|372:260,1,78.7500030040742,0|0,3:0|3:0,0:0:0:0:
304,148,55622,1,8,0:0:0:0:
160,248,55772,5,0,0:0:0:0:
160,248,55847,1,0,0:0:0:0:
160,248,55922,2,0,B|132:232|132:232|96:232|96:232|64:216,1,105,4|2,1:0|0:0,0:0:0:0:
28,140,56372,1,0,0:0:0:0:
104,108,56522,2,0,L|120:52,1,52.5,2|0,0:0|0:0,0:0:0:0:
188,116,56822,5,0,1:0:0:0:
392,204,57122,2,0,L|304:148,1,105,0|2,1:0|0:0,0:0:0:0:
232,184,57572,1,0,0:0:0:0:
188,116,57722,2,0,L|132:112,1,52.5,2|0,0:0|0:0,0:0:0:0:
172,252,58022,6,0,P|224:272|276:264,2,105,0|0|2,1:0|1:0|0:0,0:0:0:0:
336,236,58922,1,0,1:0:0:0:
172,252,59222,1,2,0:0:0:0:
336,236,59522,5,8,0:0:0:0:
164,156,59672,1,8,0:0:0:0:
324,140,59822,1,8,0:0:0:0:
172,252,59972,1,0,0:0:0:0:
240,88,60122,1,8,0:0:0:0:
260,308,60272,1,8,0:0:0:0:
260,308,60347,1,8,0:0:0:0:
260,308,60422,1,8,0:0:0:0:
260,308,60722,6,0,P|332:340|408:316,1,157.500006008148,4|8,3:2|0:0,0:0:0:0:
