osu file format v4

[General]
AudioFilename: GO MY WAY!! yayoi takatuki soro.mp3
AudioLeadIn: 0
AudioHash: b1245729385d6d2a8501058668083204
PreviewTime: -1
Countdown: 0
SampleSet: Normal

[Metadata]
Title:GO MY WAY!!
Artist:Yayoi Takatuki
Creator:zo3eve
Version:Normal

[Difficulty]
HPDrainRate:5
CircleSize:5
OverallDifficulty:5
SliderMultiplier: 1.2
SliderTickRate: 2

[Events]
//Background and Video events
1,0,"アイドルマスター ロケットガール 高槻やよい 「GO MY WAY!!」.avi"
//Break Periods
2,43783,48383
2,66783,71716
2,89449,93049
//Storyboard Layer 0 (Background)
//Storyboard Layer 1 (Failing)
//Storyboard Layer 2 (Passing)
//Storyboard Layer 3 (Foreground)
//Storyboard Sound Samples
//Background Colour Transformations
3,100,255,128,64

[TimingPoints]
0,333.333333333333,4,1,0,100

[HitObjects]
128,64,22916,1,0
384,64,24222,5,0
384,320,25583,5,0
128,320,26916,5,0
256,320,27583,1,0
384,320,28249,5,0
384,64,29583,5,0
128,64,30916,5,0
128,192,31583,1,0
256,192,32249,5,2
256,192,32583,1,2
128,64,33583,5,0
384,64,34916,5,0
384,320,36250,5,0
128,320,37583,5,0
256,320,38250,1,0
384,320,38916,5,0
384,64,40249,5,0
128,64,41583,5,0
128,192,42249,1,0
256,192,42916,5,2
256,192,43249,1,2
256,192,43583,5,4
128,64,49583,5,0
384,64,50916,5,0
384,320,52249,5,0
384,192,52916,2,0,B|384:192|227:312|167:68|32:224,1,360
256,192,54916,5,0
384,64,56249,5,0
128,64,57583,5,0
128,320,58916,5,0
192,320,59249,1,0
256,320,59583,1,2
320,320,59916,1,0
384,320,60249,1,2
448,320,60583,1,0
448,256,60916,5,2
384,256,61249,1,0
320,256,61583,1,2
256,256,61916,1,0
192,256,62249,1,2
64,256,62916,1,0
256,192,63916,5,2
256,192,64583,12,0,66583
256,192,73249,1,0
64,192,74583,5,0
64,64,75249,1,0
128,64,75583,5,0
128,128,75916,1,2
192,128,76249,1,0
256,128,76583,5,2
320,128,76916,1,0
320,192,77249,2,2,B|320:192|64:192,1,240
64,256,78249,6,0,B|64:256|187:314|283:314|416:256,1,360
416,192,79583,6,0,B|416:192|282:138|194:138|64:192,1,360
64,256,80916,5,0
192,256,81583,5,0
256,192,82249,5,0
256,192,82583,1,0
256,192,83249,1,2
128,192,83916,5,0
128,64,84583,1,0
256,64,85249,5,0
384,64,85916,1,0
384,128,86249,5,0
352,192,86583,1,0
288,224,86916,1,0
224,224,87249,1,2
160,192,87583,1,0
128,128,87916,1,2
256,128,88583,1,0
256,224,89249,1,2
64,224,94249,6,0,B|64:224|193:278|313:278|416:224,1,360
416,160,95583,6,0,B|416:160|309:108|169:108|64:160,1,360
64,224,96916,5,0
192,224,97583,5,0
320,224,98249,5,0
320,224,98583,1,0
448,224,99249,1,0
448,96,99916,5,0
320,96,100583,5,0
192,96,101249,5,0
96,96,101916,5,0
96,96,102249,1,0
96,160,102583,1,2
96,224,102916,5,0
96,224,103249,1,0
160,224,103583,1,2
224,224,103916,2,0,B|224:224|480:224,1,240
416,160,104916,6,0,B|416:160|284:103|195:103|64:160,1,360
64,224,106249,6,0,B|64:224|186:282|297:282|416:224,1,360
416,160,107583,5,0
416,32,108250,5,0
256,32,108916,5,0
256,32,109250,1,0
128,32,109916,1,0
128,160,110583,5,0
256,160,111249,5,0
256,160,111583,1,0
256,160,111916,1,0
256,352,112916,5,0
320,352,113249,1,0
320,288,113583,1,2
320,224,113916,5,0
256,224,114249,1,0
256,160,114583,1,2
256,32,115249,1,0
256,192,115916,12,0,118250
