osu file format v9

[General]
AudioFilename: -.mp3
AudioLeadIn: 0
PreviewTime: 116286
Countdown: 0
SampleSet: Soft
StackLeniency: 0.6
Mode: 0
LetterboxInBreaks: 0
StoryFireInFront: 0

[Editor]
DistanceSpacing: 0.8
BeatDivisor: 2
GridSize: 16

[Metadata]
Title:Biao Bai
Artist:Yaxuan Xiao
Creator:Breeze
Version:Normal
Source:
Tags:Elva C-Pop 1087 LKs

[Difficulty]
HPDrainRate:2
CircleSize:3
OverallDifficulty:2
ApproachRate:4
SliderMultiplier:1.4
SliderTickRate:2

[Events]
//Background and Video events
0,0,"BG.jpg"
//Break Periods
2,64281,70073
2,124730,126961
//Storyboard Layer 0 (Background)
//Storyboard Layer 1 (Fail)
//Storyboard Layer 2 (Pass)
//Storyboard Layer 3 (Foreground)
//Storyboard Sound Samples
//Background Colour Transformations
3,100,0,0,0

[TimingPoints]
282,444.444444444444,4,2,0,10,1,0
10948,-100,4,1,0,50,0,0
17837,-100,4,2,0,60,0,0
21393,-100,4,1,0,50,0,0
28504,-100,4,2,0,60,0,0
33837,-100,4,2,0,10,0,0
35171,-100,4,2,0,60,0,0
94282,-100,4,2,0,10,0,0
95615,-100,4,2,0,60,0,0
124726,-100,4,2,1,50,0,0
147615,-100,4,2,0,10,0,0
148948,-100,4,2,0,50,0,0

[Colours]
Combo1 : 128,0,255
Combo2 : 255,0,0
Combo3 : 255,255,255
SliderBorder : 255,255,255

[HitObjects]
154,193,6504,2,0,B|240:188|240:188|271:198|271:198|362:193,2,210
256,192,8059,12,0,10948
64,80,11837,5,0
64,304,12726,1,0
256,192,13615,1,0
480,192,14504,5,0
368,192,14948,1,0
256,192,15393,1,0
256,304,15837,1,0
256,192,16282,5,0
160,240,16726,1,0
256,192,17170,1,0
160,128,17615,1,0
256,80,18059,6,0,B|320:32|400:32,1,140,0|8
336,128,18948,2,0,B|400:96|480:128,1,140,0|8
384,192,19837,2,0,B|464:240|464:336,1,140,0|8
352,272,20726,2,0,B|320:352|208:352,1,140,0|8
256,240,21615,5,0
448,128,22504,1,0
256,32,23393,1,0
64,144,24281,1,0
256,32,25170,5,0
304,128,25615,1,0
352,32,26059,1,0
400,128,26504,1,0
448,32,26948,5,0
496,128,27393,1,0
448,224,27837,2,0,L|432:240|432:256|416:256|416:272|352:336,1,140
256,336,28726,6,0,B|176:336|112:272,1,140,0|8
256,256,29615,2,0,B|192:224|176:128,1,140,0|8
288,176,30504,2,0,B|256:112|320:32,1,140,0|8
368,144,31393,2,0,B|368:64|480:32,1,140,0|8
464,160,32281,5,0
448,272,32726,1,8
368,352,33170,1,0
288,272,33615,1,8
272,160,34059,2,0,B|176:160,2,70
304,48,34948,1,0
80,48,35837,6,0,B|176:48,2,70,0|0|8
112,160,36726,2,0,B|32:160,2,70,0|0|8
224,160,37615,2,0,B|304:160,2,70,0|0|8
256,272,38504,2,0,B|144:272,2,70,0|0|8
368,272,39393,5,0
368,272,39615,1,0
368,272,39837,1,8
368,160,40281,2,0,B|368:64,2,70,0|0|8
368,272,41170,1,0
256,272,41615,1,8
144,272,42059,6,0,B|112:208|144:128,1,140,0|8
256,192,42948,12,8,45170
256,192,45615,12,8,48726
432,48,50059,6,0,B|336:48,2,70,0|0|8
400,160,50948,2,0,B|480:160,2,70,0|0|8
288,160,51837,2,0,B|208:160,2,70,0|0|8
256,272,52726,2,0,B|368:272,2,70,0|0|8
144,272,53615,5,0
144,272,53837,1,0
144,272,54059,1,8
144,160,54504,2,0,B|144:64,2,70,0|0|8
48,208,55393,1,0
144,272,55837,1,8
256,272,56281,6,0,B|352:272,1,70
384,272,56726,2,0,B|384:192,1,70,8|0
384,144,57170,2,0,B|368:64|272:64,1,140,0|8
224,64,57837,2,0,B|96:96|96:288|224:336,1,350
256,224,59393,1,8
368,240,59837,6,0,B|368:336,2,70,0|0|8
368,192,60504,1,0
368,144,60726,2,0,B|400:96|336:16|288:48,1,140,0|8
200,39,61615,2,0,B|160:32|96:112|140:138,1,140,0|8
192,240,62504,2,0,B|256:288|320:240,1,140,0|8
48,64,71393,6,0,B|114:10|176:64,1,140,0|8
176,176,72281,1,0
176,64,72726,2,0,B|242:10|304:64,1,140,8|0
304,176,73615,1,8
304,64,74059,2,0,B|370:10|432:64,1,140,0|8
432,176,74948,5,0
432,288,75393,2,0,B|366:342|304:288,1,140,8|0
304,176,76281,1,8
304,288,76726,2,0,B|238:342|176:288,1,140,0|8
176,176,77615,1,0
176,176,77837,1,0
176,176,78059,1,8
288,176,78504,6,0,B|288:96|384:48,1,140,0|8
288,176,79393,2,0,B|368:176|416:240,1,140,0|8
288,176,80281,2,0,B|288:256|224:320,1,140,0|8
288,176,81170,2,0,B|208:176|144:112,1,140,0|8
240,48,82059,6,0,B|320:32|320:64|400:48,1,140,0|8
464,112,82948,1,0
384,192,83393,2,0,B|325:204|325:172|245:188,1,140,8|0
160,256,84281,1,8
240,336,84726,2,0,B|319:320|319:352|378:339,1,140,0|8
464,272,85615,5,0
384,192,86059,2,0,B|325:204|325:172|245:188,1,140,8|0
160,112,86948,1,8
256,48,87393,2,0,B|335:32|335:64|394:51,1,140,0|8
464,144,88281,2,0,L|448:160|464:176|448:192|464:208|464:288,1,140,0|8
368,320,89170,6,0,B|288:320|224:272,1,140,0|8
208,240,89837,1,0
176,192,90059,2,0,B|128:128|144:32,1,140,0|8
256,48,90948,2,0,B|336:48|400:96,1,140,0|8
416,128,91615,1,0
448,176,91837,2,0,B|496:240|480:336,1,140,0|8
368,320,92726,6,0,B|288:320|240:240,1,140,0|8
208,208,93393,1,0
176,256,93615,2,0,B|144:320|32:320,1,140,0|8
64,208,94504,1,0
64,160,94726,1,0
112,128,94948,2,0,B|113:87|64:80|16:86|16:128,1,140
256,128,96281,6,0,B|256:32,2,70,0|0|8
256,240,97170,2,0,B|256:336,2,70,0|0|8
368,240,98059,2,0,B|432:304,2,70,0|0|8
368,128,98948,2,0,B|432:64,2,70,0|0|8
272,176,99837,5,0
272,176,100059,1,0
272,176,100281,1,8
192,96,100726,1,0
144,112,100948,1,0
96,144,101170,2,0,B|41:144|42:241|96:240,1,140,8|0
192,288,102059,1,8
304,288,102504,6,0,B|416:288,3,70,0|0|8|0
256,192,103393,12,8,105615
256,192,106059,12,8,109170
256,128,110504,6,0,B|256:32,2,70,0|0|8
256,240,111393,2,0,B|256:336,2,70,0|0|8
144,240,112281,2,0,B|80:304,2,70,0|0|8
144,128,113170,2,0,B|80:64,2,70,0|0|8
240,176,114059,5,0
240,176,114281,1,0
240,176,114504,1,8
320,96,114948,1,0
368,112,115170,1,0
416,144,115393,2,0,B|471:144|470:241|416:240,1,140,8|0
320,288,116281,1,8
208,288,116726,6,0,B|144:224,1,70
144,288,117170,2,0,B|64:368,1,70,8|0
48,304,117615,2,0,B|0:240|48:160,1,140,0|8
64,128,118281,2,0,B|96:16|304:16|345:129,1,350
448,192,119837,1,8
400,288,120281,6,0,B|448:352,2,70,0|0|8
352,288,120948,1,0
304,288,121170,2,0,B|232:332|160:288,1,140,0|8
128,272,121837,2,0,B|96:224|96:224|160:160|144:48,1,210,0|8
256,80,122948,2,0,B|272:160|224:224,1,140,0|8
336,224,123837,2,0,B|368:160|352:64,1,140,0|8
336,64,128281,6,0,B|512:64,1,140,2|8
176,320,130059,2,0,B|16:320,1,140,2|8
304,160,131837,5,2
416,160,132281,1,8
416,272,132726,2,0,B|400:320|320:320|304:272,1,140,0|8
192,272,133615,5,2
80,272,134059,1,8
80,160,134504,2,0,B|96:112|176:112|192:160,1,140,2|8
304,160,135393,6,0,B|400:160|400:64,2,140,2|8|2
304,272,136726,1,8
192,272,137170,6,0,B|96:272|96:368,2,140,2|8|2
192,160,138504,1,8
256,64,138948,5,2
304,160,139393,1,8
368,64,139837,1,2
416,160,140281,1,8
464,256,140726,6,0,B|464:336,2,70,2|0|8
352,256,141615,1,2
352,256,141837,1,0
352,256,142059,1,8
288,352,142504,5,2
224,256,142948,2,0,B|224:160,2,70,8|0|2
160,352,143837,1,8
96,256,144281,5,2
160,176,144726,2,0,B|160:-32,2,140,8|2|8
224,256,146059,5,2
336,256,146504,2,0,B|480:256,2,140,8|2|8
336,144,147837,5,0
256,64,148282,1,0
176,144,148726,1,0
336,288,149615,6,0,B|400:352,2,70,0|0|8
256,352,150504,1,0
256,352,150726,1,0
256,352,150948,1,8
176,288,151393,2,0,B|112:352,2,70,0|0|8
200,176,152281,2,0,B|120:144,2,70,0|0|8
312,176,153170,2,0,B|392:144,2,70,0|0|8
256,80,154059,2,0,B|256:0,2,70,0|0|8
256,192,154948,1,0
256,304,155393,1,8
256,192,155837,6,0,L|416:192,2,140,0|8|0
256,192,157170,2,0,L|96:192,2,140,8|0|8
256,192,158504,2,0,L|256:48,2,140,0|8|0
256,192,159837,6,0,L|256:352,2,140,8|0|8
256,192,161170,2,0,L|112:48,2,140,0|8|0
256,192,162504,2,0,L|368:80,2,140,8|0|8
160,144,163837,6,0,B|101:159|99:224|160:240,1,140,0|8
208,336,164726,2,0,B|223:395|288:397|304:336,1,140,0|8
368,240,165615,2,0,B|427:225|429:160|368:144,1,140,0|8
304,48,166504,2,0,B|289:-11|224:-13|208:48,1,140,0|8
144,128,167393,6,0,B|48:128,2,70,0|0|8
256,160,168282,2,0,B|256:80,2,70,0|0|8
256,160,169170,1,0
256,272,169615,1,8
352,336,170059,6,0,B|464:336|464:224,1,140,0|8
368,192,170948,1,0
464,128,171393,2,0,B|464:48|352:48,1,140,8|0
256,48,172282,1,8
144,48,172726,2,0,B|48:47|48:127,1,140,0|8
256,192,173615,12,0,178059
