osu file format v13

[General]
AudioFilename: Yasuyuki Okamura-Viva Namida (TV size).mp3
AudioLeadIn: 2000
PreviewTime: 52949
Countdown: 0
SampleSet: Normal
StackLeniency: 0.7
Mode: 0
LetterboxInBreaks: 1
WidescreenStoryboard: 1

[Editor]
Bookmarks: 7041,21819,23226,38238,53249,83156
DistanceSpacing: 1.4
BeatDivisor: 4
GridSize: 4
TimelineZoom: 1

[Metadata]
Title:Viva Namida (TV size)
TitleUnicode:ビバナミダ (TV size)
Artist:Yasuyuki Okamura
ArtistUnicode:岡村靖幸
Creator:Perdzoch
Version:QT (Hard)
Source:スペースダンディ
Tags:ビバナミダ Opening Anime Japanese Space Dandy
BeatmapID:456394
BeatmapSetID:191787

[Difficulty]
HPDrainRate:6
CircleSize:4
OverallDifficulty:6
ApproachRate:8
SliderMultiplier:1.5
SliderTickRate:2

[Events]
//Background and Video events
0,0,"bg3.jpg",0,0
Video,0,"Space Dandy OP.avi"
//Break Periods
//Storyboard Layer 0 (Background)
//Storyboard Layer 1 (Fail)
//Storyboard Layer 2 (Pass)
//Storyboard Layer 3 (Foreground)
//Storyboard Sound Samples
//Background Colour Transformations
3,100,163,162,255

[TimingPoints]
684,468.75,4,1,1,65,1,0
2517,-100,4,1,1,65,0,0
18500,-90.9090909090909,4,1,1,65,0,0
19437,-100,4,1,1,65,0,0
23109,-100,4,1,1,80,0,0
38184,-100,4,1,1,55,0,0
50966,-100,4,1,1,55,0,0
51317,-100,4,1,1,65,0,0
51786,-100,4,1,1,75,0,0
53184,-80,4,1,1,75,0,1
64444,-76.9230769230769,4,1,1,85,0,1
66380,-80,4,1,1,85,0,1
68205,-80,4,1,1,75,0,1
83300,-100,4,1,1,65,0,0

[Colours]
Combo1 : 234,175,0
Combo2 : 64,0,0
Combo3 : 0,0,64
Combo4 : 230,0,115

[HitObjects]
428,132,684,53,4,0:0:0:0:
368,208,918,2,0,P|352:256|312:264,1,75,2|8,2:0|0:0,0:0:0:0:
240,216,1387,1,6,2:0:0:0:
160,280,1621,1,8,0:0:0:0:
160,280,1738,1,0,0:0:0:0:
160,280,1855,1,2,2:0:0:0:
80,128,2090,6,0,B|136:96|176:88|240:80|216:88,1,150,8|4,0:0|0:0,0:0:0:0:
288,144,2793,2,0,P|272:184|288:216,1,75,2|8,2:0|0:0,0:0:0:0:
376,240,3262,1,6,2:0:0:0:
320,328,3496,1,8,0:0:0:0:
320,328,3613,1,0,0:0:0:0:
320,328,3730,1,2,2:0:0:0:
168,312,3965,6,0,B|120:296|80:264|56:240|48:208|64:200,1,150,8|4,0:0|0:0,0:0:0:0:
136,168,4668,2,8,P|184:168|208:136,1,75,2|8,2:0|0:0,0:0:0:0:
224,72,5137,1,6,2:0:0:0:
304,16,5371,1,8,0:0:0:0:
304,16,5488,1,0,0:0:0:0:
304,16,5605,1,2,2:0:0:0:
300,192,5840,6,8,P|248:204|236:240,1,75,8|10,0:0|2:0,0:0:0:0:
304,280,6309,1,4,0:0:0:0:
304,368,6543,2,0,P|360:352|368:320,1,75,2|8,2:0|0:0,0:0:0:0:
432,264,7012,1,6,2:0:0:0:
112,88,7715,5,4,0:0:0:0:
200,56,7949,1,2,2:0:0:0:
200,56,8184,2,0,P|280:36|344:56,1,150,4|8,0:0|0:0,0:0:0:0:
344,176,8887,1,2,2:0:0:0:
312,304,9121,1,8,0:0:0:0:
344,176,9355,1,2,2:0:0:0:
312,304,9590,2,0,B|252:364|152:344,1,150,8|8,0:0|0:0,0:0:0:0:
96,264,10293,6,0,P|136:224|128:200,2,75,2|8|2,2:0|0:0|2:0,0:0:0:0:
224,296,10996,1,8,0:0:0:0:
296,160,11230,2,0,B|280:112|256:104|232:112,2,75,2|8|2,2:0|0:0|2:0,0:0:0:0:
360,320,11934,6,0,L|432:264,2,75,8|2|8,0:0|2:0|0:0,0:0:0:0:
392,176,12637,2,0,L|328:88,2,75,2|8|2,2:0|0:0|2:0,0:0:0:0:
248,72,13340,2,0,L|176:128,2,75,8|2|8,0:0|2:0|0:0,0:0:0:0:
160,48,14043,6,0,L|120:16,2,37.5,2|0|8,2:0|0:0|0:0,0:0:0:0:
264,136,14512,2,0,L|312:176,2,37.5,2|0|8,2:0|0:0|0:0,0:0:0:0:
152,248,14980,1,2,2:0:0:0:
152,248,15215,2,0,B|96:208|96:152|104:112,1,150,8|8,0:0|0:0,0:0:0:0:
216,72,15918,2,0,L|256:32,2,37.5,2|0|8,2:0|0:0|0:0,0:0:0:0:
216,192,16387,1,2,2:0:0:0:
320,120,16621,6,0,B|376:144|368:208|400:232|416:240,1,150,8|8,0:0|0:0,0:0:0:0:
216,72,17324,2,0,L|184:40,2,37.5,2|0|8,2:0|0:0|0:0,0:0:0:0:
124,124,17793,1,2,2:0:0:0:
124,124,18027,1,8,0:0:0:0:
184,200,18262,6,0,P|176:216|152:224,1,37.5,2|0,2:0|0:0,0:0:0:0:
200,264,18496,2,0,P|216:300|168:352,1,112.5,8|8,0:0|0:0,0:0:0:0:
173,351,18965,1,8,0:0:0:0:
124,284,19199,2,0,P|80:300|44:276,1,82.5000025177003,10|8,2:0|0:0,0:0:0:0:
96,208,19668,5,2,2:0:0:0:
40,112,19902,1,8,0:0:0:0:
96,208,20137,1,2,2:0:0:0:
152,48,20371,1,8,0:0:0:0:
96,208,20605,1,2,2:0:0:0:
188,156,20840,2,0,B|208:232|272:188|300:252|296:272,1,150,8|8,0:0|0:0,0:0:0:0:
440,344,21777,1,8,0:0:0:0:
472,216,22012,6,0,P|432:200|424:152,1,75,2|8,2:0|0:0,0:0:0:0:
480,128,22480,2,0,P|448:88|416:88,1,75,2|8,2:0|0:0,0:0:0:0:
320,96,22949,6,0,L|264:56,2,37.5,2|0|4,2:0|0:0|0:0,0:0:0:0:
368,192,23418,1,2,2:0:0:0:
316,284,23652,2,0,B|232:248|268:156,2,150,8|8|8,0:0|0:0|0:0,0:0:0:0:
416,264,24824,2,0,P|448:240|456:192,2,75,10|8|2,2:0|0:0|2:0,0:0:0:0:
352,184,25527,1,8,0:0:0:0:
248,192,25762,2,0,P|232:152|240:128,2,37.5,2|0|8,2:0|0:0|0:0,0:0:0:0:
144,224,26230,5,2,2:0:0:0:
136,328,26465,2,0,P|176:328|216:296,1,75,8|10,0:0|2:0,0:0:0:0:
296,256,26934,5,8,0:0:0:0:
312,152,27168,1,2,2:0:0:0:
400,216,27402,1,8,0:0:0:0:
400,216,27519,2,0,L|384:176,1,37.5,0|2,0:0|2:0,0:0:0:0:
336,88,27871,2,0,P|288:64|256:80,1,75,8|2,0:0|2:0,0:0:0:0:
176,112,28340,2,0,L|136:184,2,75,8|2|8,0:0|2:0|0:0,0:0:0:0:
272,72,29043,1,2,2:0:0:0:
376,56,29277,2,0,L|416:24,2,37.5,8|0|2,0:0|0:0|2:0,0:0:0:0:
256,152,29746,5,8,0:0:0:0:
96,176,29980,2,0,L|48:168,2,37.5,10|8|8,2:0|0:0|0:0,0:0:0:0:
160,304,30449,1,10,2:0:0:0:
248,248,30684,2,0,P|272:296|264:344,1,75,8|2,0:0|2:0,0:0:0:0:
368,272,31152,5,8,0:0:0:0:
368,168,31387,1,2,2:0:0:0:
288,104,31621,2,0,B|248:152|200:176|144:176,1,150,8|8,0:0|0:0,0:0:0:0:
144,72,32324,2,0,P|184:56|208:24,1,75,2|8,2:0|0:0,0:0:0:0:
308,32,32793,1,2,2:0:0:0:
352,128,33027,1,8,0:0:0:0:
248,112,33262,2,0,P|216:192|280:216,1,150,2|2,2:0|2:0,0:0:0:0:
256,324,33965,5,8,0:0:0:0:
176,256,34199,2,0,L|116:200,1,75,2|8,2:0|0:0,0:0:0:0:
32,320,34668,1,2,2:0:0:0:
152,328,34902,2,0,L|192:368,2,37.5,8|0|2,0:0|0:0|2:0,0:0:0:0:
216,240,35371,1,8,0:0:0:0:
120,200,35605,2,0,B|184:208|224:184|248:128,1,150,2|2,2:0|2:0,0:0:0:0:
144,88,36309,5,8,0:0:0:0:
360,88,36543,1,10,2:0:0:0:
176,168,36777,1,8,0:0:0:0:
328,168,37012,1,10,2:0:0:0:
208,240,37246,1,8,0:0:0:0:
296,240,37480,1,10,2:0:0:0:
256,320,37715,1,8,0:0:0:0:
152,136,38184,6,0,P|256:48|364:140,1,300,12|8,0:0|0:0,0:0:0:0:
308,256,39590,2,0,P|256:212|204:260,1,150,8|8,0:0|0:0,0:0:0:0:
260,324,40293,1,2,2:0:0:0:
260,324,40527,1,8,0:0:0:0:
360,296,40762,5,2,2:0:0:0:
464,248,40996,1,8,0:0:0:0:
360,296,41230,1,2,2:0:0:0:
448,136,41465,1,8,0:0:0:0:
312,88,41699,2,0,B|336:115|352:144|344:176|320:216|296:240|248:240|216:232,1,225,2|8,2:0|0:0,0:0:0:0:
112,320,42637,1,2,2:0:0:0:
48,152,42871,2,0,L|112:104,1,75,8|2,0:0|2:0,0:0:0:0:
248,200,43340,1,8,0:0:0:0:
344,336,43574,2,0,L|480:232,1,150,2|2,2:0|2:0,0:0:0:0:
432,144,44277,5,8,0:0:0:0:
392,32,44512,1,2,2:0:0:0:
288,88,44746,1,8,0:0:0:0:
392,32,44980,1,2,2:0:0:0:
431,143,45215,1,8,0:0:0:0:
320,200,45449,1,2,2:0:0:0:
224,320,45684,5,8,0:0:0:0:
104,280,45918,2,0,B|88:216|96:168|120:112|168:88|184:80,1,225,2|8,2:0|0:0,0:0:0:0:
368,32,47090,1,8,0:0:0:0:
376,160,47324,2,0,B|408:192|408:232|408:280|392:304|360:336|320:352,1,225,2|8,2:0|0:0,0:0:0:0:
224,336,48262,2,0,L|168:248,1,75,2|8,2:0|0:0,0:0:0:0:
136,104,48730,2,0,L|192:184,1,75,2|8,2:0|0:0,0:0:0:0:
360,224,49199,2,0,L|256:72,1,150,2|2,2:0|2:0,0:0:0:0:
168,104,49902,5,8,0:0:0:0:
140,204,50137,1,2,2:0:0:0:
180,300,50371,1,8,0:0:0:0:
284,316,50605,1,2,2:0:0:0:
352,236,50840,1,8,0:0:0:0:
272,184,51074,1,6,2:0:0:0:
288,168,51543,1,14,0:0:0:0:
312,184,52012,1,14,2:0:0:0:
256,192,52246,12,10,52949,2:0:0:0:
96,208,53184,6,0,P|96:160|136:128,1,93.75,8|0,0:0|0:0,0:0:0:0:
264,176,53652,2,0,B|272:232|240:256|216:256,2,93.75,8|2|8,0:0|2:0|0:0,0:0:0:0:
368,88,54355,1,2,2:0:0:0:
424,216,54590,1,8,0:0:0:0:
272,192,54824,1,2,2:0:0:0:
432,136,55059,1,8,0:0:0:0:
336,248,55293,1,2,2:0:0:0:
288,112,55527,1,8,0:0:0:0:
96,144,55762,5,2,2:0:0:0:
96,144,55879,1,0,0:0:0:0:
96,144,55996,2,0,L|136:240,1,93.75,8|2,0:0|2:0,0:0:0:0:
208,336,56465,2,0,P|272:368|376:312,1,187.5,8|8,0:0|0:0,0:0:0:0:
424,184,57168,1,2,2:0:0:0:
428,52,57402,2,0,P|388:28|332:44,1,93.75,8|2,0:0|2:0,0:0:0:0:
212,40,57871,2,0,B|172:80|100:96|68:96|28:88,1,187.5,8|8,0:0|0:0,0:0:0:0:
132,180,58574,2,0,B|191:208|228:239|255:294|258:327,1,187.5,2|2,2:0|2:0,0:0:0:0:
255,312,59277,1,8,0:0:0:0:
336,164,59746,6,0,B|376:200|424:208|480:152,2,140.625,8|0|2,0:0|0:0|2:0,0:0:0:0:
400,80,60684,2,0,L|288:16,2,93.75,8|2|8,0:0|2:0|0:0,0:0:0:0:
400,80,61387,1,2,2:0:0:0:
164,192,61855,6,0,L|212:184,1,46.875,2|0,2:0|0:0,0:0:0:0:
276,176,62090,1,8,0:0:0:0:
396,228,62324,2,0,L|368:332,3,93.75,2|8|2|8,2:0|0:0|2:0|0:0,0:0:0:0:
224,296,63262,5,2,2:0:0:0:
272,176,63496,1,8,0:0:0:0:
176,88,63730,1,2,2:0:0:0:
136,208,63965,2,0,P|96:240|32:232,2,93.75,8|2|8,0:0|2:0|0:0,0:0:0:0:
136,24,64668,5,2,2:0:0:0:
272,56,64902,1,8,0:0:0:0:
384,128,65137,2,0,P|360:192|304:176,1,97.4999955368044,2|8,2:0|0:0,0:0:0:0:
96,176,65605,1,2,2:0:0:0:
176,280,65840,1,8,0:0:0:0:
296,344,66074,2,0,P|344:328|320:272,1,97.4999955368044,2|8,2:0|0:0,0:0:0:0:
200,224,66543,6,0,B|144:176|160:128|176:104,1,93.75,6|8,2:0|0:0,0:0:0:0:
280,88,67012,2,0,B|264:144|288:176|312:208,1,93.75,6|8,2:0|0:0,0:0:0:0:
424,192,67480,2,0,B|384:152|384:56|440:16,1,187.5,6|2,2:0|2:0,0:0:0:0:
280,80,68184,5,8,0:0:0:0:
280,80,68301,2,0,L|216:32,2,46.875,0|0|0,0:0|0:0|0:0,0:0:0:0:
328,128,68652,2,0,B|360:168|368:208|352:264|312:304,1,187.5,8|8,0:0|0:0,0:0:0:0:
192,328,69355,2,0,L|96:384,1,93.75,2|8,2:0|0:0,0:0:0:0:
64,256,69824,6,0,P|32:216|32:144,1,93.75,2|8,2:0|0:0,0:0:0:0:
40,48,70293,1,2,2:0:0:0:
152,64,70527,2,0,B|144:112|184:152|216:160,1,93.75,8|2,0:0|2:0,0:0:0:0:
304,200,70996,2,0,L|368:120,1,93.75,8|0,0:0|0:0,0:0:0:0:
448,32,71465,6,0,P|488:88|464:136,1,93.75,8|0,0:0|0:0,0:0:0:0:
424,160,71816,1,0,0:0:0:0:
472,232,71934,2,0,L|424:352,1,93.75,8|0,0:0|0:0,0:0:0:0:
328,320,72402,6,0,L|384:320,2,46.875,8|0|2,0:0|0:0|2:0,0:0:0:0:
208,320,72871,1,8,0:0:0:0:
88,320,73105,2,0,L|40:320,2,46.875,2|0|8,2:0|0:0|0:0,0:0:0:0:
96,200,73574,2,0,P|80:144|32:128,1,93.75,2|8,2:0|0:0,0:0:0:0:
152,64,74043,5,2,2:0:0:0:
264,32,74277,2,0,B|272:88|256:136|208:176|168:184,1,187.5,8|8,0:0|0:0,0:0:0:0:
216,312,74980,2,0,L|304:256,1,93.75,2|8,2:0|0:0,0:0:0:0:
376,344,75449,6,0,L|408:296,1,46.875,2|0,2:0|0:0,0:0:0:0:
432,256,75684,1,8,0:0:0:0:
352,160,75918,2,0,P|392:128|400:64,1,93.75,2|8,2:0|0:0,0:0:0:0:
304,24,76387,2,0,P|264:56|256:104,1,93.75,2|8,2:0|0:0,0:0:0:0:
248,216,76855,5,2,2:0:0:0:
160,128,77090,1,8,0:0:0:0:
160,128,77324,2,0,P|120:96|56:112,2,93.75,2|8|2,2:0|0:0|2:0,0:0:0:0:
160,256,78027,1,8,0:0:0:0:
272,320,78262,5,2,2:0:0:0:
304,192,78496,1,8,0:0:0:0:
416,264,78730,1,2,2:0:0:0:
512,320,78965,2,0,P|480:368|432:368,2,93.75,8|2|8,0:0|2:0|0:0,0:0:0:0:
512,168,79668,5,2,2:0:0:0:
464,48,79902,1,8,0:0:0:0:
368,136,80137,2,0,P|352:184|304:224,1,93.75,2|8,2:0|0:0,0:0:0:0:
64,168,80605,1,2,2:0:0:0:
120,48,80840,1,8,0:0:0:0:
200,136,81074,2,0,P|208:184|240:216,1,93.75,2|8,2:0|0:0,0:0:0:0:
328,312,81543,6,0,L|360:360,2,46.875,0|0|8,0:0|0:0|0:0,0:0:0:0:
448,264,82012,2,0,L|392:224,2,46.875,0|0|8,0:0|0:0|0:0,0:0:0:0:
408,128,82480,5,8,0:0:0:0:
288,80,82715,1,8,0:0:0:0:
192,176,82949,2,0,P|152:128|144:88,1,93.75,8|12,0:0|0:0,0:0:0:0:
352,112,83652,5,8,0:0:0:0:
408,272,83887,2,0,B|384:304|384:304|344:320,3,75,6|8|10|8,2:0|0:0|2:0|0:0,0:0:0:0:
232,248,84824,1,10,2:0:0:0:
264,112,85059,6,0,B|272:152|272:152|320:200,2,75,12|2|8,0:0|2:0|0:0,0:0:0:0:
112,224,85762,2,0,P|64:264|64:288,1,75,6|8,2:0|0:0,0:0:0:0:
176,344,86230,2,0,P|224:320|232:288,1,75,10|8,2:0|0:0,0:0:0:0:
312,224,86699,1,10,2:0:0:0:
432,128,86934,6,0,B|416:96|416:96|376:72,2,75,12|2|8,0:0|2:0|0:0,0:0:0:0:
160,168,87637,2,0,P|128:208|96:208,1,75,6|8,2:0|0:0,0:0:0:0:
224,280,88105,2,0,P|256:312|304:304,1,75,10|8,2:0|0:0,0:0:0:0:
120,192,88809,5,12,0:0:0:0:
224,80,89043,1,6,2:0:0:0:
288,240,89277,1,4,0:0:0:0:
400,120,89512,1,6,2:0:0:0:
