osu file format v13

[General]
AudioFilename: Yasuyuki Okamura-Viva Namida (TV size).mp3
AudioLeadIn: 0
PreviewTime: 52949
Countdown: 0
SampleSet: Normal
StackLeniency: 0.7
Mode: 0
LetterboxInBreaks: 1
WidescreenStoryboard: 0

[Editor]
Bookmarks: 7041,21819,23226,38238,53249,83156
DistanceSpacing: 1.4
BeatDivisor: 4
GridSize: 4
TimelineZoom: 1

[Metadata]
Title:Viva Namida (TV size)
TitleUnicode:ビバナミダ (TV size)
Artist:Yasuyuki Okamura
ArtistUnicode:岡村靖幸
Creator:Perdzoch
Version:Dandy (Normal+)
Source:スペースダンディ
Tags:ビバナミダ Opening Anime Japanese Space Dandy
BeatmapID:456391
BeatmapSetID:191787

[Difficulty]
HPDrainRate:5
CircleSize:3
OverallDifficulty:4
ApproachRate:6
SliderMultiplier:1.1
SliderTickRate:2

[Events]
//Background and Video events
0,0,"bg.jpg",0,0
Video,0,"Space Dandy OP.avi"
//Break Periods
//Storyboard Layer 0 (Background)
//Storyboard Layer 1 (Fail)
//Storyboard Layer 2 (Pass)
//Storyboard Layer 3 (Foreground)
//Storyboard Sound Samples
//Background Colour Transformations
3,100,163,162,255

[TimingPoints]
684,468.75,4,1,1,60,1,0
22485,-80,4,1,1,60,0,0
22719,-100,4,1,1,60,0,0
23109,-90.9090909090909,4,1,1,80,0,0
36840,-100,4,1,1,60,0,0
52715,-100,4,1,1,85,0,1
53245,-80,4,1,1,85,0,1
66380,-80,4,1,1,90,0,1
68205,-80,4,1,1,80,0,1
83300,-100,4,1,1,60,0,0

[HitObjects]
312,104,4434,5,4,0:0:0:0:
404,104,4668,1,2,2:0:0:0:
404,196,4902,2,0,L|332:196,1,55,8|6,0:0|2:0,0:0:0:0:
204,320,5371,5,8,0:0:0:0:
116,320,5605,1,2,2:0:0:0:
116,228,5840,2,0,L|180:228,1,55,8|10,0:0|2:0,0:0:0:0:
292,272,6309,22,0,P|260:312|196:320,1,110,4|8,0:0|0:0,0:0:0:0:
108,260,7012,2,0,P|140:220|204:212,1,110,6|2,2:0|2:0,0:0:0:0:
216,112,7715,5,4,0:0:0:0:
312,112,7949,1,2,2:0:0:0:
312,112,8066,1,8,0:0:0:0:
312,112,8184,2,0,P|312:152|292:184,1,55,4|2,0:0|2:0,0:0:0:0:
424,208,8652,6,0,P|472:176|448:128,1,110,8|8,0:0|0:0,0:0:0:0:
320,192,9355,1,2,2:0:0:0:
232,264,9590,2,0,P|240:342|264:357,1,110,8|8,0:0|0:0,0:0:0:0:
368,352,10293,1,2,2:0:0:0:
496,152,10762,5,2,2:0:0:0:
472,104,10996,1,8,0:0:0:0:
424,72,11230,1,2,2:0:0:0:
376,48,11465,1,8,0:0:0:0:
264,32,11934,2,0,P|134:53|88:144,1,220,8|8,0:0|0:0,0:0:0:0:
84,168,13105,1,2,2:0:0:0:
84,168,13340,1,8,0:0:0:0:
112,216,13574,2,0,L|176:256,1,55,2|8,2:0|0:0,0:0:0:0:
188,332,14043,6,0,P|232:300|244:224,1,110,2|2,2:0|2:0,0:0:0:0:
192,184,14746,2,0,P|188:148|204:120,1,55,8|2,0:0|2:0,0:0:0:0:
272,160,15215,1,8,0:0:0:0:
272,160,15449,1,2,2:0:0:0:
272,248,15684,6,0,L|232:312,1,55,8|2,0:0|2:0,0:0:0:0:
320,340,16152,2,0,L|352:280,1,55,8|2,0:0|2:0,0:0:0:0:
420,340,16621,2,0,L|476:232,3,110,8|8|8|8,0:0|0:0|0:0|0:0,0:0:0:0:
426,124,18496,5,8,0:0:0:0:
392,80,18730,1,10,2:0:0:0:
344,64,18965,1,8,0:0:0:0:
288,72,19199,1,10,2:0:0:0:
408,200,19668,1,2,2:0:0:0:
348,268,19902,1,8,0:0:0:0:
348,268,20137,2,0,L|268:280,2,55,2|8|2,2:0|0:0|2:0,0:0:0:0:
436,296,20840,2,0,P|440:244|404:196,1,110,8|8,0:0|0:0,0:0:0:0:
240,96,21777,5,8,0:0:0:0:
240,96,22012,1,2,2:0:0:0:
304,152,22246,2,0,P|252:184|200:172,1,110,8|8,0:0|0:0,0:0:0:0:
100,308,23184,5,4,0:0:0:0:
100,308,23418,1,2,2:0:0:0:
100,308,23652,2,0,L|132:236,1,60.5000018463135,8|2,0:0|2:0,0:0:0:0:
176,184,24121,2,8,P|220:136|296:124,1,121.000003692627,8|8,0:0|0:0,0:0:0:0:
264,212,24824,1,10,2:0:0:0:
263,211,25059,6,0,P|332:296|360:296,1,121.000003692627,8|8,0:0|0:0,0:0:0:0:
348,212,25762,2,0,P|380:164|440:160,1,121.000003692627,2|2,2:0|2:0,0:0:0:0:
428,68,26465,1,8,0:0:0:0:
428,68,26699,1,10,2:0:0:0:
440,160,26934,2,0,L|484:220,3,60.5000018463135,8|2|8|0,0:0|2:0|0:0|0:0,0:0:0:0:
480,292,27871,2,0,P|444:336|364:336,1,121.000003692627,8|8,0:0|0:0,0:0:0:0:
400,260,28574,2,0,L|324:144,1,121.000003692627,2|2,2:0|2:0,0:0:0:0:
324,64,29277,1,8,0:0:0:0:
324,64,29512,2,0,L|260:92,1,60.5000018463135,2|8,2:0|0:0,0:0:0:0:
180,56,29980,6,0,L|204:116,1,60.5000018463135,10|8,2:0|0:0,0:0:0:0:
80,164,30449,1,10,2:0:0:0:
80,164,30684,2,0,L|136:141,1,60.5000018463135,8|2,0:0|2:0,0:0:0:0:
224,168,31152,2,0,L|202:111,2,60.5000018463135,8|2|8,0:0|2:0|0:0,0:0:0:0:
204,256,31855,2,0,P|268:252|308:204,1,121.000003692627,2|2,2:0|2:0,0:0:0:0:
388,168,32559,1,8,0:0:0:0:
396,256,32793,6,0,P|460:220|456:112,1,181.500005538941,2|8,2:0|0:0,0:0:0:0:
384,40,33730,1,2,2:0:0:0:
284,40,33965,1,8,0:0:0:0:
180,40,34199,5,2,2:0:0:0:
180,40,34434,2,0,P|116:140|132:212,1,181.500005538941,8|2,0:0|2:0,0:0:0:0:
292,136,35371,1,8,0:0:0:0:
204,216,35605,1,2,2:0:0:0:
312,180,35840,1,8,0:0:0:0:
224,260,36074,1,2,2:0:0:0:
256,192,36309,12,8,37715,0:0:0:0:
232,140,38184,5,12,0:0:0:0:
140,164,38418,2,0,P|216:232|284:220,1,165,2|8,2:0|0:0,0:0:0:0:
255,59,39590,1,8,0:0:0:0:
255,59,39824,1,2,2:0:0:0:
340,40,40059,2,0,L|396:52,1,55,8|2,0:0|2:0,0:0:0:0:
440,120,40527,5,8,0:0:0:0:
444,204,40762,2,0,P|424:292|352:348,1,165,2|8,2:0|0:0,0:0:0:0:
288,344,41699,1,2,2:0:0:0:
292,260,41934,6,0,B|220:176,1,110,8|8,0:0|0:0,0:0:0:0:
280,84,42637,2,0,B|220:180,1,110,2|2,2:0|2:0,0:0:0:0:
124,256,43340,2,0,L|56:256,2,55,8|0|8,0:0|0:0|0:0,0:0:0:0:
312,328,44277,1,8,0:0:0:0:
428,136,44746,1,8,0:0:0:0:
232,40,45215,1,8,0:0:0:0:
97,163,45684,6,0,P|83:273|165:365,1,220,8|8,0:0|0:0,0:0:0:0:
276,272,47090,1,8,0:0:0:0:
276,272,47324,2,0,P|336:232|312:152,1,165,2|8,2:0|0:0,0:0:0:0:
420,176,48262,1,2,2:0:0:0:
420,104,48496,2,0,P|364:48|348:56,1,110,8|8,0:0|0:0,0:0:0:0:
176,48,49199,1,2,2:0:0:0:
96,176,49902,6,0,L|128:224,3,55,8|2|8|2,0:0|2:0|0:0|2:0,0:0:0:0:
204,272,50840,2,0,P|240:268|264:240,1,55,8|6,0:0|2:0,0:0:0:0:
420,168,51543,1,14,0:0:0:0:
256,192,51777,12,8,52715,0:0:0:0:
160,256,53184,5,8,0:0:0:0:
64,196,53418,2,0,L|120:140,1,68.75,2|8,2:0|0:0,0:0:0:0:
208,148,53887,2,0,L|268:212,1,68.75,2|8,2:0|0:0,0:0:0:0:
344,44,54590,6,0,P|372:108|448:140,1,137.5,8|8,0:0|0:0,0:0:0:0:
428,204,55293,2,0,P|400:268|328:304,1,137.5,2|2,2:0|2:0,0:0:0:0:
328,200,55996,6,0,L|240:200,1,68.75,8|2,0:0|2:0,0:0:0:0:
180,132,56465,1,8,0:0:0:0:
88,180,56699,1,2,2:0:0:0:
88,180,56934,2,0,L|32:100,2,68.75,8|2|8,0:0|2:0|0:0,0:0:0:0:
172,240,57637,2,0,L|244:240,1,68.75,2|8,2:0|0:0,0:0:0:0:
344,240,58105,1,2,2:0:0:0:
416,164,58340,2,0,L|472:84,2,68.75,8|2|8,0:0|2:0|0:0,0:0:0:0:
212,132,59277,37,8,0:0:0:0:
144,72,59512,1,2,2:0:0:0:
228,44,59746,1,8,0:0:0:0:
400,40,60215,21,8,0:0:0:0:
404,140,60449,1,2,2:0:0:0:
400,244,60684,2,0,L|344:316,1,68.75,8|2,0:0|2:0,0:0:0:0:
276,244,61152,1,8,0:0:0:0:
200,304,61387,2,0,P|152:308|128:288,1,68.75,2|8,2:0|0:0,0:0:0:0:
180,212,61855,1,2,2:0:0:0:
96,160,62090,2,0,L|144:104,1,68.75,8|2,0:0|2:0,0:0:0:0:
232,120,62559,2,0,B|288:56|272:72,1,68.75,8|2,0:0|2:0,0:0:0:0:
368,128,63027,5,8,0:0:0:0:
416,228,63262,1,2,2:0:0:0:
348,320,63496,1,8,0:0:0:0:
300,216,63730,2,0,P|220:224|180:268,1,137.5,2|2,2:0|2:0,0:0:0:0:
80,284,64434,2,0,B|96:204|120:140|160:76|192:36,2,275,8|8|8,0:0|0:0|0:0,0:0:0:0:
176,280,66543,1,6,2:0:0:0:
368,280,67012,1,6,2:0:0:0:
272,116,67480,1,6,2:0:0:0:
100,192,67949,5,2,2:0:0:0:
104,96,68184,2,0,P|168:48|240:32,2,137.5,8|8|8,0:0|0:0|0:0,0:0:0:0:
72,256,69590,1,8,0:0:0:0:
164,284,69824,2,0,L|235:287,1,68.75,2|8,2:0|0:0,0:0:0:0:
328,300,70293,2,0,L|400:268,1,68.75,2|8,2:0|0:0,0:0:0:0:
456,200,70762,1,2,2:0:0:0:
416,120,70996,6,0,L|312:24,3,137.5,8|8|8|8,0:0|0:0|0:0|0:0,0:0:0:0:
240,88,72637,1,2,2:0:0:0:
240,88,72871,2,0,L|96:104,1,137.5,8|8,0:0|0:0,0:0:0:0:
64,160,73574,1,2,2:0:0:0:
64,232,73809,1,8,0:0:0:0:
216,304,74277,6,0,P|272:340|352:348,1,137.5,8|8,0:0|0:0,0:0:0:0:
341,349,74980,1,2,2:0:0:0:
392,248,75449,38,0,P|422:231|432:188,1,68.75,2|8,2:0|0:0,0:0:0:0:
348,172,75918,2,0,P|312:192|304:232,1,68.75,2|8,2:0|0:0,0:0:0:0:
296,328,76387,37,2,2:0:0:0:
184,324,76621,1,8,0:0:0:0:
184,216,76855,1,2,2:0:0:0:
184,104,77090,1,8,0:0:0:0:
96,36,77324,22,0,P|60:40|28:68,1,68.75,2|8,2:0|0:0,0:0:0:0:
96,124,77793,2,0,P|64:148|32:148,1,68.75,2|8,2:0|0:0,0:0:0:0:
44,244,78262,5,2,2:0:0:0:
140,244,78496,1,8,0:0:0:0:
140,244,78730,2,0,P|200:216|228:144,1,137.5,2|2,2:0|2:0,0:0:0:0:
296,84,79434,2,0,B|360:140|392:196|400:244|400:332,2,275,8|8|8,0:0|0:0|0:0,0:0:0:0:
264,184,81777,1,8,0:0:0:0:
265,184,82480,5,8,0:0:0:0:
264,184,82715,1,8,0:0:0:0:
264,184,82949,1,8,0:0:0:0:
264,316,83184,5,12,0:0:0:0:
360,256,83418,2,0,L|416:296,2,55,2|8|6,2:0|0:0|2:0,0:0:0:0:
264,184,84121,1,8,0:0:0:0:
160,256,84355,2,0,L|104:296,2,55,10|8|10,2:0|0:0|2:0,0:0:0:0:
264,184,85059,5,12,0:0:0:0:
160,120,85293,2,0,L|104:80,2,55,2|8|6,2:0|0:0|2:0,0:0:0:0:
264,184,85996,1,8,0:0:0:0:
352,120,86230,2,0,L|408:80,2,55,10|8|10,2:0|0:0|2:0,0:0:0:0:
264,184,86934,5,12,0:0:0:0:
352,188,87168,2,0,L|432:188,1,55,2|8,2:0|0:0,0:0:0:0:
176,184,87637,2,0,L|104:184,1,55,6|8,2:0|0:0,0:0:0:0:
264,184,88105,1,10,2:0:0:0:
264,184,88340,1,8,0:0:0:0:
320,332,88809,6,0,B|304:344|304:344|280:324|280:324|256:344|256:344|232:324|232:324|212:344|212:344|184:324,1,165,12|0,0:0|0:0,0:0:0:0:
