osu file format v13

[General]
AudioFilename: videoFileNo20813.mp3
AudioLeadIn: 0
PreviewTime: 53280
Countdown: 0
SampleSet: Normal
StackLeniency: 0.7
Mode: 0
LetterboxInBreaks: 1
WidescreenStoryboard: 1

[Editor]
DistanceSpacing: 1.3
BeatDivisor: 4
GridSize: 4
TimelineZoom: 1

[Metadata]
Title:Viva Namida (TV Size)
TitleUnicode:ビバナミダ (TV Size)
Artist:Yasuyuki Okamura
ArtistUnicode:岡村靖幸
Creator:Master Shake
Version:Meow
Source:Space Dandy
Tags:adult swim studio bones anime boobies comedy action adventure
BeatmapID:456526
BeatmapSetID:191868

[Difficulty]
HPDrainRate:4
CircleSize:4
OverallDifficulty:4
ApproachRate:4
SliderMultiplier:1.3
SliderTickRate:1

[Events]
//Background and Video events
Video,0,"videoFileNo20813.avi"
0,0,"space_dandy_wallpaper1_by_wickedwahine808-d780kbd.jpg",0,0
//Break Periods
2,83530,87400
//Storyboard Layer 0 (Background)
//Storyboard Layer 1 (Fail)
//Storyboard Layer 2 (Pass)
//Storyboard Layer 3 (Foreground)
//Storyboard Sound Samples
//Background Colour Transformations
3,100,106,181,255

[TimingPoints]
830,468.75,4,1,1,54,1,0
53330,-100,4,1,1,54,0,1
67744,-100,4,1,1,54,0,0
68447,-100,4,1,1,54,0,1
83447,-100,4,1,1,54,0,0

[Colours]
Combo1 : 255,138,255
Combo2 : 72,164,255
Combo3 : 193,255,132
Combo4 : 255,79,79

[HitObjects]
80,148,830,6,8,P|116:264|388:144,1,520
328,44,3173,2,2,L|472:44,3,130,0|0|0|8,0:0|0:0|0:0|0:0,0:0:0:0:
404,260,4814,2,8,P|280:312|64:28,1,552.5
220,124,7158,1,4,0:0:0:0:
348,256,7626,2,2,L|432:256,2,65,0|8|2,0:0|0:0|0:0,0:0:0:0:
64,68,8330,6,8,L|172:200,1,162.5
376,152,9267,2,4,L|272:292,1,162.5
164,232,10205,2,8,L|252:236,2,65,8|8|8,0:0|0:0|0:0,0:0:0:0:
232,92,11142,1,2,0:0:0:0:
392,52,11611,1,2,0:0:0:0:
448,180,12080,1,8,0:0:0:0:
320,224,12314,2,2,L|264:268,2,65,0|0|0,0:0|0:0|0:0,0:0:0:0:
148,164,13251,2,0,L|232:164,1,65,0|0,0:0|0:0,0:0:0:0:
296,120,13720,1,4,0:0:0:0:
92,220,14423,6,2,L|160:220,5,65,2|2|2|2|2|2,0:0|0:0|0:0|0:0|0:0|0:0,0:0:0:0:
128,304,15830,2,8,L|276:304,4,130,8|8|8|8|8,0:0|0:0|0:0|0:0|0:0,0:0:0:0:
124,192,18408,2,2,L|408:192,1,260,0|0,0:0|0:0,0:0:0:0:
440,156,19580,1,8,0:0:0:0:
232,120,19931,2,8,L|160:256,3,130,8|8|8|8,0:0|0:0|0:0|0:0,0:0:0:0:
164,44,21923,5,8,0:0:0:0:
256,52,22158,1,2,0:0:0:0:
312,116,22392,1,8,0:0:0:0:
380,176,22626,1,2,0:0:0:0:
316,256,22861,2,8,L|176:256,1,130,8|8,0:0|0:0,0:0:0:0:
192,152,23798,6,8,L|320:152,2,97.5,8|2|8,0:0|0:0|0:0,0:0:0:0:
232,76,24736,1,2,0:0:0:0:
332,80,24970,2,0,L|468:80,2,130,4|4|4,0:0|0:0|0:0,0:0:0:0:
184,160,26376,2,0,L|268:160,3,65,8|8|8|8,0:0|0:0|0:0|0:0,0:0:0:0:
400,100,27314,2,8,P|276:292|76:240,1,455
83,247,29189,5,2,0:0:0:0:
132,148,29423,1,8,0:0:0:0:
216,112,29658,1,2,0:0:0:0:
256,192,29892,1,4,0:0:0:0:
320,136,30126,2,8,L|420:136,1,97.5,8|8,0:0|0:0,0:0:0:0:
480,184,30830,5,8,0:0:0:0:
384,204,31298,2,8,P|324:316|88:244,1,390
120,68,33173,2,0,L|208:68,4,65,0|0|0|0|0,0:0|0:0|0:0|0:0|0:0,0:0:0:0:
256,112,34580,2,0,L|336:112,6,65,8|8|4|8|8|0|0,0:0|0:0|0:0|0:0|0:0|0:0|0:0,0:0:0:0:
160,204,36455,6,8,L|208:204,16,32.5,8|0|0|0|8|0|0|0|8|0|0|0|8|0|0|0|8,0:0|0:0|0:0|0:0|0:0|0:0|0:0|0:0|0:0|0:0|0:0|0:0|0:0|0:0|0:0|0:0|0:0,0:0:0:0:
72,44,38798,2,0,L|168:160,1,130
268,308,39736,2,8,L|388:200,1,130,8|8,0:0|0:0,0:0:0:0:
164,144,40673,2,0,L|308:144,2,130,0|0|0,0:0|0:0|0:0,0:0:0:0:
76,52,42080,2,8,L|168:160,1,130
52,280,43017,2,8,L|140:280,4,65,8|8|8|8|8,0:0|0:0|0:0|0:0|0:0,0:0:0:0:
188,108,45830,6,8,L|336:108,2,130,8|8|8,0:0|0:0|0:0,0:0:0:0:
84,312,47119,2,8,L|252:312,1,162.5,8|8,0:0|0:0,0:0:0:0:
52,124,48173,2,2,L|168:228,1,130
304,212,49111,1,4,0:0:0:0:
168,116,49580,2,8,L|260:116,1,65
100,180,50048,2,2,P|112:296|268:288,1,292.5,0|0,0:0|0:0,0:0:0:0:
292,204,51689,5,8,0:0:0:0:
132,140,52158,1,0,0:0:0:0:
280,96,52392,1,4,0:0:0:0:
188,176,53330,6,0,L|276:180,1,65,0|0,0:0|0:0,0:0:0:0:
172,260,53798,2,2,P|292:308|384:220,1,260,0|0,0:0|0:0,0:0:0:0:
288,204,55205,2,8,L|212:204,1,65
156,76,55673,1,4,0:0:0:0:
272,84,55908,2,2,L|344:224,1,130
104,256,56845,6,8,L|188:260,1,65
152,144,57314,2,2,L|240:164,1,65,0|0,0:0|0:0,0:0:0:0:
328,196,57783,2,2,L|412:200,6,65,0|0|0|0|2|2|2,0:0|0:0|0:0|0:0|0:0|0:0|0:0,0:0:0:0:
120,88,59658,6,2,L|72:88,6,32.5,2|2|2|2|2|2|2,0:0|0:0|0:0|0:0|0:0|0:0|0:0,0:0:0:0:
152,184,60830,2,8,P|200:292|336:248,1,260,8|8,0:0|0:0,0:0:0:0:
128,84,62236,2,0,L|288:88,3,130,0|0|0|0,0:0|0:0|0:0|0:0,0:0:0:0:
292,240,64111,2,8,L|380:240,1,65
120,356,65048,2,4,L|200:232,1,130,4|4,0:0|0:0,0:0:0:0:
196,236,65986,2,4,L|312:72,1,195
452,28,67158,5,2,0:0:0:0:
444,112,67392,1,0,0:0:0:0:
364,144,67626,1,2,0:0:0:0:
116,216,68330,6,8,L|208:224,4,65,8|8|8|8|8,0:0|0:0|0:0|0:0|0:0,0:0:0:0:
80,104,69736,2,8,L|168:104,1,65,8|8,0:0|0:0,0:0:0:0:
240,44,70439,2,8,P|224:172|408:112,1,390
184,240,72314,2,0,L|272:240,3,65,0|0|0|0,0:0|0:0|0:0|0:0,0:0:0:0:
48,96,73486,2,8,L|144:96,3,65,8|8|8|8,0:0|0:0|0:0|0:0,0:0:0:0:
256,192,74423,12,2,75595,0:0:0:0:
108,204,75830,6,8,L|196:204,1,65
260,168,76415,2,0,L|360:228,1,97.5,0|0,0:0|0:0,0:0:0:0:
200,276,77353,2,8,L|320:280,1,97.5
196,144,78173,2,8,L|232:220,4,65,8|8|8|8|8,0:0|0:0|0:0|0:0|0:0,0:0:0:0:
96,220,79580,6,8,L|240:216,2,130,8|8|8,0:0|0:0|0:0,0:0:0:0:
96,220,80986,2,2,L|96:68,2,130,2|8|4,0:0|0:0|0:0,0:0:0:0:
140,60,82626,5,2,0:0:0:0:
168,156,82861,1,4,0:0:0:0:
244,120,83330,1,8,0:0:0:0:
256,192,88720,12,4,90361,0:0:0:0:
