osu file format v13

[General]
AudioFilename: videoFileNo20813.mp3
AudioLeadIn: 0
PreviewTime: 53280
Countdown: 0
SampleSet: Normal
StackLeniency: 0.7
Mode: 0
LetterboxInBreaks: 1
WidescreenStoryboard: 1

[Editor]
DistanceSpacing: 1.3
BeatDivisor: 4
GridSize: 4
TimelineZoom: 1

[Metadata]
Title:Viva Namida (TV Size)
TitleUnicode:ビバナミダ (TV Size)
Artist:Yasuyuki Okamura
ArtistUnicode:岡村靖幸
Creator:Master Shake
Version:Dandy, baby!
Source:Space Dandy
Tags:adult swim studio bones anime boobies comedy action adventure
BeatmapID:456525
BeatmapSetID:191868

[Difficulty]
HPDrainRate:7
CircleSize:4
OverallDifficulty:7
ApproachRate:6
SliderMultiplier:1.4
SliderTickRate:1

[Events]
//Background and Video events
Video,0,"videoFileNo20813.avi"
0,0,"space_dandy_wallpaper1_by_wickedwahine808-d780kbd.jpg",0,0
//Break Periods
2,44155,44780
2,83530,87436
//Storyboard Layer 0 (Background)
//Storyboard Layer 1 (Fail)
//Storyboard Layer 2 (Pass)
//Storyboard Layer 3 (Foreground)
//Storyboard Sound Samples
//Background Colour Transformations
3,100,106,181,255

[TimingPoints]
830,468.75,4,1,1,54,1,0
53330,-100,4,1,1,54,0,1
67626,-100,4,1,1,54,0,0
68564,-100,4,1,1,54,0,1
83564,-100,4,1,1,54,0,0

[Colours]
Combo1 : 255,138,255
Combo2 : 72,164,255
Combo3 : 193,255,132
Combo4 : 255,79,79

[HitObjects]
140,256,830,1,0,0:0:0:0:
232,252,1064,1,0,0:0:0:0:
260,164,1298,1,0,0:0:0:0:
80,152,1767,5,0,0:0:0:0:
144,88,2001,1,0,0:0:0:0:
232,68,2236,2,0,L|312:68,1,70,0|0,0:0|0:0,0:0:0:0:
356,236,2705,1,8,0:0:0:0:
140,288,3173,5,0,0:0:0:0:
232,300,3408,1,0,0:0:0:0:
220,204,3642,1,0,0:0:0:0:
124,68,3876,1,0,0:0:0:0:
216,72,4111,2,0,L|304:72,1,70
364,156,4580,1,8,0:0:0:0:
228,240,5048,5,0,0:0:0:0:
312,308,5283,1,0,0:0:0:0:
348,224,5517,1,0,0:0:0:0:
376,136,5751,2,0,L|440:64,1,70,0|0,0:0|0:0,0:0:0:0:
320,236,6455,5,8,0:0:0:0:
168,220,6689,2,0,L|252:192,1,70
272,116,7158,1,4,0:0:0:0:
180,108,7392,2,8,L|236:40,4,70,2|2|2|2|8,0:0|0:0|0:0|0:0|0:0,0:0:0:0:
128,184,8564,5,0,0:0:0:0:
192,248,8798,1,0,0:0:0:0:
280,232,9033,1,0,0:0:0:0:
368,260,9267,2,0,L|468:260,1,70,0|0,0:0|0:0,0:0:0:0:
392,140,9736,1,0,0:0:0:0:
308,108,9970,2,8,L|212:80,1,70
104,196,10439,2,2,L|188:196,2,70,2|2|2,0:0|0:0|0:0,0:0:0:0:
284,160,11376,5,0,0:0:0:0:
264,276,11611,2,0,L|364:276,1,70,0|0,0:0|0:0,0:0:0:0:
416,240,12080,2,0,L|452:168,1,70,0|0,0:0|0:0,0:0:0:0:
332,168,12548,2,0,L|236:168,1,70
148,156,13017,1,8,0:0:0:0:
48,116,13251,2,0,L|112:72,1,70,0|0,0:0|0:0,0:0:0:0:
196,104,13720,2,8,L|264:72,1,70,0|8,0:0|0:0,0:0:0:0:
136,236,14658,6,2,L|184:236,4,35,2|2|2|2|4,0:0|0:0|0:0|0:0|0:0,0:0:0:0:
228,232,15361,2,2,L|320:232,1,70
320,144,15830,6,0,L|372:216,1,70,8|8,0:0|0:0,0:0:0:0:
320,308,16298,2,0,L|404:308,1,70
232,252,16767,1,0,0:0:0:0:
196,184,17001,1,0,0:0:0:0:
124,124,17236,1,0,0:0:0:0:
212,72,17470,2,8,L|288:64,2,70,0|8|8,0:0|0:0|0:0,0:0:0:0:
228,188,18642,5,0,0:0:0:0:
356,152,18876,1,0,0:0:0:0:
292,88,19111,1,0,0:0:0:0:
400,60,19345,1,0,0:0:0:0:
448,136,19580,1,8,0:0:0:0:
264,236,19814,6,0,L|352:236,2,70,0|0|0,0:0|0:0|0:0,0:0:0:0:
444,188,20517,2,0,L|356:152,1,70,0|0,0:0|0:0,0:0:0:0:
84,128,20986,1,0,0:0:0:0:
196,100,21220,1,0,0:0:0:0:
192,180,21455,1,8,0:0:0:0:
312,132,21923,5,0,0:0:0:0:
388,180,22158,1,0,0:0:0:0:
416,268,22392,1,0,0:0:0:0:
328,284,22626,1,0,0:0:0:0:
220,272,22861,2,0,L|140:272,2,70,0|0|8,0:0|0:0|0:0,0:0:0:0:
216,160,23564,5,0,0:0:0:0:
296,120,23798,1,0,0:0:0:0:
372,172,24033,1,0,0:0:0:0:
196,264,24267,2,0,L|292:264,2,70,0|0|0,0:0|0:0|0:0,0:0:0:0:
104,216,24970,1,0,0:0:0:0:
212,124,25205,1,8,0:0:0:0:
300,100,25439,1,0,0:0:0:0:
240,236,25673,1,0,0:0:0:0:
292,212,25908,1,0,0:0:0:0:
176,72,26376,6,2,L|228:152,2,70,2|2|2,0:0|0:0|0:0,0:0:0:0:
172,200,27080,1,0,0:0:0:0:
244,256,27314,1,0,0:0:0:0:
160,300,27548,1,0,0:0:0:0:
240,168,27783,1,0,0:0:0:0:
252,76,28017,1,0,0:0:0:0:
324,132,28251,2,0,L|360:191,1,70,0|0,0:0|0:0,0:0:0:0:
268,284,28720,1,0,0:0:0:0:
352,252,28955,1,8,0:0:0:0:
400,176,29189,1,0,0:0:0:0:
132,192,29423,2,0,L|208:192,1,70
260,128,29892,5,4,0:0:0:0:
164,276,30361,1,4,0:0:0:0:
388,292,30830,2,8,L|312:292,1,70
276,140,31298,1,0,0:0:0:0:
96,240,31767,1,0,0:0:0:0:
160,264,32001,2,0,L|248:264,1,70
356,260,32470,2,8,L|380:176,1,70
196,168,33173,1,0,0:0:0:0:
232,84,33408,1,0,0:0:0:0:
160,252,33759,6,2,L|216:252,2,35,0|0|0,0:0|0:0|0:0,0:0:0:0:
160,252,34111,1,4,0:0:0:0:
336,216,34580,2,0,L|260:208,1,70
184,172,35048,2,0,L|216:96,1,70
300,92,35517,2,0,L|388:92,1,70,0|0,0:0|0:0,0:0:0:0:
316,216,35986,2,0,L|316:292,1,70
116,340,36455,6,0,L|204:340,1,70
186,340,36689,2,0,L|276:340,1,70
256,340,36806,2,0,L|348:340,1,70
326,340,37158,2,0,L|420:340,1,70
396,340,37275,2,0,L|396:264,1,70,0|0,0:0|0:0,0:0:0:0:
396,270,37509,2,0,L|396:196,1,70,0|0,0:0|0:0,0:0:0:0:
396,200,37744,2,0,L|396:92,1,105,0|0,0:0|0:0,0:0:0:0:
312,84,38330,5,8,0:0:0:0:
228,164,38564,1,2,0:0:0:0:
152,212,38798,1,0,0:0:0:0:
228,260,39033,1,0,0:0:0:0:
320,252,39267,1,0,0:0:0:0:
384,188,39501,1,0,0:0:0:0:
336,112,39736,2,8,L|488:116,1,140
224,108,40439,1,0,0:0:0:0:
144,232,40908,6,0,L|232:236,3,70,0|0|0|0,0:0|0:0|0:0|0:0,0:0:0:0:
156,108,41845,1,0,0:0:0:0:
244,136,42080,1,0,0:0:0:0:
312,200,42314,1,0,0:0:0:0:
416,208,42548,1,0,0:0:0:0:
416,112,42783,1,0,0:0:0:0:
336,72,43017,2,0,L|252:68,2,70,0|0|0,0:0|0:0|0:0,0:0:0:0:
224,148,43955,1,8,0:0:0:0:
148,184,45830,5,8,0:0:0:0:
288,204,46064,1,0,0:0:0:0:
288,112,46298,2,0,L|376:96,3,70,0|0|0|0,0:0|0:0|0:0|0:0,0:0:0:0:
100,296,47470,6,8,L|172:296,2,70,8|8|8,0:0|0:0|0:0,0:0:0:0:
152,220,48173,1,0,0:0:0:0:
232,172,48408,1,0,0:0:0:0:
320,152,48642,1,0,0:0:0:0:
408,172,48876,1,0,0:0:0:0:
416,264,49111,1,0,0:0:0:0:
244,272,49580,1,8,0:0:0:0:
64,184,50048,6,0,L|152:156,1,70,0|0,0:0|0:0,0:0:0:0:
130,162,50283,2,0,L|216:136,1,70
197,141,50517,2,0,L|292:112,1,70
264,120,50986,1,0,0:0:0:0:
252,312,51455,5,8,0:0:0:0:
372,172,51923,1,2,0:0:0:0:
216,80,52392,1,4,0:0:0:0:
100,220,52861,2,2,L|184:204,1,70
352,172,53330,6,0,L|320:248,1,70,0|0,0:0|0:0,0:0:0:0:
140,272,53798,1,0,0:0:0:0:
228,292,54033,1,0,0:0:0:0:
252,204,54267,1,0,0:0:0:0:
212,112,54736,6,0,L|304:88,1,70,0|0,0:0|0:0,0:0:0:0:
360,140,55205,1,8,0:0:0:0:
356,232,55439,1,0,0:0:0:0:
280,280,55673,1,0,0:0:0:0:
196,244,55908,2,0,L|120:184,1,70
141,200,56376,2,0,L|80:140,1,70
352,136,56845,6,8,L|256:136,1,70
240,216,57314,1,0,0:0:0:0:
160,168,57548,1,0,0:0:0:0:
176,80,57783,1,0,0:0:0:0:
268,48,58017,1,0,0:0:0:0:
72,300,58251,2,0,L|160:296,1,70
214,307,58720,2,0,L|284:304,2,70,0|8|0,0:0|0:0|0:0,0:0:0:0:
116,212,59540,6,0,L|192:212,2,70,0|0|0,0:0|0:0|0:0,0:0:0:0:
108,116,60126,1,2,0:0:0:0:
212,124,60361,1,2,0:0:0:0:
240,304,60830,6,0,L|328:304,2,70,0|0|0,0:0|0:0|0:0,0:0:0:0:
280,224,61533,1,0,0:0:0:0:
328,148,61767,1,0,0:0:0:0:
412,176,62001,2,0,L|448:104,1,70,0|0,0:0|0:0,0:0:0:0:
344,48,62470,2,8,L|248:84,1,70
168,176,63173,1,4,0:0:0:0:
324,200,63642,5,0,0:0:0:0:
316,120,63876,1,0,0:0:0:0:
244,60,64111,1,0,0:0:0:0:
156,76,64345,1,0,0:0:0:0:
164,268,64580,1,8,0:0:0:0:
256,272,64814,5,0,0:0:0:0:
348,268,65048,1,0,0:0:0:0:
404,196,65283,1,0,0:0:0:0:
300,48,65751,5,0,0:0:0:0:
220,92,65986,1,0,0:0:0:0:
120,148,66220,1,0,0:0:0:0:
304,224,66689,5,2,0:0:0:0:
376,96,67158,1,2,0:0:0:0:
436,268,67626,1,4,0:0:0:0:
232,212,67861,6,0,L|152:196,1,70
184,136,68330,2,8,L|264:96,1,70
328,68,68798,1,0,0:0:0:0:
404,120,69033,1,0,0:0:0:0:
404,228,69267,1,0,0:0:0:0:
356,336,69501,1,0,0:0:0:0:
276,296,69736,6,0,L|216:216,1,70
220,148,70205,2,8,L|312:148,1,70
420,164,70673,1,0,0:0:0:0:
200,220,71142,6,0,L|280:168,1,70
258,181,71611,2,0,L|332:132,1,70,0|0,0:0|0:0,0:0:0:0:
316,142,72080,1,8,0:0:0:0:
76,168,72314,2,0,L|144:96,1,70,0|0,0:0|0:0,0:0:0:0:
140,76,72665,2,0,L|248:76,1,105,0|0,0:0|0:0,0:0:0:0:
336,76,73251,1,0,0:0:0:0:
396,144,73486,1,0,0:0:0:0:
344,216,73720,1,0,0:0:0:0:
256,244,73955,1,8,0:0:0:0:
40,80,74423,6,2,L|136:80,4,70,0|0|0|0|2,0:0|0:0|0:0|0:0|0:0,0:0:0:0:
244,204,75830,2,0,L|328:184,1,70
228,88,76298,1,0,0:0:0:0:
320,88,76533,2,0,L|408:100,1,70
408,188,77001,2,0,L|332:244,1,70
160,236,77470,2,0,L|76:276,3,70,0|8|0|0,0:0|0:0|0:0|0:0,0:0:0:0:
276,164,78408,1,0,0:0:0:0:
388,148,78642,1,0,0:0:0:0:
340,88,78876,1,0,0:0:0:0:
300,292,79111,1,0,0:0:0:0:
252,212,79345,1,0,0:0:0:0:
400,236,79580,1,0,0:0:0:0:
336,172,79814,5,0,0:0:0:0:
268,108,80048,1,0,0:0:0:0:
140,64,80283,1,0,0:0:0:0:
148,284,80751,1,0,0:0:0:0:
196,208,80986,1,0,0:0:0:0:
276,280,81220,1,0,0:0:0:0:
376,200,81455,1,8,0:0:0:0:
60,112,81923,5,0,0:0:0:0:
104,112,82040,1,0,0:0:0:0:
148,112,82158,1,0,0:0:0:0:
192,112,82275,1,0,0:0:0:0:
296,168,82626,5,0,0:0:0:0:
384,188,82861,1,0,0:0:0:0:
428,108,83095,1,0,0:0:0:0:
344,72,83330,1,8,0:0:0:0:
256,192,88486,12,4,90361,0:0:0:0:
