osu file format v12

[General]
AudioFilename: CAPSULE - Pamyu Pamyu Revolution Medley 8 Bit Style.mp3
AudioLeadIn: 0
PreviewTime: 643623
Countdown: 1
SampleSet: Soft
StackLeniency: 0.7
Mode: 0
LetterboxInBreaks: 1
WidescreenStoryboard: 0

[Editor]
Bookmarks: 108394,121635,201084,214325,322231,336453,431563,442931,530421,537171
DistanceSpacing: 1.2
BeatDivisor: 4
GridSize: 4
TimelineZoom: 1

[Metadata]
Title:Pamyu Pamyu Revolution Medley 8bit Style
TitleUnicode:8bit風 きゃりーぱみゅぱみゅメドレー
Artist:Yasutaka Nakata
ArtistUnicode:中田 ヤスタカ
Creator:Backstep
Version:Pamyu Collab
Source:
Tags:Capsule hariboy goishi igarashi tk
BeatmapID:406050
BeatmapSetID:167124

[Difficulty]
HPDrainRate:6
CircleSize:4
OverallDifficulty:8
ApproachRate:8
SliderMultiplier:2
SliderTickRate:1

[Events]
//Background and Video events
0,0,"BG.jpg",0,0
//Break Periods
//Storyboard Layer 0 (Background)
//Storyboard Layer 1 (Fail)
//Storyboard Layer 2 (Pass)
//Storyboard Layer 3 (Foreground)
//Storyboard Sound Samples
//Background Colour Transformations
3,100,163,162,255

[TimingPoints]
8,461.538461538462,4,2,0,20,1,0
36931,441.176470588235,4,2,0,20,1,0
42225,410.958904109589,4,2,0,20,1,0
43868,402.684563758389,4,2,0,20,1,0
56753,400,4,2,0,20,1,0
95153,413.793103448276,4,2,0,20,1,0
265635,422.535211267606,4,2,0,20,1,0
267325,428.571428571429,4,2,0,20,1,0
320467,441.176470588235,4,2,0,20,1,0
322231,444.444444444444,4,2,0,20,1,0
407563,315.789473684211,4,2,0,20,1,0
453035,314.13612565445,4,2,0,20,1,0
463087,306.122448979592,4,2,0,20,1,0
470433,298.507462686567,4,2,0,20,1,0
472821,300,4,2,0,20,1,0
511221,600,4,2,0,20,1,0
530421,375,4,2,0,20,1,0
537171,375,4,2,0,20,1,0
643671,372.670807453416,4,2,0,20,1,0
645161,375,4,2,0,20,1,0
693161,845.070422535211,4,2,0,20,1,0
696541,521.739130434783,3,2,0,20,1,0

[HitObjects]
48,148,8,6,0,L|156:132,1,100
326,177,469,2,0,L|228:192,1,100
384,84,931,1,0,0:0:0:0:
384,280,1161,1,0,0:0:0:0:
384,280,1277,1,0,0:0:0:0:
384,280,1392,1,0,0:0:0:0:
228,192,1623,1,0,0:0:0:0:
460,24,1854,6,0,P|472:76|464:132,1,100,0|0,0:0|0:0,0:0:0:0:
448,176,2200,1,0,0:0:0:0:
468,220,2315,2,0,P|480:272|472:328,1,100,0|0,0:0|0:0,0:0:0:0:
256,316,2777,1,0,0:0:0:0:
256,316,2892,1,0,0:0:0:0:
228,192,3123,1,0,0:0:0:0:
228,192,3238,1,0,0:0:0:0:
384,280,3469,1,0,0:0:0:0:
112,244,3700,5,0,0:0:0:0:
36,148,3931,1,0,0:0:0:0:
36,148,4046,1,0,0:0:0:0:
36,148,4161,1,0,0:0:0:0:
152,88,4392,2,0,P|212:68|272:80,1,100
292,92,4738,1,0,0:0:0:0:
336,120,4854,1,0,0:0:0:0:
376,92,4969,1,0,0:0:0:0:
424,76,5084,2,0,P|476:68|528:80,1,100
320,160,5546,5,0,0:0:0:0:
316,208,5661,1,0,0:0:0:0:
328,256,5777,2,0,B|328:288|348:308|348:308|300:352,1,100
220,368,6238,1,0,0:0:0:0:
220,368,6354,1,0,0:0:0:0:
220,368,6469,1,0,0:0:0:0:
128,332,6700,2,0,P|92:296|32:280,1,100
56,144,7161,1,0,0:0:0:0:
56,144,7392,6,0,L|160:116,1,100
417,135,7854,2,0,L|313:163,1,100
240,220,8315,1,0,0:0:0:0:
240,52,8546,1,0,0:0:0:0:
240,52,8661,1,0,0:0:0:0:
240,52,8777,1,0,0:0:0:0:
376,256,9008,1,0,0:0:0:0:
292,312,9238,6,0,P|240:328|188:312,1,100
32,256,9584,1,0,0:0:0:0:
32,256,9700,2,0,L|132:240,1,100
240,220,10161,1,0,0:0:0:0:
380,348,10392,1,0,0:0:0:0:
324,168,10623,1,0,0:0:0:0:
324,168,10738,1,0,0:0:0:0:
324,168,10854,1,0,0:0:0:0:
200,308,11084,5,0,0:0:0:0:
200,308,11315,1,0,0:0:0:0:
84,144,11546,1,0,0:0:0:0:
84,144,11777,1,0,0:0:0:0:
76,344,12008,1,0,0:0:0:0:
76,344,12238,1,0,0:0:0:0:
200,188,12469,1,0,0:0:0:0:
200,188,12700,1,0,0:0:0:0:
8,240,12931,5,0,0:0:0:0:
8,240,13046,1,0,0:0:0:0:
8,240,13161,2,0,P|-16:192|-24:136,1,100
16,52,13623,1,0,0:0:0:0:
136,40,13854,1,0,0:0:0:0:
320,168,14084,1,0,0:0:0:0:
200,188,14315,1,0,0:0:0:0:
276,280,14546,1,0,0:0:0:0:
276,280,14661,1,0,0:0:0:0:
276,280,14777,6,0,P|336:284|384:268,1,100
436,172,15238,1,0,0:0:0:0:
308,52,15469,1,0,0:0:0:0:
200,188,15700,1,0,0:0:0:0:
380,320,15931,1,0,0:0:0:0:
380,320,16046,1,0,0:0:0:0:
380,320,16161,1,0,0:0:0:0:
320,168,16392,1,0,0:0:0:0:
88,212,16623,5,0,0:0:0:0:
228,316,16854,1,0,0:0:0:0:
228,316,16969,1,0,0:0:0:0:
228,316,17084,1,0,0:0:0:0:
320,168,17315,1,0,0:0:0:0:
176,68,17546,2,0,P|120:60|72:64,1,100
16,288,18008,1,0,0:0:0:0:
16,288,18123,1,0,0:0:0:0:
16,288,18238,1,0,0:0:0:0:
88,212,18469,6,0,B|128:212|128:212|168:204|168:204|224:204,1,100
424,212,18931,2,0,B|384:212|384:212|344:204|344:204|288:204,1,100
248,372,19392,2,0,B|248:332|248:332|256:292|256:292|256:236,1,100
264,12,19854,2,0,B|264:52|264:52|256:92|256:92|256:148,1,100
