osu file format v12

[General]
AudioFilename: Kagamine Rin & Len - Electric Angel.mp3
AudioLeadIn: 0
PreviewTime: 39116
Countdown: 0
SampleSet: Normal
StackLeniency: 0.7
Mode: 0
LetterboxInBreaks: 1
WidescreenStoryboard: 1

[Editor]
DistanceSpacing: 0.8
BeatDivisor: 4
GridSize: 8
TimelineZoom: 1

[Metadata]
Title:Electric Angel
TitleUnicode:Electric Angel
Artist:Yasuo - P
ArtistUnicode:Yasuo - P
Creator:- Ruby Rose -
Version:Hard
Source:
Tags:Kagamine Rin & Len
BeatmapID:367056
BeatmapSetID:148413

[Difficulty]
HPDrainRate:6
CircleSize:4
OverallDifficulty:6
ApproachRate:7
SliderMultiplier:1.5
SliderTickRate:2

[Events]
//Background and Video events
Video,0,"2.avi"
0,0,"Kagamine.Mirrors.full.1500718.jpg",0,0
//Break Periods
2,52416,64116
2,116416,128116
//Storyboard Layer 0 (Background)
//Storyboard Layer 1 (Fail)
//Storyboard Layer 2 (Pass)
//Storyboard Layer 3 (Foreground)
//Storyboard Sound Samples
//Background Colour Transformations
3,100,163,162,255

[TimingPoints]
1016.30395057355,400,4,1,0,70,1,0
39416,-100,4,1,0,90,0,1
52216,-100,4,1,0,70,0,0
90616,-100,4,1,0,90,0,1
116216,-100,4,1,0,90,0,0
141816,-200,4,1,0,100,0,0
149816,-100,4,1,0,90,0,1
168216,-200,4,1,0,90,0,1
169016,-100,4,1,0,90,0,0

[HitObjects]
88,96,13816,6,0,B|88:176|88:176|144:232,1,150
216,224,14416,1,0,0:0:0:0:
296,224,14616,2,0,B|345:174|345:174|345:94,1,150
424,96,15216,1,0,0:0:0:0:
496,160,15416,6,0,L|496:240,1,75
424,192,15816,2,0,L|424:272,1,75
384,344,16216,2,0,B|312:328|312:328|224:344,1,150
168,288,16816,1,0,0:0:0:0:
112,224,17016,2,0,B|112:136|112:136|152:80,1,150
208,24,17616,1,0,0:0:0:0:
264,88,17816,2,0,B|300:138|300:138|300:226,1,150
208,224,18416,1,0,0:0:0:0:
300,227,18616,6,0,B|345:227|345:227|367:203,1,75
436,269,19016,1,0,0:0:0:0:
364,327,19216,6,0,B|343:304|343:304|298:304,1,75
192,304,19616,1,0,0:0:0:0:
104,304,19816,1,0,0:0:0:0:
80,160,20216,6,0,B|120:120|120:120|224:120,1,150
304,120,20816,1,0,0:0:0:0:
288,192,21016,2,0,B|248:232|248:232|154:232,1,150
64,232,21616,1,0,0:0:0:0:
120,312,21816,2,0,P|176:320|208:312,1,75
264,296,22216,2,0,P|296:280|328:248,1,75
320,160,22616,1,0,0:0:0:0:
320,160,22816,1,0,0:0:0:0:
320,72,23016,2,0,B|272:32|272:32|232:32,1,75
176,32,23416,6,0,L|176:112,1,75
176,192,23816,1,0,0:0:0:0:
176,192,24016,1,0,0:0:0:0:
248,248,24216,2,0,L|312:304,1,75
392,336,24616,1,0,0:0:0:0:
376,256,24816,1,0,0:0:0:0:
456,264,25016,6,0,B|456:152|456:152|416:104,1,150
376,64,25616,1,0,0:0:0:0:
296,64,25816,2,0,B|224:112|224:56|184:16|144:56|136:112|72:48,1,225
88,64,26616,6,0,L|88:216,1,150,4|0,0:0|0:0,0:0:0:0:
160,273,27216,1,0,0:0:0:0:
160,272,27416,2,0,L|160:120,1,150
240,128,28016,1,0,0:0:0:0:
315,131,28216,5,0,0:0:0:0:
376,200,28416,1,0,0:0:0:0:
315,268,28616,1,0,0:0:0:0:
256,200,28816,1,0,0:0:0:0:
192,264,29016,2,0,P|144:312|72:312,1,112.5
72,320,29416,2,0,L|72:240,1,75
72,168,29816,6,0,B|72:104|72:104|115:71,1,112.5
145,75,30216,1,0,0:0:0:0:
236,76,30416,1,0,0:0:0:0:
327,76,30616,2,0,L|327:152,1,75
399,74,31016,2,0,L|474:74,1,75
405,155,31416,5,0,0:0:0:0:
464,200,31616,1,0,0:0:0:0:
440,271,31816,1,0,0:0:0:0:
365,268,32016,1,0,0:0:0:0:
343,199,32216,2,0,B|343:167|343:167|311:167|311:167|311:135|311:135|279:135|279:135|279:103,1,150
225,265,33016,6,0,P|188:303|154:303,1,75
100,304,33416,2,0,P|65:294|44:264,1,75
136,192,33816,1,0,0:0:0:0:
136,40,34216,1,0,0:0:0:0:
248,120,34616,5,0,0:0:0:0:
336,120,34816,1,0,0:0:0:0:
384,192,35016,1,0,0:0:0:0:
432,120,35216,1,0,0:0:0:0:
480,193,35416,1,0,0:0:0:0:
432,264,35616,1,0,0:0:0:0:
336,264,35816,1,0,0:0:0:0:
296,192,36016,1,0,0:0:0:0:
240,120,36216,5,0,0:0:0:0:
184,48,36416,1,0,0:0:0:0:
88,48,36616,2,0,B|104:96|104:96|104:128,1,75
104,216,37016,2,0,L|144:216,2,37.5
104,312,37416,1,0,0:0:0:0:
256,192,37816,12,0,38616,0:0:0:0:
368,288,39016,5,0,0:0:0:0:
416,216,39216,1,0,0:0:0:0:
368,144,39416,6,0,B|344:64|344:64|315:55,1,112.5,4|0,0:0|0:0,0:0:0:0:
317,56,39816,1,0,0:0:0:0:
208,56,40016,2,0,L|208:136,1,75
208,208,40416,1,0,0:0:0:0:
136,176,40616,2,0,P|128:136|144:88,1,75
206,56,41016,5,0,0:0:0:0:
304,56,41216,1,0,0:0:0:0:
334,148,41416,1,0,0:0:0:0:
255,206,41616,1,0,0:0:0:0:
176,148,41816,1,0,0:0:0:0:
32,232,42216,2,0,B|48:288|48:288|88:288,1,75
144,288,42616,6,0,L|256:288,1,112.5
288,288,43016,1,0,0:0:0:0:
384,288,43216,1,0,0:0:0:0:
480,288,43416,2,0,B|480:240|480:240|464:208,1,75
384,216,43816,2,0,B|336:216|336:216|304:192,1,75
238,198,44216,5,0,0:0:0:0:
269,106,44416,1,0,0:0:0:0:
192,48,44616,1,0,0:0:0:0:
112,103,44816,1,0,0:0:0:0:
140,197,45016,1,0,0:0:0:0:
32,288,45416,2,0,B|72:336|72:336|120:336,1,75
160,336,45816,6,0,P|240:344|312:336,1,150
352,256,46416,1,0,0:0:0:0:
432,304,46616,2,0,P|448:224|432:200,1,112.5
434,203,47016,1,0,0:0:0:0:
326,203,47216,1,0,0:0:0:0:
288,88,47416,5,0,0:0:0:0:
250,203,47616,1,0,0:0:0:0:
348,132,47816,1,0,0:0:0:0:
227,132,48016,1,0,0:0:0:0:
325,203,48216,1,0,0:0:0:0:
328,336,48616,2,0,L|240:336,1,75
160,312,49016,6,0,P|104:272|80:240,1,75
48,192,49416,1,0,0:0:0:0:
48,96,49616,1,0,0:0:0:0:
144,96,49816,2,0,P|192:152|224:224,1,150
272,304,50416,1,0,0:0:0:0:
272,304,50516,1,0,0:0:0:0:
272,304,50616,5,0,0:0:0:0:
436,192,51016,1,0,0:0:0:0:
272,80,51416,1,0,0:0:0:0:
320,192,51816,1,0,0:0:0:0:
320,192,52016,1,0,0:0:0:0:
320,192,52216,1,4,0:0:0:0:
376,80,65016,5,0,0:0:0:0:
448,152,65416,2,0,P|464:192|440:224,1,75
448,296,65816,1,0,0:0:0:0:
352,256,66216,2,0,B|320:224|320:224|320:192,1,75
232,192,66616,5,0,0:0:0:0:
142,192,66816,1,0,0:0:0:0:
187,269,67016,1,0,0:0:0:0:
232,192,67216,1,0,0:0:0:0:
272,112,67416,2,0,P|200:72|144:80,1,112.5
172,73,67816,1,0,0:0:0:0:
94,97,68016,1,0,0:0:0:0:
48,168,68216,6,0,B|48:230|48:230|98:314,1,150
173,308,68816,1,0,0:0:0:0:
256,304,69016,2,0,P|336:336|376:336,1,112.5
392,336,69416,1,0,0:0:0:0:
440,256,69616,1,0,0:0:0:0:
388,185,69816,5,0,0:0:0:0:
432,112,70016,1,0,0:0:0:0:
391,40,70216,1,0,0:0:0:0:
308,41,70416,1,0,0:0:0:0:
268,113,70616,1,0,0:0:0:0:
308,183,70816,1,0,0:0:0:0:
232,184,71016,2,0,B|224:192|224:192|208:184|208:184|200:192|200:192|192:184|192:184|184:192|184:192|176:184|176:184|168:192|168:192|160:184,1,75
112,128,71416,6,0,P|80:192|120:264,1,150
192,264,72016,1,0,0:0:0:0:
264,328,72216,1,0,0:0:0:0:
336,264,72416,1,0,0:0:0:0:
408,328,72616,1,0,0:0:0:0:
480,264,72816,1,0,0:0:0:0:
408,192,73016,6,0,L|408:112,1,75
384,48,73416,2,0,B|352:64|352:64|328:120,1,75
272,176,73816,2,0,P|192:184|136:168,1,112.5
136,160,74216,1,0,0:0:0:0:
96,72,74416,1,0,0:0:0:0:
184,72,74616,6,0,P|272:48|328:88,1,150
360,152,75216,1,0,0:0:0:0:
416,224,75416,2,0,L|448:256,2,37.5
312,224,75816,1,0,0:0:0:0:
312,312,76016,1,0,0:0:0:0:
224,312,76216,6,0,L|224:232,1,75
136,272,76616,2,0,L|136:192,1,75
136,112,77016,2,0,B|176:32|192:120|240:304|304:120|320:32|352:120,1,300,0|4,0:0|0:0,0:0:0:0:
472,192,78216,5,0,0:0:0:0:
384,312,78616,1,0,0:0:0:0:
232,312,79016,2,0,B|184:312|184:312|160:288,1,75
216,224,79416,6,0,B|184:200|184:200|144:200,1,75
60,244,79816,1,0,0:0:0:0:
42,147,80016,1,0,0:0:0:0:
88,48,80216,2,0,L|32:48,2,37.5
193,76,80616,1,0,0:0:0:0:
280,144,80816,1,0,0:0:0:0:
392,144,81016,6,0,P|440:208|448:280,1,150
360,320,81616,1,0,0:0:0:0:
336,232,81816,2,0,P|288:208|256:208,1,75
176,208,82216,1,0,0:0:0:0:
176,304,82416,1,0,0:0:0:0:
64,288,82616,6,0,B|32:248|32:248|48:224,1,75
104,160,83016,2,0,B|117:140|117:140|85:100,1,75
192,104,83416,2,0,B|216:120|216:120|236:104|236:104|256:120|256:120|280:104,1,75
320,48,83816,1,0,0:0:0:0:
416,104,84016,1,0,0:0:0:0:
446,200,84216,6,0,P|478:272|443:333,1,150
339,339,84816,1,0,0:0:0:0:
240,288,85016,2,0,P|280:224|232:192,1,112.5
240,192,85416,2,0,P|239:150|239:89,1,75
320,104,85816,5,0,0:0:0:0:
408,104,86016,1,0,0:0:0:0:
408,192,86216,1,0,0:0:0:0:
320,192,86416,1,0,0:0:0:0:
232,104,86616,1,0,0:0:0:0:
144,104,86816,1,0,0:0:0:0:
144,192,87016,1,0,0:0:0:0:
232,192,87216,1,0,0:0:0:0:
312,256,87416,6,0,B|360:240|360:240|392:256,1,75
352,336,87816,2,0,B|330:346|330:346|282:330,1,75
176,296,88216,1,0,0:0:0:0:
136,296,88316,1,0,0:0:0:0:
88,296,88416,1,0,0:0:0:0:
48,192,88616,1,0,0:0:0:0:
256,192,89016,12,0,89816,0:0:0:0:
313,80,90216,6,0,B|344:80|344:80|344:96|344:96|360:96|360:96|360:112|360:112|376:112|376:112|376:128|376:128|435:128,1,150
501,171,90816,1,0,0:0:0:0:
448,248,91016,2,0,P|424:304|344:338,1,150
256,336,91616,1,0,0:0:0:0:
168,336,91816,2,0,P|136:304|136:272,1,75
136,168,92216,5,0,0:0:0:0:
72,112,92416,1,0,0:0:0:0:
136,56,92616,1,0,0:0:0:0:
200,112,92816,1,0,0:0:0:0:
288,112,93016,1,0,0:0:0:0:
448,112,93416,2,0,B|480:168|480:168|480:192,1,75
480,264,93816,6,0,B|480:274|480:274|448:330,1,75,0|0,0:0|0:0,0:0:0:0:
345,264,94216,2,0,B|405:216|424:154|357:141,1,150
272,160,94816,1,0,0:0:0:0:
200,265,95016,2,0,B|168:208|132:189|202:150,1,112.5
176,169,95416,1,0,0:0:0:0:
272,160,95616,5,0,0:0:0:0:
344,96,95816,1,0,0:0:0:0:
272,40,96016,1,0,0:0:0:0:
200,96,96216,1,0,0:0:0:0:
272,248,96616,2,0,B|272:296|272:296|256:320,1,75
168,320,97016,6,0,B|153:297|153:297|152:208,1,112.5
152,212,97416,1,0,0:0:0:0:
81,130,97616,1,0,0:0:0:0:
152,48,97816,2,0,P|240:32|320:56,1,150
376,104,98416,1,0,0:0:0:0:
338,177,98616,6,0,P|376:184|416:176,2,75
256,104,99216,1,0,0:0:0:0:
256,208,99416,2,0,L|256:288,1,75
168,296,99816,2,0,B|112:280|112:280|104:272|104:272|104:240,1,75
128,152,100216,5,0,0:0:0:0:
128,56,100416,1,0,0:0:0:0:
224,56,100616,2,0,P|272:50|316:65,1,75
312,183,101016,2,0,B|291:211|267:219|267:219|291:227|323:259,1,112.5
312,248,101416,1,0,0:0:0:0:
416,272,101616,1,0,0:0:0:0:
416,152,101816,5,0,0:0:0:0:
280,48,102216,1,0,0:0:0:0:
144,152,102616,1,0,0:0:0:0:
144,152,102716,1,0,0:0:0:0:
144,152,102816,1,0,0:0:0:0:
144,248,103016,2,0,B|176:240|192:256|192:256|216:240|232:256|232:256|256:240|288:216,1,150
440,208,103816,5,0,0:0:0:0:
440,208,103916,1,0,0:0:0:0:
440,208,104016,1,0,0:0:0:0:
376,120,104216,1,0,0:0:0:0:
284,68,104416,1,0,0:0:0:0:
280,168,104616,2,0,P|240:200|208:200,1,75
86,204,105016,5,0,0:0:0:0:
56,112,105216,1,0,0:0:0:0:
134,54,105416,1,0,0:0:0:0:
213,111,105616,1,0,0:0:0:0:
184,208,105816,2,0,B|240:264|240:264|264:240|264:240|288:264|288:264|360:192,1,225
432,208,106616,5,0,0:0:0:0:
360,64,107016,1,0,0:0:0:0:
290,106,107216,2,0,B|258:130|258:130|146:130,1,150
56,136,107816,2,0,B|48:152|48:152|64:160|64:160|48:168|48:168|64:176|64:176|48:184|48:184|64:192|64:192|48:200|48:200|64:208|64:208|48:216,1,150
56,296,108416,5,0,0:0:0:0:
144,344,108616,1,0,0:0:0:0:
232,296,108816,1,0,0:0:0:0:
336,296,109016,2,0,L|376:296,2,37.5
336,192,109416,2,0,P|352:144|320:96,1,112.5
288,80,109816,1,0,0:0:0:0:
136,80,110216,5,0,0:0:0:0:
136,216,110616,1,0,0:0:0:0:
152,248,110716,1,0,0:0:0:0:
184,272,110816,1,0,0:0:0:0:
280,272,111016,2,0,B|320:304|320:304|352:280|428:280,1,150
408,88,111816,5,0,0:0:0:0:
296,88,112216,2,0,B|256:64|256:64|232:96|232:96|192:96,1,112.5
176,112,112616,1,0,0:0:0:0:
152,136,112716,1,0,0:0:0:0:
136,168,112816,1,0,0:0:0:0:
128,200,112916,1,0,0:0:0:0:
128,240,113016,6,0,L|208:240,1,75
168,328,113416,2,0,B|184:320|184:320|192:336|192:336|200:320|200:320|208:336|208:336|224:328|224:328|240:320|240:320|248:336|248:336|256:320|256:320|256:328,1,150
352,328,114016,1,0,0:0:0:0:
440,280,114216,2,0,L|440:200,1,75
440,94,114616,6,0,L|408:54,3,37.5
368,64,115016,6,0,L|344:104,3,37.5
296,96,115416,6,0,L|272:64,3,37.5
224,64,115816,6,0,L|200:112,3,37.5
224,64,116216,5,4,0:0:0:0:
368,88,129016,5,0,0:0:0:0:
376,272,129816,1,0,0:0:0:0:
136,272,130416,5,0,0:0:0:0:
136,176,130616,1,0,0:0:0:0:
208,40,131216,5,0,0:0:0:0:
368,40,131616,2,0,B|424:64|424:64|392:112|440:144|440:144|432:168,1,150
440,240,132216,5,0,0:0:0:0:
304,304,132416,1,0,0:0:0:0:
304,304,132516,1,0,0:0:0:0:
304,304,132616,1,0,0:0:0:0:
176,256,132816,1,0,0:0:0:0:
176,256,132916,1,0,0:0:0:0:
176,256,133016,1,0,0:0:0:0:
72,160,133216,2,0,B|80:160|80:160|104:144|72:120|72:120|96:96,1,75
184,64,133616,5,0,0:0:0:0:
280,64,133816,1,0,0:0:0:0:
416,168,134416,2,0,B|416:216|416:256|416:256|360:232|312:296,1,187.5
326,280,135016,1,0,0:0:0:0:
216,120,135416,5,0,0:0:0:0:
136,272,136216,1,0,0:0:0:0:
376,272,136816,5,0,0:0:0:0:
376,272,137016,1,0,0:0:0:0:
304,40,137616,5,0,0:0:0:0:
144,40,138016,2,0,B|88:64|88:64|120:112|72:144|72:144|80:168,1,150
76,140,138616,1,0,0:0:0:0:
152,264,138816,5,0,0:0:0:0:
168,264,138916,1,0,0:0:0:0:
184,264,139016,1,0,0:0:0:0:
200,264,139116,1,0,0:0:0:0:
216,264,139216,1,0,0:0:0:0:
328,232,139416,2,0,L|328:312,1,75
408,264,139816,2,0,L|408:184,1,75
472,120,140216,6,0,B|456:112|456:112|392:112,1,75,0|0,0:0|0:0,0:0:0:0:
320,72,140616,2,0,B|304:64|304:64|240:64,1,75
272,144,141016,2,0,B|256:152|256:152|198:152,1,75
128,208,141416,2,0,B|112:184|112:184|112:112,1,75
168,56,141816,6,0,B|56:40|40:128|40:128|40:256,1,262.5
40,304,143416,5,2,0:0:0:0:
256,304,144216,1,2,0:0:0:0:
424,192,144816,1,2,0:0:0:0:
424,104,145016,5,2,0:0:0:0:
256,56,145416,1,2,0:0:0:0:
88,104,145816,1,2,0:0:0:0:
80,280,146416,1,2,0:0:0:0:
168,280,146616,5,2,0:0:0:0:
360,280,147416,1,0,0:0:0:0:
256,192,148216,5,0,0:0:0:0:
177,134,148416,1,0,0:0:0:0:
207,41,148616,1,0,0:0:0:0:
304,41,148816,1,0,0:0:0:0:
334,134,149016,1,0,0:0:0:0:
256,304,149416,1,0,0:0:0:0:
96,240,149816,6,0,B|120:200|120:200|80:160|120:112,1,112.5
104,104,150216,1,0,0:0:0:0:
192,56,150416,1,0,0:0:0:0:
288,56,150616,2,0,B|336:40|336:40|376:64,1,75
408,128,151016,2,0,P|416:176|408:216,1,75
344,264,151416,5,0,0:0:0:0:
279,226,151616,1,0,0:0:0:0:
279,301,151816,1,0,0:0:0:0:
344,264,152016,1,0,0:0:0:0:
343,190,152216,1,0,0:0:0:0:
260,52,152616,2,0,B|249:80|249:80|220:61|220:61|196:79,1,75
128,112,153016,6,0,L|128:191,1,75
208,192,153416,2,0,L|208:272,1,75
304,192,153816,2,0,L|360:136,1,75
432,139,154216,1,0,0:0:0:0:
432,240,154416,1,0,0:0:0:0:
368,312,154616,5,0,0:0:0:0:
208,312,155016,1,0,0:0:0:0:
72,256,155416,1,0,0:0:0:0:
48,224,155516,1,0,0:0:0:0:
56,184,155616,1,0,0:0:0:0:
56,96,155816,2,0,P|96:64|128:64,1,75
208,64,156216,5,4,0:0:0:0:
304,64,156416,1,0,0:0:0:0:
400,136,156616,2,0,P|416:104|400:72,1,75
305,142,157016,1,0,0:0:0:0:
209,142,157216,1,0,0:0:0:0:
126,142,157416,2,0,P|89:149|64:176,1,75
80,264,157816,5,0,0:0:0:0:
168,304,158016,1,0,0:0:0:0:
256,336,158216,1,0,0:0:0:0:
344,304,158416,1,0,0:0:0:0:
432,264,158616,1,0,0:0:0:0:
256,232,159016,2,0,L|256:152,1,75
256,80,159416,6,0,B|296:72|296:72|336:112,1,75
256,80,159816,2,0,B|216:72|216:72|176:112,1,75
152,176,160216,2,0,B|152:272|152:272|168:288,1,112.5
192,304,160616,1,0,0:0:0:0:
288,304,160816,1,0,0:0:0:0:
384,304,161016,5,0,0:0:0:0:
361,233,161216,1,0,0:0:0:0:
422,188,161416,1,0,0:0:0:0:
483,233,161616,1,0,0:0:0:0:
459,304,161816,2,0,L|368:192,1,112.5
390,216,162216,1,0,0:0:0:0:
296,120,162416,1,0,0:0:0:0:
208,144,162616,6,0,B|176:168|176:168|176:208,1,75
208,96,163016,2,0,B|176:72|176:72|176:32,1,75
304,48,163416,2,0,P|384:104|392:157,1,150
392,240,164016,1,0,0:0:0:0:
392,336,164216,6,0,L|312:336,1,75
224,336,164616,2,0,B|176:336|176:336|152:312,1,75
96,232,165016,1,0,0:0:0:0:
184,232,165216,1,0,0:0:0:0:
272,232,165416,1,0,0:0:0:0:
272,144,165616,1,0,0:0:0:0:
272,56,165816,6,0,P|224:40|208:56,1,75
224,136,166216,2,0,P|232:176|264:192,1,75
328,136,166616,2,0,P|360:112|368:80,1,75
272,56,167016,2,0,P|224:40|208:56,1,75
64,128,167416,1,0,0:0:0:0:
88,320,167816,1,0,0:0:0:0:
200,192,168216,6,0,P|264:208|311:189,1,112.5
399,192,169016,1,4,0:0:0:0:
