osu file format v14

[General]
AudioFilename: 02 Chrono Trigger.mp3
AudioLeadIn: 0
PreviewTime: 15725
Countdown: 0
SampleSet: Normal
StackLeniency: 0.7
Mode: 0
LetterboxInBreaks: 1
WidescreenStoryboard: 1

[Editor]
Bookmarks: -14,8408,9446,10600,21708,82519,99908,41454
DistanceSpacing: 0.8
BeatDivisor: 4
GridSize: 4
TimelineZoom: 1.4

[Metadata]
Title:Chrono Trigger
TitleUnicode:Chrono Trigger
Artist:Yasunori Mitsuda
ArtistUnicode:Yasunori Mitsuda
Creator:GlitchedCode
Version:Easy
Source:Chrono Trigger
Tags:chrono trigger square snes
BeatmapID:724283
BeatmapSetID:326146

[Difficulty]
HPDrainRate:2
CircleSize:3
OverallDifficulty:2
ApproachRate:2
SliderMultiplier:0.8
SliderTickRate:1

[Events]
//Background and Video events
0,0,"203297.jpg",0,0
//Break Periods
2,59146,71579
2,93531,97309
//Storyboard Layer 0 (Background)
//Storyboard Layer 1 (Fail)
//Storyboard Layer 2 (Pass)
//Storyboard Layer 3 (Foreground)
//Storyboard Sound Samples

[TimingPoints]
6562.27512318578,461.538461538462,4,1,0,100,1,0

[Colours]
Combo1 : 128,0,255
Combo2 : 0,0,64
Combo3 : 0,0,255
Combo4 : 0,255,255

[HitObjects]
256,192,1023,12,0,2639,0:0:0:0:
256,192,2869,5,0,0:0:0:0:
388,248,3793,1,0,0:0:0:0:
388,136,4716,1,0,0:0:0:0:
292,52,5639,1,0,0:0:0:0:
164,68,6562,2,0,P|92:92|64:136,2,120
220,100,8408,2,0,P|272:64|336:80,1,120
344,232,10254,5,0,0:0:0:0:
216,240,11177,1,0,0:0:0:0:
344,244,12100,1,0,0:0:0:0:
464,204,13023,2,0,P|436:312|412:324,1,140
256,192,13946,12,0,15100,0:0:0:0:
96,64,15793,5,0,0:0:0:0:
228,88,16716,2,0,L|280:128,2,60
132,176,18331,1,0,0:0:0:0:
268,260,19485,5,0,0:0:0:0:
344,204,20177,2,0,P|416:140|484:180,1,180
404,232,21908,1,0,0:0:0:0:
280,304,22946,6,0,P|160:224|156:216,1,160
268,208,24677,2,0,P|392:188|356:120,1,240
252,120,26869,2,0,L|180:108,1,60
128,64,27793,2,0,P|56:96|16:244,1,240
176,256,30331,6,0,P|256:232|256:196,1,120
296,156,31485,2,0,P|360:112|376:136,1,120
372,256,33100,2,0,L|140:136,1,260
84,196,35177,1,0,0:0:0:0:
204,236,36100,2,0,L|328:188,1,120
300,48,37831,5,0,0:0:0:0:
152,116,38869,2,0,L|196:188,1,80
252,216,39793,1,0,0:0:0:0:
380,220,40716,1,0,0:0:0:0:
288,124,41639,6,0,L|196:116,1,80
100,188,43023,6,0,L|192:248,1,100
404,200,45216,1,0,0:0:0:0:
268,252,46254,1,0,0:0:0:0:
172,236,46946,1,0,0:0:0:0:
32,104,48331,2,0,P|136:72|208:100,1,180
216,156,49831,2,0,P|288:200|384:152,1,200
236,288,52485,1,0,0:0:0:0:
388,232,53639,1,0,0:0:0:0:
164,208,55254,1,0,0:0:0:0:
304,132,56408,2,0,B|356:76|448:192|380:260|244:224|212:128|204:144,1,300
108,152,58946,1,0,0:0:0:0:
256,192,73139,12,0,73946,0:0:0:0:
256,192,74062,12,0,76023,0:0:0:0:
248,192,76716,5,0,0:0:0:0:
128,224,77639,1,0,0:0:0:0:
180,108,78562,1,0,0:0:0:0:
268,76,79254,2,0,P|364:76|456:172,1,220
268,312,82254,6,0,P|156:312|108:264,1,180
104,156,84100,1,0,0:0:0:0:
220,104,85023,1,0,0:0:0:0:
348,108,85946,2,0,P|444:120|484:216,2,200
324,168,88716,1,0,0:0:0:0:
260,280,89639,6,0,P|112:256|112:180,1,240
256,72,92408,1,0,0:0:0:0:
216,192,93331,1,0,0:0:0:0:
96,180,98869,6,0,P|160:108|232:136,1,180
340,140,100716,6,0,P|424:152|452:216,1,160
340,236,102446,1,0,0:0:0:0:
196,256,103485,1,0,0:0:0:0:
68,256,104408,2,0,P|16:180|44:148,1,140
116,76,106023,2,0,P|220:56|336:120,1,240
256,192,108331,12,0,113177,0:0:0:0:
92,88,114677,5,0,0:0:0:0:
120,196,115485,1,0,0:0:0:0:
168,196,115831,1,0,0:0:0:0:
216,184,116177,1,0,0:0:0:0:
252,140,116523,5,0,0:0:0:0:
296,124,116870,1,0,0:0:0:0:
344,112,117216,1,0,0:0:0:0:
