osu file format v9

[General]
AudioFilename: Kill Me Baby ED ( ) 720p.mp3
AudioLeadIn: 2000
PreviewTime: 60520
Countdown: 0
SampleSet: Soft
StackLeniency: 0.7
Mode: 0
LetterboxInBreaks: 0

[Editor]
Bookmarks: 76883
DistanceSpacing: 1
BeatDivisor: 4
GridSize: 8

[Metadata]
Title:Futari no Kimochi no Honto no Himitsu (TV Size)
Artist:Yasuna to Sonya
Creator:Nymph
Version:BakaHard
Source:Baby, please kill me.
Tags:J.C.STAFF Tamura Mutsumi Akasaki Chinatsu Manga Time kirara Carat No_Gu BakaHuang fanzhen0019

[Difficulty]
HPDrainRate:6
CircleSize:4
OverallDifficulty:5
ApproachRate:7
SliderMultiplier:1.6
SliderTickRate:2

[Events]
//Background and Video events
Video,0,"ed.flv"
0,0,"11111.jpg"
//Break Periods
//Storyboard Layer 0 (Background)
//Storyboard Layer 1 (Fail)
//Storyboard Layer 2 (Pass)
//Storyboard Layer 3 (Foreground)
//Storyboard Sound Samples
//Background Colour Transformations
3,100,163,162,255

[TimingPoints]
530,454.545454545455,4,2,1,70,1,0
45984,-200,4,2,1,70,0,0
47802,-100,4,2,1,70,0,0
49620,-200,4,2,1,70,0,0
51439,-100,4,2,1,70,0,0
53257,-200,4,2,1,70,0,0
57348,-100,4,2,1,70,0,0
85757,-100,4,2,1,15,0,0
87120,-100,4,2,1,5,0,0

[HitObjects]
256,192,530,1,0
296,122,757,1,0
366,162,984,1,0
326,232,1211,1,0
256,192,1439,1,0
216,122,1666,1,0
146,162,1893,1,0
186,232,2120,1,0
256,272,2348,6,0,B|256:360,1,80
184,312,2802,2,0,B|184:232,1,80
328,232,3257,2,0,B|328:312,1,80
256,352,3711,2,0,B|256:272,1,80
256,192,4166,5,4
256,32,4620,1,8
256,32,5075,2,0,B|160:32,2,80,0|0|8
256,112,5757,2,0,B|424:112,1,160,0|0
416,112,6439,1,8
440,192,6666,1,0
416,272,6893,2,0,B|256:272,1,160,0|8
232,200,7575,1,0
232,200,7689,1,0
232,200,7802,6,0,B|184:160|112:176|96:240,1,160,4|8
99,229,8484,1,0
176,264,8711,1,0
176,264,8825,1,0
176,264,8939,1,0
248,304,9166,1,8
248,304,9393,6,0,B|235:357|163:373|115:333,1,160,2|0
40,328,10075,2,0,B|40:280|80:264,1,80,8|0
128,200,10530,2,0,B|200:144|184:48,1,160,0|8
256,24,11211,1,0
326,58,11439,6,0,B|312:144|384:200,1,160,4|8
464,216,12120,1,0
440,136,12348,2,0,B|400:112|408:64,1,80,0|2
488,72,12802,1,8
440,136,13030,6,0,B|384:144|360:224|400:272,1,160,2|2
336,320,13711,1,8
256,304,13939,1,0
176,320,14166,1,8
96,344,14393,2,0,B|48:336|40:288,2,80,0|8|8
117,264,15075,6,0,B|152:224|128:144|72:136,2,160,2|8|0
48,216,16211,1,0
48,216,16439,1,8
72,136,16666,2,0,B|112:112|104:64,2,80,0|8|0
128,199,17348,2,0,B|200:144|185:58,1,160,2|8
256,24,18030,1,0
256,24,18143,1,0
256,24,18257,1,8
256,104,18484,1,8
328,64,18711,6,0,B|344:112|328:144,1,80,2|0
280,200,19166,2,0,B|328:120|416:112,1,160,8|0
416,192,19848,2,0,B|368:200|352:240,1,80,0|8
320,312,20302,2,0,B|280:312|256:352|256:352|232:312|184:312,1,160
158,236,20984,2,0,B|144:200|96:192,1,80,8|0
104,112,21439,2,0,B|184:120|232:200,1,160,0|8
256,272,22120,1,0
336,272,22348,6,0,B|424:272,1,80,0|0
432,192,22802,2,0,B|384:192|360:144|384:88|432:88,1,160,8|2
496,136,23484,1,0
504,56,23711,1,8
432,16,23939,2,0,B|250:15,1,160,2|2
256,96,24620,2,0,B|176:96,2,80,8|8|4
256,272,25530,1,8
176,272,25757,1,0
176,272,25984,6,0,B|88:272,1,80,2|0
80,192,26439,2,0,B|128:192|152:144|128:88|80:88,1,160,8|8
16,136,27120,1,0
8,56,27348,1,8
80,16,27575,1,0
160,16,27802,2,0,B|248:16,1,80,2|0
256,96,28257,2,0,B|336:96,2,80,2|0|2
256,96,28939,1,0
256,176,29166,2,0,B|200:176,2,40
336,176,29620,6,0,B|416:176,1,80,4|0
384,248,30075,2,0,B|472:264,1,80,8|0
408,328,30530,2,0,B|496:360,2,80,8|0|8
328,312,31211,1,0
328,312,31439,5,2
256,272,31666,1,0
184,312,31893,1,2
104,328,32120,2,0,B|16:360,2,80,0|2|0
128,248,32802,2,0,B|40:264,1,80,2|0
72,184,33257,6,0,B|24:184|0:136|24:80|72:80,1,160,2|8
152,80,33939,1,0
216,128,34166,2,0,B|256:144|296:128,1,80,8|0
256,56,34620,2,8,B|296:40|336:56,1,80,8|0
334,55,35075,5,2
408,32,35302,1,0
456,96,35530,1,2
408,160,35757,1,0
336,136,35984,1,0
336,176,36098,1,0
352,216,36211,1,0
384,232,36325,1,0
424,240,36439,2,0,B|440:280|424:320,1,80,2|0
360,360,36893,6,0,B|344:320|296:320,1,80,2|0
215,320,37348,2,0,B|168:320|152:360,1,80,2|0
87,318,37802,2,0,B|72:280|88:240,1,80,2|0
24,192,38257,1,8
24,192,38484,1,0
88,240,38711,6,0,B|136:240|160:192|136:136|88:136,1,160,2|2
16,112,39393,1,0
80,64,39620,1,2
160,64,39848,2,0,B|152:24,2,40,0|0|2
160,64,40302,1,0
224,16,40529,6,0,B|248:56|232:96,1,80,2|0
288,144,40984,2,0,B|320:112|312:56,1,80,2|0
313,70,41439,1,2
432,136,41666,1,0
376,24,41893,1,2
352,144,42120,1,0
448,56,42348,6,8,B|504:64|528:112|520:160|496:184,1,160,2|8
472,256,43029,1,0
416,200,43257,1,0
400,232,43370,1,0
400,272,43484,1,0
416,304,43598,1,0
448,328,43711,1,2
328,224,44166,6,0,B|312:280|336:344|376:368,2,160,8|8|8
256,80,45529,1,2
184,224,45984,6,0,B|200:280|176:344|136:368,2,160,4|0|0
256,192,48029,12,0,49166
328,224,49620,6,0,B|312:280|336:344|376:368,2,160
256,192,51666,12,0,52802
184,192,53257,6,0,B|184:128|256:56|328:128|328:192,2,240
256,232,56439,2,0,B|256:344,2,80
256,192,57575,12,0,60075
336,208,60529,6,0,B|416:208,1,80,4|0
384,136,60984,2,0,B|472:120,1,80,8|0
408,56,61439,2,0,B|496:24,2,80,8|0|8
328,72,62120,1,0
328,72,62348,5,2
256,112,62575,1,0
184,72,62802,1,2
104,56,63029,2,0,B|16:24,2,80,0|2|0
128,136,63711,2,0,B|40:120,1,80,2|0
72,200,64166,6,0,B|24:200|0:248|24:304|72:304,1,160,2|8
152,304,64848,1,0
216,256,65075,2,0,B|256:240|296:256,1,80,8|0
256,328,65529,2,8,B|296:344|336:328,1,80,8|0
334,329,65984,5,2
408,352,66211,1,0
456,288,66439,1,2
408,224,66666,1,0
336,248,66893,1,0
336,208,67007,1,0
352,168,67120,1,0
384,152,67234,1,0
424,144,67348,2,0,B|440:104|424:64,1,80,2|0
360,24,67802,6,0,B|344:64|296:64,1,80,2|0
215,64,68257,2,0,B|168:64|152:24,1,80,2|0
87,66,68711,2,0,B|72:104|88:144,1,80,2|0
24,192,69166,1,8
24,192,69393,1,0
88,144,69620,6,0,B|136:144|160:192|136:248|88:248,1,160,2|2
16,272,70302,1,0
80,320,70529,1,2
160,320,70757,2,0,B|152:360,2,40,0|0|2
160,320,71211,1,0
224,368,71439,6,0,B|248:328|232:288,1,80,2|0
288,240,71893,2,0,B|320:272|312:328,1,80,2|0
313,314,72348,1,2
432,248,72575,1,0
376,360,72802,1,2
352,240,73029,1,0
448,328,73257,6,8,B|504:320|528:272|520:224|496:200,1,160,2|8
472,128,73939,1,0
416,184,74166,1,0
400,152,74279,1,0
400,112,74393,1,0
416,80,74507,1,0
448,56,74620,1,2
328,160,75075,6,0,B|312:104|336:40|376:16,2,160,8|8|8
256,304,76439,1,0
184,160,76893,6,0,B|200:104|176:40|136:16,2,160,4|8|0
184,160,78029,1,0
256,192,78257,1,8
328,160,78484,2,0,B|312:104|336:40|376:16,2,160,0|0|0
312,240,79620,2,0,B|280:240|256:192|256:192|232:240|192:240,1,160,0|8
328,160,80529,6,0,B|312:216|336:280|376:304,2,160,4|8|0
328,160,81552,1,0
328,160,81666,1,0
256,128,81893,1,8
184,160,82120,2,0,B|200:216|176:280|136:304,2,160,0|0|0
200,80,83257,2,0,B|232:80|256:128|256:128|280:80|320:80,1,160,0|8
184,160,84166,6,0,B|168:240|192:320,1,160,0|8
191,318,84848,1,0
256,344,85075,2,0,B|256:384,2,40
321,318,85529,1,0
256,192,85757,12,0,87120
