osu file format v12

[General]
AudioFilename: Yasuharu Takanashi - Salamander.mp3
AudioLeadIn: 0
PreviewTime: 64381
Countdown: 0
SampleSet: Soft
StackLeniency: 0.7
Mode: 3
LetterboxInBreaks: 0
SpecialStyle: 0
WidescreenStoryboard: 0

[Editor]
DistanceSpacing: 1
BeatDivisor: 8
GridSize: 8

[Metadata]
Title:Salamander
TitleUnicode:Salamander
Artist:Yasuharu Takanashi
ArtistUnicode:Yasuharu Takanashi
Creator:AngelFault
Version:4k NM
Source:Fairy Tail
Tags:Fairy Tail Yasuharu Takanashi Salamander
BeatmapID:352571
BeatmapSetID:141332

[Difficulty]
HPDrainRate:7
CircleSize:4
OverallDifficulty:7
ApproachRate:5
SliderMultiplier:1
SliderTickRate:1

[Events]
//Background and Video events
0,0,"The Slamander Natsu (3).jpg",0,0
//Break Periods
//Storyboard Layer 0 (Background)
//Storyboard Layer 1 (Fail)
//Storyboard Layer 2 (Pass)
//Storyboard Layer 3 (Foreground)
//Storyboard Sound Samples
//Background Colour Transformations
3,100,163,162,255

[TimingPoints]
710,315.789473684211,4,2,0,20,1,0

[HitObjects]
64,192,710,1,0,0:0:0:0:
192,192,788,1,0,0:0:0:0:
320,192,828,1,0,0:0:0:0:
448,192,867,1,0,0:0:0:0:
64,192,1183,1,0,0:0:0:0:
448,192,1499,1,0,0:0:0:0:
320,192,1815,1,0,0:0:0:0:
64,192,1973,1,0,0:0:0:0:
448,192,2131,1,0,0:0:0:0:
64,192,2446,1,0,0:0:0:0:
320,192,2762,1,0,0:0:0:0:
192,192,3078,1,0,0:0:0:0:
64,192,3236,1,0,0:0:0:0:
448,192,3394,1,0,0:0:0:0:
64,192,3710,1,0,0:0:0:0:
320,192,4025,1,0,0:0:0:0:
192,192,4341,1,0,0:0:0:0:
64,192,4499,1,0,0:0:0:0:
448,192,4657,1,0,0:0:0:0:
64,192,4973,1,0,0:0:0:0:
320,192,5288,1,0,0:0:0:0:
192,192,5604,1,0,0:0:0:0:
64,192,5762,1,0,0:0:0:0:
448,192,5920,1,0,0:0:0:0:
64,192,6236,1,0,0:0:0:0:
320,192,6552,1,0,0:0:0:0:
192,192,6867,1,0,0:0:0:0:
64,192,7025,1,0,0:0:0:0:
448,192,7183,1,0,0:0:0:0:
64,192,7499,1,0,0:0:0:0:
320,192,7815,1,0,0:0:0:0:
192,192,8131,1,0,0:0:0:0:
64,192,8288,1,0,0:0:0:0:
448,192,8446,1,0,0:0:0:0:
448,192,8762,1,0,0:0:0:0:
64,192,8920,1,0,0:0:0:0:
192,192,9078,1,0,0:0:0:0:
448,192,9236,1,0,0:0:0:0:
64,192,9552,1,0,0:0:0:0:
320,192,9710,1,0,0:0:0:0:
448,192,10025,128,0,10973:0:0:0:0:
64,192,10499,128,0,10973:0:0:0:0:
448,192,11131,1,0,0:0:0:0:
64,192,11288,1,0,0:0:0:0:
448,192,11604,1,0,0:0:0:0:
320,192,11920,1,0,0:0:0:0:
64,192,12078,1,0,0:0:0:0:
448,192,12236,1,0,0:0:0:0:
64,192,12552,1,0,0:0:0:0:
320,192,12867,1,0,0:0:0:0:
192,192,13183,1,0,0:0:0:0:
64,192,13341,1,0,0:0:0:0:
448,192,13499,1,0,0:0:0:0:
320,192,13815,1,0,0:0:0:0:
448,192,14131,1,0,0:0:0:0:
192,192,14446,1,0,0:0:0:0:
64,192,14604,1,0,0:0:0:0:
448,192,14762,1,0,0:0:0:0:
64,192,15078,1,0,0:0:0:0:
320,192,15394,1,0,0:0:0:0:
192,192,15710,1,0,0:0:0:0:
64,192,15867,1,0,0:0:0:0:
448,192,16025,1,0,0:0:0:0:
320,192,16341,1,0,0:0:0:0:
448,192,16657,1,0,0:0:0:0:
192,192,16973,1,0,0:0:0:0:
64,192,17131,1,0,0:0:0:0:
448,192,17288,1,0,0:0:0:0:
64,192,17604,1,0,0:0:0:0:
320,192,17920,1,0,0:0:0:0:
320,192,18236,1,0,0:0:0:0:
64,192,18394,1,0,0:0:0:0:
448,192,18552,1,0,0:0:0:0:
64,192,18867,1,0,0:0:0:0:
448,192,19183,1,0,0:0:0:0:
64,192,19341,1,0,0:0:0:0:
320,192,19657,1,0,0:0:0:0:
64,192,19815,1,0,0:0:0:0:
192,192,19973,1,0,0:0:0:0:
448,192,20131,1,0,0:0:0:0:
64,192,20288,1,0,0:0:0:0:
192,192,20446,1,0,0:0:0:0:
448,192,20604,1,0,0:0:0:0:
192,192,20920,1,0,0:0:0:0:
448,192,21078,1,0,0:0:0:0:
192,192,21394,1,0,0:0:0:0:
64,192,21710,1,0,0:0:0:0:
320,192,22025,1,0,0:0:0:0:
448,192,22341,1,0,0:0:0:0:
192,192,22657,1,0,0:0:0:0:
64,192,22973,1,0,0:0:0:0:
320,192,23288,1,0,0:0:0:0:
448,192,23604,1,0,0:0:0:0:
64,192,23920,1,0,0:0:0:0:
448,192,23999,1,0,0:0:0:0:
320,192,24078,1,0,0:0:0:0:
192,192,24157,1,0,0:0:0:0:
64,192,24236,1,0,0:0:0:0:
448,192,24552,1,0,0:0:0:0:
192,192,24867,1,0,0:0:0:0:
320,192,25183,1,0,0:0:0:0:
64,192,25499,1,0,0:0:0:0:
192,192,25815,1,0,0:0:0:0:
320,192,25973,1,0,0:0:0:0:
64,192,26131,1,0,0:0:0:0:
448,192,26288,1,0,0:0:0:0:
192,192,26446,1,0,0:0:0:0:
64,192,26762,1,0,0:0:0:0:
320,192,27078,1,0,0:0:0:0:
448,192,27394,1,0,0:0:0:0:
320,192,27710,1,0,0:0:0:0:
64,192,28025,1,0,0:0:0:0:
448,192,28341,1,0,0:0:0:0:
64,192,28657,1,0,0:0:0:0:
192,192,28973,1,0,0:0:0:0:
320,192,29288,1,0,0:0:0:0:
448,192,29604,1,0,0:0:0:0:
64,192,29920,1,0,0:0:0:0:
448,192,30236,1,0,0:0:0:0:
64,192,30552,1,0,0:0:0:0:
448,192,30867,1,0,0:0:0:0:
320,192,31183,1,0,0:0:0:0:
64,192,31499,1,0,0:0:0:0:
448,192,31815,1,0,0:0:0:0:
192,192,32131,1,0,0:0:0:0:
64,192,32446,1,0,0:0:0:0:
448,192,32762,1,0,0:0:0:0:
64,192,33078,1,0,0:0:0:0:
448,192,33394,1,0,0:0:0:0:
64,192,33710,1,0,0:0:0:0:
320,192,34025,1,0,0:0:0:0:
192,192,34341,1,0,0:0:0:0:
448,192,34657,1,0,0:0:0:0:
64,192,34973,1,0,0:0:0:0:
320,192,35288,1,0,0:0:0:0:
64,192,35446,1,0,0:0:0:0:
64,192,35762,1,0,0:0:0:0:
448,192,35920,1,0,0:0:0:0:
320,192,36078,1,0,0:0:0:0:
192,192,36236,1,0,0:0:0:0:
64,192,36394,1,0,0:0:0:0:
448,192,36552,1,0,0:0:0:0:
320,192,36867,1,0,0:0:0:0:
448,192,37183,1,0,0:0:0:0:
192,192,37499,1,0,0:0:0:0:
64,192,37815,1,0,0:0:0:0:
320,192,38131,1,0,0:0:0:0:
448,192,38446,1,0,0:0:0:0:
192,192,38762,1,0,0:0:0:0:
320,192,39078,1,0,0:0:0:0:
448,192,39394,1,0,0:0:0:0:
192,192,39710,1,0,0:0:0:0:
448,192,40025,1,0,0:0:0:0:
320,192,40341,1,0,0:0:0:0:
64,192,40657,1,0,0:0:0:0:
448,192,40973,1,0,0:0:0:0:
192,192,41288,1,0,0:0:0:0:
64,192,41604,1,0,0:0:0:0:
320,192,41920,1,0,0:0:0:0:
448,192,42236,1,0,0:0:0:0:
64,192,42552,1,0,0:0:0:0:
320,192,42867,1,0,0:0:0:0:
192,192,43183,1,0,0:0:0:0:
448,192,43499,1,0,0:0:0:0:
320,192,43815,1,0,0:0:0:0:
64,192,44131,1,0,0:0:0:0:
192,192,44446,1,0,0:0:0:0:
448,192,44762,1,0,0:0:0:0:
64,192,45078,1,0,0:0:0:0:
192,192,45394,1,0,0:0:0:0:
448,192,45552,1,0,0:0:0:0:
64,192,45867,1,0,0:0:0:0:
192,192,46025,1,0,0:0:0:0:
320,192,46183,1,0,0:0:0:0:
448,192,46341,1,0,0:0:0:0:
320,192,46499,1,0,0:0:0:0:
64,192,46657,1,0,0:0:0:0:
192,192,46973,1,0,0:0:0:0:
320,192,47131,1,0,0:0:0:0:
448,192,47288,1,0,0:0:0:0:
320,192,47604,1,0,0:0:0:0:
192,192,47762,1,0,0:0:0:0:
64,192,47920,1,0,0:0:0:0:
192,192,48236,1,0,0:0:0:0:
64,192,48394,1,0,0:0:0:0:
448,192,48552,1,0,0:0:0:0:
320,192,48867,1,0,0:0:0:0:
192,192,49025,1,0,0:0:0:0:
448,192,49183,1,0,0:0:0:0:
64,192,49499,1,0,0:0:0:0:
192,192,49657,1,0,0:0:0:0:
448,192,49815,1,0,0:0:0:0:
448,192,50131,1,0,0:0:0:0:
320,192,50288,1,0,0:0:0:0:
192,192,50446,1,0,0:0:0:0:
448,192,50762,1,0,0:0:0:0:
64,192,50920,1,0,0:0:0:0:
192,192,51078,1,0,0:0:0:0:
320,192,51236,1,0,0:0:0:0:
448,192,51394,1,0,0:0:0:0:
320,192,51552,1,0,0:0:0:0:
64,192,51710,1,0,0:0:0:0:
64,192,52025,1,0,0:0:0:0:
448,192,52341,1,0,0:0:0:0:
320,192,52657,1,0,0:0:0:0:
64,192,52973,1,0,0:0:0:0:
64,192,53288,1,0,0:0:0:0:
192,192,53446,1,0,0:0:0:0:
448,192,53604,1,0,0:0:0:0:
192,192,53762,1,0,0:0:0:0:
320,192,53920,1,0,0:0:0:0:
64,192,54236,1,0,0:0:0:0:
192,192,54552,1,0,0:0:0:0:
448,192,54867,1,0,0:0:0:0:
320,192,55183,1,0,0:0:0:0:
64,192,55499,1,0,0:0:0:0:
320,192,55815,1,0,0:0:0:0:
64,192,55973,1,0,0:0:0:0:
448,192,56131,1,0,0:0:0:0:
192,192,56288,1,0,0:0:0:0:
448,192,56446,1,0,0:0:0:0:
64,192,56762,1,0,0:0:0:0:
320,192,57078,1,0,0:0:0:0:
192,192,57236,1,0,0:0:0:0:
448,192,57394,1,0,0:0:0:0:
320,192,57710,1,0,0:0:0:0:
64,192,57867,1,0,0:0:0:0:
320,192,58025,1,0,0:0:0:0:
64,192,58341,1,0,0:0:0:0:
192,192,58499,1,0,0:0:0:0:
448,192,58657,1,0,0:0:0:0:
320,192,58973,1,0,0:0:0:0:
64,192,59131,1,0,0:0:0:0:
192,192,59288,1,0,0:0:0:0:
64,192,59604,1,0,0:0:0:0:
192,192,59762,1,0,0:0:0:0:
448,192,59920,1,0,0:0:0:0:
192,192,60236,1,0,0:0:0:0:
64,192,60394,1,0,0:0:0:0:
320,192,60552,1,0,0:0:0:0:
64,192,60867,1,0,0:0:0:0:
192,192,61025,1,0,0:0:0:0:
320,192,61183,1,0,0:0:0:0:
64,192,61341,1,0,0:0:0:0:
320,192,61657,1,0,0:0:0:0:
448,192,61815,1,0,0:0:0:0:
64,192,61973,1,0,0:0:0:0:
448,192,62131,1,0,0:0:0:0:
192,192,62288,1,0,0:0:0:0:
64,192,62762,1,0,0:0:0:0:
320,192,62920,1,0,0:0:0:0:
192,192,63394,1,0,0:0:0:0:
64,192,63552,1,0,0:0:0:0:
320,192,63710,1,0,0:0:0:0:
448,192,63867,1,0,0:0:0:0:
64,192,64341,1,0,0:0:0:0:
448,192,64657,1,0,0:0:0:0:
192,192,64973,1,0,0:0:0:0:
320,192,65131,1,0,0:0:0:0:
448,192,65288,1,0,0:0:0:0:
64,192,65604,1,0,0:0:0:0:
320,192,65920,1,0,0:0:0:0:
64,192,66236,1,0,0:0:0:0:
192,192,66394,1,0,0:0:0:0:
320,192,66552,1,0,0:0:0:0:
64,192,66867,1,0,0:0:0:0:
448,192,67183,1,0,0:0:0:0:
64,192,67341,1,0,0:0:0:0:
64,192,67657,1,0,0:0:0:0:
448,192,67815,1,0,0:0:0:0:
64,192,68131,1,0,0:0:0:0:
192,192,68446,1,0,0:0:0:0:
64,192,68762,1,0,0:0:0:0:
320,192,68920,1,0,0:0:0:0:
448,192,69078,1,0,0:0:0:0:
64,192,69394,1,0,0:0:0:0:
320,192,69710,1,0,0:0:0:0:
448,192,70025,1,0,0:0:0:0:
192,192,70183,1,0,0:0:0:0:
448,192,70341,1,0,0:0:0:0:
64,192,70657,1,0,0:0:0:0:
320,192,70973,1,0,0:0:0:0:
448,192,71288,1,0,0:0:0:0:
192,192,71446,1,0,0:0:0:0:
64,192,71604,1,0,0:0:0:0:
192,192,71920,1,0,0:0:0:0:
448,192,72236,1,0,0:0:0:0:
64,192,72394,1,0,0:0:0:0:
64,192,72710,1,0,0:0:0:0:
448,192,72867,1,0,0:0:0:0:
320,192,73183,1,0,0:0:0:0:
192,192,73341,1,0,0:0:0:0:
320,192,73499,1,0,0:0:0:0:
64,192,73815,1,0,0:0:0:0:
192,192,73973,1,0,0:0:0:0:
448,192,74131,1,0,0:0:0:0:
64,192,74446,1,0,0:0:0:0:
320,192,74762,1,0,0:0:0:0:
64,192,75078,1,0,0:0:0:0:
192,192,75236,1,0,0:0:0:0:
448,192,75394,1,0,0:0:0:0:
192,192,75710,1,0,0:0:0:0:
448,192,76025,1,0,0:0:0:0:
320,192,76341,1,0,0:0:0:0:
192,192,76499,1,0,0:0:0:0:
448,192,76657,1,0,0:0:0:0:
64,192,76973,1,0,0:0:0:0:
448,192,77288,1,0,0:0:0:0:
64,192,77446,1,0,0:0:0:0:
64,192,77762,1,0,0:0:0:0:
448,192,77920,1,0,0:0:0:0:
64,192,78236,1,0,0:0:0:0:
448,192,78552,1,0,0:0:0:0:
64,192,78867,1,0,0:0:0:0:
320,192,79025,1,0,0:0:0:0:
448,192,79183,1,0,0:0:0:0:
192,192,79341,1,0,0:0:0:0:
320,192,79499,1,0,0:0:0:0:
64,192,79815,1,0,0:0:0:0:
448,192,79973,1,0,0:0:0:0:
64,192,80288,1,0,0:0:0:0:
448,192,80446,1,0,0:0:0:0:
320,192,80762,1,0,0:0:0:0:
64,192,81078,1,0,0:0:0:0:
448,192,81236,1,0,0:0:0:0:
64,192,81552,1,0,0:0:0:0:
448,192,81710,1,0,0:0:0:0:
320,192,82025,1,0,0:0:0:0:
64,192,82341,1,0,0:0:0:0:
448,192,82499,1,0,0:0:0:0:
64,192,82815,1,0,0:0:0:0:
320,192,82973,1,0,0:0:0:0:
448,192,83288,1,0,0:0:0:0:
192,192,83446,1,0,0:0:0:0:
64,192,83604,1,0,0:0:0:0:
448,192,83762,1,0,0:0:0:0:
448,192,84078,1,0,0:0:0:0:
320,192,84236,1,0,0:0:0:0:
192,192,84394,1,0,0:0:0:0:
64,192,84552,1,0,0:0:0:0:
320,192,84867,1,0,0:0:0:0:
448,192,85183,1,0,0:0:0:0:
192,192,85341,1,0,0:0:0:0:
448,192,85499,1,0,0:0:0:0:
64,192,85815,1,0,0:0:0:0:
320,192,85973,1,0,0:0:0:0:
192,192,86131,1,0,0:0:0:0:
448,192,86446,1,0,0:0:0:0:
192,192,86604,1,0,0:0:0:0:
448,192,86762,1,0,0:0:0:0:
64,192,87078,1,0,0:0:0:0:
192,192,87236,1,0,0:0:0:0:
320,192,87394,1,0,0:0:0:0:
448,192,87710,1,0,0:0:0:0:
64,192,87867,1,0,0:0:0:0:
448,192,88025,1,0,0:0:0:0:
192,192,88183,1,0,0:0:0:0:
448,192,88341,1,0,0:0:0:0:
192,192,88499,1,0,0:0:0:0:
320,192,88657,1,0,0:0:0:0:
64,192,88815,1,0,0:0:0:0:
448,192,88973,1,0,0:0:0:0:
192,192,89131,1,0,0:0:0:0:
448,192,89288,1,0,0:0:0:0:
64,192,89604,1,0,0:0:0:0:
320,192,89762,1,0,0:0:0:0:
192,192,89920,1,0,0:0:0:0:
64,192,90236,1,0,0:0:0:0:
448,192,90394,1,0,0:0:0:0:
64,192,90552,1,0,0:0:0:0:
320,192,90867,1,0,0:0:0:0:
64,192,91025,1,0,0:0:0:0:
320,192,91183,1,0,0:0:0:0:
64,192,91499,1,0,0:0:0:0:
448,192,91657,1,0,0:0:0:0:
320,192,91815,1,0,0:0:0:0:
320,192,92131,1,0,0:0:0:0:
64,192,92288,1,0,0:0:0:0:
320,192,92446,1,0,0:0:0:0:
64,192,92762,1,0,0:0:0:0:
448,192,92920,1,0,0:0:0:0:
320,192,93078,1,0,0:0:0:0:
64,192,93394,1,0,0:0:0:0:
320,192,93552,1,0,0:0:0:0:
448,192,93710,1,0,0:0:0:0:
320,192,94025,1,0,0:0:0:0:
64,192,94183,1,0,0:0:0:0:
448,192,94341,1,0,0:0:0:0:
448,192,94657,1,0,0:0:0:0:
64,192,94815,1,0,0:0:0:0:
320,192,94973,1,0,0:0:0:0:
448,192,95288,1,0,0:0:0:0:
192,192,95446,1,0,0:0:0:0:
320,192,95604,1,0,0:0:0:0:
448,192,95920,1,0,0:0:0:0:
64,192,96078,1,0,0:0:0:0:
320,192,96236,1,0,0:0:0:0:
320,192,96552,1,0,0:0:0:0:
192,192,96710,1,0,0:0:0:0:
448,192,96867,1,0,0:0:0:0:
320,192,97183,1,0,0:0:0:0:
64,192,97341,1,0,0:0:0:0:
320,192,97499,1,0,0:0:0:0:
64,192,97815,1,0,0:0:0:0:
320,192,97973,1,0,0:0:0:0:
192,192,98131,1,0,0:0:0:0:
192,192,98446,1,0,0:0:0:0:
64,192,98604,1,0,0:0:0:0:
448,192,98762,1,0,0:0:0:0:
64,192,99078,1,0,0:0:0:0:
192,192,99236,1,0,0:0:0:0:
320,192,99394,1,0,0:0:0:0:
448,192,99710,1,0,0:0:0:0:
64,192,100025,1,0,0:0:0:0:
448,192,100183,1,0,0:0:0:0:
64,192,100499,1,0,0:0:0:0:
320,192,100657,1,0,0:0:0:0:
448,192,100973,1,0,0:0:0:0:
64,192,101288,1,0,0:0:0:0:
320,192,101446,1,0,0:0:0:0:
320,192,101762,1,0,0:0:0:0:
64,192,101920,1,0,0:0:0:0:
448,192,102236,1,0,0:0:0:0:
64,192,102552,1,0,0:0:0:0:
320,192,102710,1,0,0:0:0:0:
320,192,103025,1,0,0:0:0:0:
448,192,103183,1,0,0:0:0:0:
64,192,103499,1,0,0:0:0:0:
320,192,103657,1,0,0:0:0:0:
192,192,103815,1,0,0:0:0:0:
448,192,103973,1,0,0:0:0:0:
192,192,104131,1,0,0:0:0:0:
320,192,104288,1,0,0:0:0:0:
64,192,104446,1,0,0:0:0:0:
320,192,104604,1,0,0:0:0:0:
192,192,104762,1,0,0:0:0:0:
448,192,105078,1,0,0:0:0:0:
64,192,105394,1,0,0:0:0:0:
192,192,105552,1,0,0:0:0:0:
448,192,105710,1,0,0:0:0:0:
64,192,106025,1,0,0:0:0:0:
320,192,106341,1,0,0:0:0:0:
320,192,106657,1,0,0:0:0:0:
64,192,106815,1,0,0:0:0:0:
448,192,106973,1,0,0:0:0:0:
64,192,107288,1,0,0:0:0:0:
448,192,107604,1,0,0:0:0:0:
320,192,107920,1,0,0:0:0:0:
64,192,108078,1,0,0:0:0:0:
448,192,108236,1,0,0:0:0:0:
320,192,108552,1,0,0:0:0:0:
448,192,108867,1,0,0:0:0:0:
320,192,109183,1,0,0:0:0:0:
64,192,109341,1,0,0:0:0:0:
320,192,109499,1,0,0:0:0:0:
448,192,109815,1,0,0:0:0:0:
320,192,110131,1,0,0:0:0:0:
320,192,110446,1,0,0:0:0:0:
64,192,110604,1,0,0:0:0:0:
448,192,110762,1,0,0:0:0:0:
64,192,111078,1,0,0:0:0:0:
192,192,111394,1,0,0:0:0:0:
320,192,111710,1,0,0:0:0:0:
64,192,111867,1,0,0:0:0:0:
448,192,112025,1,0,0:0:0:0:
320,192,112341,1,0,0:0:0:0:
192,192,112499,1,0,0:0:0:0:
64,192,112657,1,0,0:0:0:0:
448,192,112815,1,0,0:0:0:0:
192,192,112973,1,0,0:0:0:0:
64,192,113131,1,0,0:0:0:0:
320,192,113288,1,0,0:0:0:0:
64,192,113446,1,0,0:0:0:0:
448,192,113604,128,0,114552:0:0:0:0:
192,192,114078,128,0,114552:0:0:0:0:
64,192,114710,1,0,0:0:0:0:
448,192,114867,1,0,0:0:0:0:
192,192,115183,1,0,0:0:0:0:
448,192,115499,1,0,0:0:0:0:
192,192,115657,1,0,0:0:0:0:
448,192,115815,1,0,0:0:0:0:
64,192,116131,1,0,0:0:0:0:
192,192,116446,1,0,0:0:0:0:
320,192,116762,1,0,0:0:0:0:
192,192,116920,1,0,0:0:0:0:
448,192,117078,1,0,0:0:0:0:
64,192,117394,1,0,0:0:0:0:
448,192,117710,1,0,0:0:0:0:
320,192,118025,1,0,0:0:0:0:
192,192,118183,1,0,0:0:0:0:
320,192,118341,1,0,0:0:0:0:
64,192,118657,1,0,0:0:0:0:
448,192,118973,1,0,0:0:0:0:
320,192,119288,1,0,0:0:0:0:
192,192,119446,1,0,0:0:0:0:
448,192,119604,1,0,0:0:0:0:
64,192,119920,1,0,0:0:0:0:
448,192,120236,1,0,0:0:0:0:
320,192,120552,1,0,0:0:0:0:
192,192,120710,1,0,0:0:0:0:
448,192,120867,1,0,0:0:0:0:
64,192,121183,1,0,0:0:0:0:
448,192,121499,1,0,0:0:0:0:
320,192,121815,1,0,0:0:0:0:
192,192,121973,1,0,0:0:0:0:
448,192,122131,1,0,0:0:0:0:
64,192,122446,1,0,0:0:0:0:
320,192,122762,1,0,0:0:0:0:
192,192,122920,1,0,0:0:0:0:
448,192,123236,1,0,0:0:0:0:
320,192,123394,1,0,0:0:0:0:
64,192,123710,1,0,0:0:0:0:
448,192,124025,1,0,0:0:0:0:
192,192,124183,1,0,0:0:0:0:
320,192,124499,1,0,0:0:0:0:
448,192,124657,1,0,0:0:0:0:
64,192,124973,1,0,0:0:0:0:
192,192,125288,1,0,0:0:0:0:
320,192,125446,1,0,0:0:0:0:
192,192,125762,1,0,0:0:0:0:
448,192,125920,1,0,0:0:0:0:
320,192,126236,1,0,0:0:0:0:
64,192,126552,1,0,0:0:0:0:
192,192,126710,1,0,0:0:0:0:
64,192,127025,1,0,0:0:0:0:
448,192,127183,1,0,0:0:0:0:
64,192,127341,1,0,0:0:0:0:
448,192,127499,128,0,129867:0:0:0:0:
320,192,129946,1,0,0:0:0:0:
64,192,130025,128,0,131920:0:0:0:0:
