osu file format v12

[General]
AudioFilename: 15 Juvia of the Great Sea.mp3.MP3
AudioLeadIn: 0
PreviewTime: 66271
Countdown: 0
SampleSet: Soft
StackLeniency: 0.7
Mode: 0
LetterboxInBreaks: 1
WidescreenStoryboard: 1

[Editor]
Bookmarks: 32671,45471,58271,66271,70071,79071,91871,104671,107871
DistanceSpacing: 1
BeatDivisor: 2
GridSize: 32

[Metadata]
Title:Juvia
TitleUnicode:ジュビア
Artist:Yasuharu Takanashi
ArtistUnicode:高梨康治
Creator:ChivaCookie
Version:Normal
Source:Fairy Tail
Tags:Yoeri
BeatmapID:287582
BeatmapSetID:110290

[Difficulty]
HPDrainRate:4
CircleSize:3
OverallDifficulty:4
ApproachRate:5
SliderMultiplier:1.2
SliderTickRate:2

[Events]
//Background and Video events
0,0,"Juvia-Lockser-3-the-fairy-tail-guild-34932975-1600-1236.jpg",0,0
//Break Periods
2,58197,64789
//Storyboard Layer 0 (Background)
//Storyboard Layer 1 (Fail)
//Storyboard Layer 2 (Pass)
//Storyboard Layer 3 (Foreground)
//Storyboard Sound Samples
//Background Colour Transformations
3,100,163,162,255

[TimingPoints]
6789,400,4,2,0,40,1,0

[Colours]
Combo1 : 0,64,128
Combo2 : 0,156,232
Combo3 : 170,170,255
Combo4 : 128,255,255

[HitObjects]
31,64,32389,2,0,P|16:130|75:204,1,120,4|2,0:0|0:0,0:0:0:0:
136,242,33189,2,0,P|150:175|88:102,1,120,0|2,1:0|0:0,0:0:0:0:
119,71,33789,1,0,0:0:0:0:
153,22,33989,2,0,B|258:71|260:164|260:164|263:250|399:336,1,360,4|2,1:0|0:0,0:0:0:0:
467,250,35589,6,0,P|403:212|347:129,1,120,2|0,0:0|0:0,0:0:0:0:
350,122,36189,1,0,0:0:0:0:
373,66,36389,6,0,P|437:104|493:187,1,120,0|0,1:0|0:0,0:0:0:0:
467,249,37189,2,0,B|353:335|277:304|277:304|178:263|87:333,1,360,2|4,0:0|1:0,0:0:0:0:
62,215,38789,6,0,P|94:147|116:72,1,120,4|2,0:0|0:0,0:0:0:0:
152,64,39389,1,0,0:0:0:0:
219,60,39589,2,0,P|200:127|170:202,1,120,0|2,1:0|0:0,0:0:0:0:
293,127,40389,2,0,P|369:209|219:354,1,360,0|4,0:0|0:0,0:0:0:0:
140,275,41989,6,0,P|185:238|258:246,1,120,0|2,0:0|0:0,0:0:0:0:
363,255,42789,1,0,1:0:0:0:
439,347,43189,2,0,P|337:367|249:284,2,180,4|4|0,0:0|1:0|1:0,0:0:0:0:
500,243,44789,1,0,0:0:0:0:
479,124,45189,6,0,P|379:109|336:131,1,120,4|2,0:0|0:0,0:0:0:0:
302,217,45989,2,0,P|231:228|182:195,1,120,4|0,1:0|0:0,0:0:0:0:
72,186,46789,2,0,P|134:118|414:142,1,360,2|4,0:0|0:0,0:0:0:0:
473,198,48389,5,2,0:0:0:0:
366,252,48789,2,0,P|301:181|288:120,1,120,2|4,0:0|1:0,0:0:0:0:
305,40,49589,2,0,P|372:45|388:59,1,60
402,86,49989,2,0,B|397:175|319:245|231:279|99:255,1,360,2|4,0:0|1:0,0:0:0:0:
54,155,51589,5,0,0:0:0:0:
146,78,51989,2,0,P|176:144|134:226,1,120,2|4,0:0|1:0,0:0:0:0:
63,249,52789,1,0,0:0:0:0:
12,339,53189,2,0,B|75:368|75:368|262:368,1,240,4|2,1:0|0:0,0:0:0:0:
365,288,54389,6,0,L|232:288,1,120,4|4,1:0|0:0,0:0:0:0:
205,260,54989,1,0,0:0:0:0:
167,230,55189,1,2,0:0:0:0:
109,153,55589,1,0,1:0:0:0:
85,59,55989,1,4,0:0:0:0:
256,192,56389,12,4,57989,0:0:0:0:
172,250,65989,6,0,B|225:214|281:249|281:249|350:286|424:240,1,240
498,184,67189,1,0,1:0:0:0:
402,120,67589,2,0,B|359:158|291:118|291:118|233:86|175:116,1,240
72,176,68789,1,0,1:0:0:0:
22,285,69189,6,0,P|107:290|188:184,2,180
72,176,70789,1,0,0:0:0:0:
80,56,71189,1,0,1:0:0:0:
195,88,71589,1,0,0:0:0:0:
277,174,71989,1,0,1:0:0:0:
195,87,72389,6,0,P|273:52|364:89,2,180,2|2|4,0:0|0:0|1:0,0:0:0:0:
80,127,73989,1,2,0:0:0:0:
167,209,74389,2,0,P|237:197|280:171,1,120,0|4,1:0|0:0,0:0:0:0:
459,15,75589,6,0,P|505:91|442:242,2,240,0|0|0,1:0|1:0|1:0,0:0:0:0:
397,118,77589,1,0,0:0:0:0:
280,89,77989,2,0,P|271:123|309:173,2,60,0|0|0,1:0|1:0|1:0,0:0:0:0:
397,117,78789,6,0,L|228:116,1,120,0|8,0:0|1:0,0:0:0:0:
159,143,79589,1,0,0:0:0:0:
96,40,79989,2,0,P|168:24|229:42,1,120,8|0,1:0|0:0,0:0:0:0:
159,143,80789,1,8,1:0:0:0:
95,244,81189,6,0,P|221:243|276:132,1,240
308,39,82389,2,0,P|360:69|396:158,2,120,8|0|8,1:0|0:0|1:0,0:0:0:0:
170,46,83589,6,0,P|103:34|43:58,1,120,0|12,0:0|1:0,0:0:0:0:
115,151,84389,2,0,P|182:166|241:140,1,120,0|12,0:0|1:0,0:0:0:0:
170,46,85189,6,0,P|108:116|93:259,1,240,4|0,0:0|0:0,0:0:0:0:
136,369,86389,2,0,P|193:323|205:258,1,120,8|0,1:0|0:0,0:0:0:0:
113,203,87189,5,8,1:0:0:0:
217,143,87589,2,0,P|327:180|335:308,1,240,0|4,0:0|0:0,0:0:0:0:
103,306,89189,1,4,0:0:0:0:
130,67,89989,6,0,P|80:63|49:46,2,60,4|0|4,0:0|0:0|0:0,0:0:0:0:
274,80,90789,1,4,0:0:0:0:
257,198,91189,2,0,P|276:231|305:246,2,60,0|0|4,1:0|1:0|1:0,0:0:0:0:
169,115,91989,5,0,1:0:0:0:
49,112,92389,2,0,P|62:184|140:224,2,120,0|0|0,0:0|1:0|0:0,0:0:0:0:
121,16,93589,1,0,1:0:0:0:
238,41,93989,2,0,P|289:67|302:70,2,60,0|0|0,0:0|0:0|1:0,0:0:0:0:
408,114,94789,6,0,B|431:192|371:219|329:259|348:336|435:372|506:336|525:268|489:224|436:210,2,360,0|0|0,0:0|1:0|0:0,0:0:0:0:
372,65,97389,1,0,0:0:0:0:
308,46,97589,1,0,1:0:0:0:
198,94,97989,6,0,P|198:98|280:163,2,120,0|0|0,0:0|1:0|0:0,0:0:0:0:
163,44,98989,1,0,0:0:0:0:
105,17,99189,1,0,1:0:0:0:
39,117,99589,1,0,0:0:0:0:
153,152,99989,6,0,B|130:230|193:252|232:297|213:374|126:410|55:374|29:298|86:245,1,360,0|0,1:0|0:0,0:0:0:0:
68,171,101589,2,0,P|92:95|172:64,1,120,0|0,1:0|0:0,0:0:0:0:
239,98,102389,1,0,1:0:0:0:
274,212,102789,6,0,P|335:154|335:142,2,60,0|0|4,0:0|0:0|1:0,0:0:0:0:
239,97,103589,2,0,P|248:47|270:34,2,60,0|0|4,0:0|0:0|0:0,0:0:0:0:
256,192,104389,12,4,107989,1:0:0:0:
