osu file format v9

[General]
AudioFilename: 3. Invoke magic.mp3
AudioLeadIn: 1500
PreviewTime: 0
Countdown: 0
SampleSet: Normal
StackLeniency: 0.8
Mode: 1
LetterboxInBreaks: 0

[Editor]
Bookmarks: 882,6882,8728,16122,23507,30892,45661,58584,69661,102198
DistanceSpacing: 1
BeatDivisor: 4
GridSize: 4

[Metadata]
Title:Invoke Magic
Artist:Yasuharu Takanashi
Creator:Selee
Version:lepidon! - Taiko Oni
Source:Fairy Tail
Tags:Sandpig Sallad4ever Garven lepidopodus lepidon Feari Teiru Hiro Mashima Natsu Gray Lucy Mahou Hatsudou Elsa

[Difficulty]
HPDrainRate:5
CircleSize:5
OverallDifficulty:5
ApproachRate:5
SliderMultiplier:1.4
SliderTickRate:1

[Events]
//Background and Video events
0,0,"Fairy_tail1.jpg"
//Break Periods
//Storyboard Layer 0 (Background)
//Storyboard Layer 1 (Fail)
//Storyboard Layer 2 (Pass)
//Storyboard Layer 3 (Foreground)
//Storyboard Sound Samples
//Background Colour Transformations
3,100,0,0,0

[TimingPoints]
-500,461.538461538462,4,1,1,80,1,0
16115,-100,4,1,1,80,0,1
30884,-100,4,1,1,80,0,0
84423,-100,4,1,1,80,0,1
101038,-100,4,1,1,80,0,0

[Colours]
Combo1 : 255,20,20
Combo2 : 128,128,255
Combo3 : 175,175,175
Combo4 : 225,225,0

[HitObjects]
238,206,884,1,12
353,127,1346,5,0
382,190,1576,1,0
412,253,1807,1,8
349,284,2038,1,0
317,298,2153,1,0
247,288,2384,1,0
211,284,2500,1,0
262,237,2730,1,8
239,139,3192,1,0
174,110,3423,1,0
243,107,3653,1,8
310,125,3884,1,0
342,138,4000,1,8
314,202,4230,1,0
375,237,4346,1,0
421,185,4576,1,8
303,262,5038,1,0
232,262,5269,1,0
286,217,5500,1,8
350,191,5730,1,0
421,185,5846,1,0
429,254,6076,1,0
429,254,6192,1,0
415,185,6423,1,8
365,233,6653,1,0
331,223,6769,1,0
332,188,6884,1,8
360,123,7115,1,0
388,143,7230,1,0
419,157,7346,1,8
478,194,7576,1,0
443,185,7692,1,0
419,157,7807,1,8
397,185,7923,1,8
389,219,8038,1,0
379,252,8153,1,0
348,234,8269,1,8
314,223,8384,1,8
279,214,8500,1,8
244,208,8615,1,8
226,177,8730,5,0
191,116,8961,1,0
260,112,9192,1,8
308,162,9423,1,0
341,170,9538,1,0
398,129,9769,1,0
398,129,9884,1,0
429,191,10115,1,8
409,220,10230,1,0
386,246,10346,1,0
356,265,10461,1,0
325,281,10576,1,0
295,217,10807,1,0
322,152,11038,1,8
377,109,11269,1,0
398,129,11384,1,8
455,169,11615,1,0
447,203,11730,1,0
381,178,11961,1,8
346,179,12076,1,8
348,214,12192,1,0
346,248,12307,1,0
342,283,12423,1,0
405,311,12653,1,0
400,241,12884,1,8
365,180,13115,1,0
380,148,13230,1,0
380,148,13461,1,0
380,148,13576,1,0
433,102,13807,1,8
448,133,13923,1,0
441,167,14038,1,0
424,197,14153,1,0
422,232,14269,1,0
351,233,14500,1,0
312,174,14730,1,8
278,163,14846,1,0
341,133,15076,1,8
281,170,15307,1,0
254,192,15423,1,0
322,178,15653,1,8
357,175,15769,1,8
391,179,15884,1,8
425,187,16000,1,8
433,220,16115,5,0
429,150,16346,1,0
447,179,16461,1,0
477,162,16576,1,8
441,163,16692,1,0
390,211,16923,1,0
335,255,17153,1,0
314,226,17269,1,8
247,203,17500,1,0
300,158,17730,1,8
335,158,17846,1,0
441,163,17961,1,0
438,233,18192,1,0
428,199,18307,1,8
415,165,18423,1,8
415,165,18538,1,0
369,217,18769,1,0
407,158,19000,1,8
440,168,19115,1,0
335,158,19346,1,8
404,163,19576,1,0
438,168,19692,1,8
430,202,19807,1,0
361,187,20038,1,0
326,181,20153,1,0
356,163,20269,1,8
383,141,20384,1,0
435,95,20615,1,0
367,113,20846,1,0
376,146,20961,1,8
307,162,21192,1,0
364,198,21423,1,0
379,229,21538,1,0
413,233,21653,1,8
406,163,21884,1,8
441,165,22000,1,0
474,173,22115,1,8
463,206,22230,1,0
443,235,22346,1,0
414,255,22461,1,0
379,194,22692,1,8
368,160,22807,1,0
353,192,22923,1,0
381,172,23038,1,8
381,172,23153,1,8
381,172,23269,1,8
381,172,23384,1,8
381,136,23500,5,0
448,154,23730,1,8
470,181,23846,1,0
504,186,23961,1,8
472,170,24076,1,0
438,231,24307,1,0
368,225,24538,1,0
337,208,24653,1,8
350,139,24884,1,0
350,174,25000,1,0
410,173,25115,1,8
420,206,25230,1,0
415,240,25346,1,0
446,177,25576,1,8
420,206,25692,1,0
451,221,25807,1,0
410,173,25923,1,8
388,106,26153,1,0
435,157,26384,1,8
435,157,26500,1,0
446,177,26730,1,8
446,177,26846,1,8
446,177,26961,1,0
435,157,27076,1,8
422,189,27192,1,0
359,156,27423,1,8
390,171,27538,1,0
417,149,27653,1,8
415,184,27769,1,0
391,250,28000,1,0
447,208,28230,1,0
390,171,28346,1,8
320,166,28576,1,0
417,149,28692,1,8
450,157,28807,1,0
467,187,28923,1,0
435,202,29038,1,8
368,222,29269,1,0
335,234,29384,1,0
349,201,29500,1,8
347,166,29615,1,8
319,187,29730,1,0
354,187,29846,1,8
288,161,30076,1,0
323,161,30192,1,8
357,163,30307,1,0
347,166,30423,1,8
381,171,30538,1,8
415,178,30653,1,8
447,190,30769,1,8
437,156,30884,5,0
347,209,31230,1,0
360,241,31346,1,8
361,136,31692,1,0
290,137,31923,1,0
318,200,32153,1,8
331,232,32269,1,0
391,195,32500,1,8
335,236,32730,1,0
232,208,33076,1,0
264,220,33192,1,8
360,208,33538,1,0
296,176,33769,1,8
368,172,34000,1,0
404,172,34115,1,8
404,172,34346,1,8
437,156,34576,1,0
347,209,34922,1,0
360,241,35038,1,8
361,136,35384,1,0
290,137,35615,1,0
318,200,35845,1,8
331,232,35961,1,0
391,195,36192,1,8
320,208,36423,1,0
256,292,36769,1,0
288,276,36884,1,8
360,200,37230,1,0
432,204,37461,1,8
420,136,37692,1,0
376,128,37807,1,8
312,152,38038,1,8
276,156,38153,1,8
248,176,38269,5,0
184,208,38500,1,0
284,236,38730,1,8
320,228,38846,1,0
308,296,39076,1,0
380,292,39307,1,0
424,236,39538,1,8
416,204,39653,1,0
388,140,39884,1,8
384,208,40115,1,0
416,204,40346,1,0
392,140,40576,1,8
424,152,40692,1,0
436,220,40923,1,0
424,152,41153,1,8
424,152,41384,1,0
460,160,41500,1,8
424,220,41730,1,8
356,228,41961,1,0
288,240,42192,1,0
344,196,42423,1,8
360,164,42538,1,0
408,212,42769,1,0
460,260,43000,1,0
424,200,43230,1,8
436,168,43346,1,0
436,168,43576,1,8
368,164,43807,1,0
332,164,43923,1,0
296,164,44038,1,0
228,176,44269,1,0
192,180,44384,1,0
156,184,44500,1,0
132,248,44730,1,0
144,280,44846,1,0
144,280,44961,1,0
216,280,45192,1,0
252,280,45307,1,0
288,280,45423,1,0
324,276,45538,1,0
356,260,45653,5,0
300,216,45884,1,0
280,188,46000,1,0
264,156,46115,1,0
300,152,46230,1,8
368,164,46461,1,0
424,204,46692,1,0
452,140,46923,1,8
464,108,47038,1,0
472,176,47269,1,8
404,200,47500,1,0
340,228,47730,1,0
308,240,47846,1,0
276,252,47961,1,0
272,216,48076,1,8
308,156,48307,1,0
364,116,48538,1,8
428,140,48769,1,0
456,160,48884,1,8
444,228,49115,1,8
356,260,49346,1,0
300,216,49577,1,0
280,188,49693,1,0
264,156,49808,1,0
300,152,49923,1,8
368,164,50154,1,0
424,204,50385,1,0
452,140,50616,1,8
368,164,50730,1,0
472,176,50962,1,8
404,200,51192,1,0
340,228,51422,1,0
308,240,51538,1,0
276,252,51653,1,0
272,216,51768,1,8
308,156,51999,1,0
364,116,52230,1,8
328,124,52346,1,0
396,124,52576,1,12
464,160,53038,5,0
400,184,53269,1,0
368,196,53384,1,0
336,208,53500,1,0
336,244,53615,1,8
372,304,53846,1,0
388,236,54076,1,0
408,168,54307,1,8
464,160,54423,1,0
464,196,54538,1,0
428,200,54653,1,8
360,212,54884,1,0
296,236,55115,1,0
264,248,55230,1,0
232,260,55346,1,0
264,244,55461,1,8
316,196,55692,1,0
376,160,55923,1,8
308,160,56153,1,0
332,136,56269,1,8
368,140,56384,1,8
404,144,56500,1,8
464,160,56730,1,0
400,184,56961,1,0
368,196,57076,1,0
336,208,57192,1,0
336,244,57307,1,8
372,304,57538,1,0
388,236,57768,1,0
408,168,57999,1,8
464,160,58115,1,0
464,196,58230,1,0
428,200,58345,1,8
360,208,58576,1,0
324,212,58692,1,0
288,216,58807,1,0
340,172,59038,1,8
464,160,59153,1,0
432,176,59269,1,0
464,160,59500,1,8
428,200,59615,1,0
428,200,59730,1,0
376,248,59961,1,8
344,264,60076,1,8
308,268,60192,1,0
244,252,60423,5,4
277,152,60769,1,4
282,256,61115,1,4
231,207,61346,1,0
203,185,61461,1,0
177,161,61576,1,0
212,160,61692,1,8
269,200,61923,1,0
298,218,62038,1,0
350,171,62269,5,4
418,184,62500,1,0
383,244,62730,1,0
316,264,62961,1,0
251,236,63192,1,0
225,170,63423,1,0
267,114,63653,1,0
335,98,63884,1,0
377,153,64115,1,4
312,180,64346,1,0
324,212,64461,1,0
393,218,64692,1,0
404,185,64807,1,0
314,224,65038,1,0
347,162,65269,1,0
347,162,65500,1,0
408,194,65730,1,0
416,124,65961,1,4
347,139,66192,1,0
277,143,66423,1,0
207,149,66653,1,0
164,204,66884,1,0
187,270,67115,1,0
247,305,67346,1,0
294,253,67576,1,0
348,209,67807,1,4
287,174,68038,1,0
321,172,68153,1,0
390,166,68384,1,0
425,166,68500,1,0
360,179,68730,1,8
394,183,68846,1,8
407,215,68961,1,0
397,248,69076,1,0
366,265,69192,1,0
332,276,69307,1,0
297,284,69423,1,0
263,275,69538,1,0
353,127,69653,5,0
382,190,69883,1,0
412,253,70114,1,8
349,284,70345,1,0
317,298,70460,1,0
247,288,70691,1,0
211,284,70807,1,0
262,237,71037,1,8
239,139,71499,1,0
174,110,71730,1,0
243,107,71960,1,8
310,125,72191,1,0
342,138,72307,1,8
314,202,72537,1,0
375,237,72653,1,0
421,185,72883,1,8
303,262,73345,1,0
232,262,73576,1,0
286,217,73807,1,8
350,191,74037,1,0
421,185,74153,1,0
429,254,74383,1,0
429,254,74499,1,0
415,185,74730,1,8
365,233,74960,1,0
331,223,75076,1,0
332,188,75191,1,8
360,123,75422,1,0
388,143,75537,1,0
419,157,75653,1,8
478,194,75883,1,0
443,185,75999,1,0
419,157,76114,1,8
397,185,76230,1,8
389,219,76345,1,0
379,252,76460,1,0
348,234,76576,1,8
314,223,76691,1,8
279,214,76807,1,8
244,208,76922,1,8
226,177,77037,5,0
191,116,77269,1,0
260,112,77500,1,8
308,162,77731,1,0
341,170,77846,1,0
398,129,78077,1,0
398,129,78192,1,0
429,191,78423,1,8
409,220,78538,1,0
386,246,78654,1,0
356,265,78769,1,0
325,281,78884,1,0
295,217,79115,1,0
322,152,79346,1,8
377,109,79577,1,0
398,129,79692,1,8
455,169,79923,1,0
447,203,80038,1,0
381,178,80269,1,8
346,179,80384,1,8
348,214,80500,1,0
346,248,80615,1,0
342,283,80731,1,0
405,311,80961,1,0
400,241,81192,1,8
365,180,81423,1,0
380,148,81538,1,0
380,148,81769,1,0
380,148,81884,1,0
433,102,82115,1,8
448,133,82231,1,0
441,167,82346,1,0
424,197,82461,1,0
422,232,82577,1,0
351,233,82808,1,0
312,174,83038,1,8
278,163,83154,1,0
341,133,83384,1,8
281,170,83615,1,0
254,192,83731,1,0
322,178,83961,1,8
357,175,84077,1,8
391,179,84192,1,8
425,187,84308,1,8
433,220,84423,5,0
429,150,84654,1,0
447,179,84769,1,0
477,162,84884,1,8
441,163,85000,1,0
390,211,85231,1,0
335,255,85461,1,0
314,226,85577,1,8
279,225,85692,1,0
247,203,85808,1,0
300,158,86038,1,8
335,158,86154,1,0
441,163,86269,1,0
438,233,86500,1,0
428,199,86615,1,8
415,165,86731,1,8
415,165,86846,1,0
369,217,87077,1,0
407,158,87308,1,8
440,168,87423,1,0
426,199,87538,1,0
335,158,87654,1,8
404,163,87884,1,0
438,168,88000,1,8
430,202,88115,1,0
361,187,88346,1,0
326,181,88461,1,0
356,163,88577,1,8
383,141,88692,1,0
435,95,88923,1,0
367,113,89154,1,0
376,146,89269,1,8
346,163,89384,1,0
307,162,89500,1,0
364,198,89731,1,0
379,229,89846,1,0
413,233,89961,1,8
406,163,90192,1,8
441,165,90308,1,0
474,173,90423,1,8
463,206,90538,1,0
443,235,90654,1,0
414,255,90769,1,0
379,194,91000,1,8
368,160,91115,1,0
353,192,91231,1,0
381,172,91346,1,8
381,172,91461,1,8
381,172,91577,1,8
381,172,91692,1,8
381,136,91808,5,0
448,154,92038,1,8
470,181,92154,1,0
504,186,92269,1,8
472,170,92384,1,0
438,231,92615,1,0
368,225,92846,1,0
337,208,92961,1,8
315,235,93076,1,0
350,139,93192,1,0
350,174,93308,1,0
410,173,93423,1,8
420,206,93538,1,0
415,240,93654,1,0
391,174,93884,1,8
420,206,94000,1,0
451,221,94115,1,0
410,173,94231,1,8
388,106,94461,1,0
435,157,94692,1,8
435,157,94808,1,0
381,140,94923,1,0
446,177,95038,1,8
446,177,95154,1,8
446,177,95269,1,0
435,157,95384,1,8
422,189,95500,1,0
359,156,95731,1,8
334,181,95846,1,0
417,149,95961,1,8
415,184,96077,1,0
391,250,96308,1,0
447,208,96538,1,0
390,171,96654,1,8
377,282,96769,1,0
320,166,96884,1,0
417,149,97000,1,8
450,157,97115,1,0
467,187,97231,1,0
435,202,97346,1,8
368,222,97577,1,0
335,234,97692,1,0
349,201,97808,1,8
347,166,97923,1,8
319,187,98038,1,0
354,187,98154,1,8
288,161,98384,1,0
323,161,98500,1,8
357,163,98615,1,0
347,166,98731,1,8
381,171,98846,1,8
377,205,98961,1,0
440,176,99192,5,8
470,159,99307,1,8
467,194,99423,1,0
447,223,99538,1,0
446,188,99653,1,8
430,156,99769,1,8
427,190,99884,1,0
412,222,100000,1,0
389,248,100115,1,0
361,227,100230,1,8
329,211,100346,1,0
296,199,100461,1,0
281,167,100576,1,8
145,202,101038,1,4
321,367,101961,1,4
334,298,102192,1,4
