osu file format v9

[General]
AudioFilename: 3. Invoke magic.mp3
AudioLeadIn: 1500
PreviewTime: 0
Countdown: 0
SampleSet: Normal
StackLeniency: 0.4
Mode: 0
LetterboxInBreaks: 0

[Editor]
Bookmarks: 882,6882,8728,16122,23507,30892,45661,58584,69661,84429,102198
DistanceSpacing: 0
BeatDivisor: 4
GridSize: 8

[Metadata]
Title:Invoke Magic
Artist:Yasuharu Takanashi
Creator:Selee
Version:Spark
Source:Fairy Tail
Tags:Sandpig Sallad4ever Garven lepidopodus lepidon Feari Teiru Hiro Mashima Natsu Gray Lucy Mahou Hatsudou Elsa

[Difficulty]
HPDrainRate:3
CircleSize:4
OverallDifficulty:3
ApproachRate:5
SliderMultiplier:1.2
SliderTickRate:0.5

[Events]
//Background and Video events
0,0,"Fairy_tail1.jpg"
//Break Periods
2,66161,68453
//Storyboard Layer 0 (Background)
//Storyboard Layer 1 (Fail)
//Storyboard Layer 2 (Pass)
//Storyboard Layer 3 (Foreground)
//Storyboard Sound Samples
//Background Colour Transformations
3,100,0,0,0

[TimingPoints]
-500,461.538461538462,4,1,1,80,1,0
1346,-100,4,2,1,90,0,0
6884,-100,4,1,1,80,0,1
8520,-100,4,2,0,91,0,1
8736,-100,4,1,1,80,0,0
14609,-100,4,1,1,59,0,0
14840,-100,4,1,1,80,0,0
16108,-100,4,1,1,80,0,1
16223,-100,4,1,1,80,0,0
21416,-100,4,1,1,60,0,0
21531,-100,4,1,1,80,0,0
22108,-100,4,1,1,60,0,0
22223,-100,4,1,1,82,0,0
23377,-100,4,1,1,60,0,0
23493,-100,4,1,1,100,0,1
23608,-100,4,1,1,100,0,0
23723,-100,4,1,1,80,0,0
28800,-100,4,1,1,70,0,0
29031,-100,4,1,1,89,0,1
30877,-100,4,1,1,67,0,0
41954,-100,4,1,1,59,0,0
42069,-100,4,1,1,75,0,0
43800,-100,4,1,1,76,0,1
44262,-100,4,1,1,65,0,1
44723,-100,4,1,1,68,0,1
45646,-100,4,1,1,71,0,0
58569,-100,4,1,1,74,0,1
62262,-100,4,1,1,74,0,0
69636,-100,4,2,1,100,0,0
74723,-100,4,2,0,100,0,0
75185,-100,4,1,1,100,0,1
76569,-100,4,1,1,75,0,1
77031,-100,4,1,1,75,0,0
82569,-100,4,1,1,100,0,0
83031,-100,4,1,1,70,0,0
83146,-100,4,1,1,76,0,0
84416,-100,4,1,1,76,0,1
84531,-100,4,1,1,76,0,0
87646,-100,4,1,1,63,0,0
87762,-100,4,1,1,74,0,0
89493,-100,4,1,1,64,0,0
89608,-100,4,1,1,76,0,0
89723,-100,4,1,1,56,0,0
89839,-100,4,1,1,74,0,0
91800,-100,4,1,1,74,0,1
95031,-100,4,1,1,59,0,1
95146,-100,4,1,1,74,0,1
95954,-100,4,1,1,50,0,1
96069,-100,4,1,1,74,0,1
99192,-100,4,1,1,59,0,1
99307,-100,4,1,1,76,0,1
101031,-133.333333333333,4,1,1,75,0,0

[Colours]
Combo1 : 255,20,20
Combo2 : 128,128,255
Combo3 : 175,175,175
Combo4 : 225,225,0

[HitObjects]
120,80,884,1,0
40,176,1346,2,0,B|72:184|107:216,1,60,0|2
134,246,1807,1,2
175,289,2038,2,0,B|192:324,1,30,0|2
243,292,2384,2,0,B|276:301,1,30,0|2
331,305,2730,1,2
389,294,2961,1,0
466,209,3192,6,0,B|438:232|401:228,1,60,0|2
350,223,3653,2,0,B|291:214|243:192,1,90,2|0
207,179,4230,2,0,B|172:160,1,30,0|2
129,133,4576,2,0,B|90:105,2,30,0|2|0
121,192,5038,6,0,B|89:235|36:249,2,90,0|2|2
163,149,5961,1,0
203,104,6192,2,0,B|230:89|244:33,1,60,2|2
279,98,6653,1,0
284,156,6884,6,2,B|298:183|307:235,1,60,6|0
247,241,7346,2,2,B|256:276|255:322,1,60
193,293,7807,2,0,B|189:328|179:366,1,60,0|6
124,356,8269,2,0,B|96:374,2,30,0|2|2
41,313,8730,6,0,B|99:297|148:224,1,120,4|10
119,153,9538,2,0,B|115:118|144:92,1,60,0|10
166,89,9884,2,0,B|201:91|237:65,1,60,0|2
337,111,10576,6,0,B|387:143,1,60,0|2
348,190,11038,2,0,B|391:217|419:267,1,90,10|0
317,304,11730,2,0,B|296:333|256:334,1,60,10|10
206,332,12192,1,8
165,287,12423,6,0,B|135:238|71:212,1,120,0|2
76,123,13230,2,0,B|111:156|150:172,1,90,0|8
209,186,13807,1,10
256,41,14269,6,0,B|256:172,1,120,4|6
414,216,15076,6,0,B|363:220|333:261,1,90,0|2
336,256,15653,1,10
336,256,15884,1,8
236,287,16115,6,0,B|240:245|280:226,1,60,0|2
307,194,16576,1,0
340,144,16807,2,0,B|334:94|298:66,1,90,2|0
238,134,17500,2,0,B|230:169|198:189,1,60,10|0
154,162,17961,5,0
96,146,18192,1,2
52,187,18423,1,8
0,169,18653,2,0,B|36:218|48:281,1,120,2|0
30,333,19346,2,2,B|73:318|111:330,1,60,6|10
148,321,19807,21,0
208,321,20038,1,2
266,333,20269,1,8
315,367,20500,2,0,B|351:329|412:326,1,90,2|0
393,327,20961,2,2,B|416:302|410:257,1,60,10|2
387,215,21423,1,4
331,192,21653,37,6
181,192,22115,1,6
84,53,22807,5,0
50,106,23038,1,10
88,152,23269,1,10
54,202,23500,2,0,B|108:256|136:313,1,120,4|10
204,250,24307,2,0,B|244:235|316:231,1,90,0|10
352,235,24883,1,10
409,253,25115,1,0
461,224,25346,6,0,B|436:166|353:147,1,120,4|10
282,133,26153,2,0,B|243:159|178:154,1,90,0|10
136,163,26730,1,6
76,167,26961,1,0
28,203,27192,6,0,B|97:250,1,60,0|10
121,277,27653,2,0,B|170:306|196:357,2,90,2|0|2
169,242,28576,2,0,B|249:240,1,60,10|4
289,240,29038,5,4
406,263,29500,2,2,B|440:297|494:311,1,90,2|4
512,213,30192,2,2,B|483:208|457:186,1,60,2|10
414,146,30653,1,0
375,100,30884,6,2,B|321:130|321:130|240:147,1,120,2|8
213,110,31576,2,2,B|156:132|156:132|107:168,1,120,2|2
108,166,32269,1,8
108,166,32500,1,8
63,208,32730,6,2,B|96:241|96:241|136:255|174:281,1,120,2|8
222,274,33423,2,2,B|247:256|287:242|287:242|320:209,1,120,2|2
368,172,34115,2,0,B|450:162,2,60,8|8|6
441,76,35038,5,0
384,96,35269,1,10
280,70,35730,2,2,B|253:63|253:63|202:56,1,60,2|0
163,76,36192,1,10
115,113,36423,6,0,B|80:160|64:234,1,120,2|8
23,180,37115,2,0,B|17:236|-4:291,1,90,2|2
26,323,37692,2,0,B|33:356,3,30,0|6|0|2
72,307,38269,6,0,B|113:273|185:272,1,120,6|8
139,193,39076,2,0,B|187:186|220:143,1,90,2|2
218,89,39653,2,0,B|240:63|279:42,1,60,10|0
325,39,40115,6,0,B|335:100|335:100|365:162,1,120,2|8
273,177,40923,2,0,B|265:226|265:226|244:268,1,90,2|2
258,320,41500,2,0,B|179:357,1,60,8|2
151,315,41961,5,6
110,201,42423,2,0,B|94:171|56:144,1,60,8|2
123,45,43115,1,2
154,96,43346,2,0,B|170:129|205:134,1,60,8|2
217,189,43807,6,0,B|196:224|149:231,1,60,12|0
187,283,44269,2,0,B|223:305|227:340,1,60,12|0
284,331,44730,2,0,B|291:297|318:281,1,60,12|0
340,225,45192,2,0,B|311:217|293:188,1,60,12|0
248,150,45653,6,2,B|125:91|372:94|264:21,1,180,6|0
417,39,46807,5,0
447,90,47038,1,10
471,144,47269,1,0
473,204,47500,2,2,B|462:308|354:351,1,180,2|0
246,349,48653,5,0
185,347,48884,1,10
128,326,49115,1,0
83,285,49346,2,2,B|42:187|123:111,1,180,2|0
228,80,50500,5,0
287,81,50730,2,2,B|320:87|344:105,1,60,10|10
379,151,51192,2,2,B|298:176|256:304,2,180,2|2|4
423,39,53038,6,2,B|354:12|236:12|124:64|92:136,1,360,2|8
55,222,54884,2,2,B|176:320|260:229|404:353,1,360,2|8
448,332,56500,1,8
467,277,56730,2,2,B|365:240|351:145,2,180,2|2|4
454,157,58576,6,0,B|481:165,2,30,6|0|0
422,108,59038,2,0,B|443:87,2,30,6|0|0
361,127,59500,2,0,B|331:122,2,30,6|0|0
362,185,59961,2,0,B|343:207,2,30,6|0|0
419,204,60423,6,0,B|420:252|388:288,2,90,10|0|2
475,182,61346,2,0,B|472:132|502:93,2,90,10|0|2
475,182,62269,1,12
256,192,62384,12,4,65961
208,96,69653,6,0,B|248:64|344:56,1,120,0|2
411,214,70807,6,0,B|376:236|360:284,2,60,0|2|0
432,156,71500,2,0,B|368:148|289:176,1,120,0|2
133,165,72653,5,0
190,180,72883,1,2
245,202,73114,1,0
298,230,73346,2,0,B|361:267|402:332,1,120,0|2
256,96,74500,6,0,B|256:36,1,60,0|4
216,192,75192,6,0,B|173:217,2,30,6|0|0
296,192,75653,2,0,B|339:217,2,30,6|0|0
256,232,76115,2,0,B|256:272,2,30,6|0|0
256,160,76576,2,2,B|256:17,1,120,2|4
57,53,77500,5,10
106,117,77846,2,0,B|137:146|154:188,1,60,0|2
142,164,78192,2,0,B|164:201|193:214,1,60,0|10
104,299,78884,5,0
155,267,79115,1,2
212,249,79346,1,10
256,327,79692,2,0,B|304:294|367:321,1,90,0|2
400,324,80269,2,2,B|359:277|349:215,1,120,2|0
424,93,81192,5,10
347,46,81538,2,2,B|287:42|236:62,1,90,0|2
202,78,82115,1,10
184,196,82576,5,6
128,298,83038,1,6
256,288,83384,2,0,B|278:246|243:174,1,90,2|0
224,148,83961,1,10
196,94,84192,1,10
237,50,84423,6,0,B|304:70|352:133,1,120,4|10
379,72,85115,2,0,B|409:126|482:156,1,120,0|10
497,201,85807,2,0,B|479:239|436:246,1,60,10|0
432,297,86269,6,0,B|490:318,2,60,0|2|8
377,277,86961,2,0,B|307:258|236:277,1,120,2|0
258,271,87653,1,14
258,271,87884,1,0
204,298,88115,6,0,B|156:268|146:182,1,120,4|10
88,200,88807,2,0,B|61:140|80:80,1,120,0|2
121,40,89500,2,2,B|159:93,1,60,14|4
190,138,89961,5,2
288,68,90423,1,4
288,68,90653,1,2
389,132,91115,1,0
389,132,91346,1,10
389,132,91576,1,10
434,170,91807,6,0,B|448:229|453:289,1,120,6|8
396,308,92500,2,0,B|412:361|462:368,2,90,2|2|8
368,254,93423,1,8
337,202,93653,6,0,B|316:284|261:321,1,120,2|8
229,231,94461,2,0,B|184:264|133:281,1,90,2|0
90,281,95038,2,0,B|54:289|16:251,1,60,14|8
1,215,95500,5,2
36,167,95730,1,0
92,146,95961,2,0,B|139:157|203:162,1,90,14|0
270,160,96653,2,2,B|290:140|353:138,1,60,2|10
376,172,97115,2,0,B|389:210|368:248,1,60,8|4
369,66,97807,6,0,B|410:56|461:24,2,90,12|2|0
311,84,98730,2,2,B|254:98,1,60,6|2
195,117,99192,5,6
134,115,99423,1,0
75,104,99653,1,10
18,84,99884,1,10
51,133,100115,1,12
78,186,100346,1,2
101,241,100576,1,12
177,317,101038,6,0,B|259:270|312:184,1,179.999994635582,2|8
305,193,102192,1,8
