osu file format v12

[General]
AudioFilename: Yasuharu Takanashi - Fire Dragon Vs. Flame God.mp3
AudioLeadIn: 0
PreviewTime: 49671
Countdown: 0
SampleSet: Soft
StackLeniency: 0.7
Mode: 3
LetterboxInBreaks: 0
SpecialStyle: 0
WidescreenStoryboard: 1

[Editor]
DistanceSpacing: 1.2
BeatDivisor: 8
GridSize: 8

[Metadata]
Title:Fire Dragon Vs. Flame God
TitleUnicode:Fire Dragon Vs. Flame God
Artist:Yasuharu Takanashi
ArtistUnicode:Yasuharu Takanashi
Creator:AngelFault
Version:Hard
Source:Fairy Tail
Tags:Yasuharu Takanashi Fairy Tail Fire Dragon Vs. Flame God Natsu Erza Gray Lucy
BeatmapID:350343
BeatmapSetID:140211

[Difficulty]
HPDrainRate:7
CircleSize:4
OverallDifficulty:7
ApproachRate:5
SliderMultiplier:1.5
SliderTickRate:1

[Events]
//Background and Video events
0,0,"Natsu.jpg",0,0
//Break Periods
//Storyboard Layer 0 (Background)
//Storyboard Layer 1 (Fail)
//Storyboard Layer 2 (Pass)
//Storyboard Layer 3 (Foreground)
//Storyboard Sound Samples
//Background Colour Transformations
3,100,163,162,255

[TimingPoints]
300,342.857142857143,4,2,0,20,1,0

[HitObjects]
192,192,300,128,0,471:0:0:0:0:
64,192,300,1,0,0:0:0:0:
448,192,642,128,0,814:0:0:0:0:
320,192,642,1,0,0:0:0:0:
320,192,985,128,0,1157:0:0:0:0:
64,192,985,1,0,0:0:0:0:
448,192,1328,1,0,0:0:0:0:
192,192,1500,128,0,1671:0:0:0:0:
64,192,1500,1,0,0:0:0:0:
320,192,1671,128,0,1842:0:0:0:0:
448,192,1671,1,0,0:0:0:0:
192,192,1842,1,0,0:0:0:0:
64,192,2014,128,0,2185:0:0:0:0:
448,192,2014,1,0,0:0:0:0:
448,192,2357,128,0,2528:0:0:0:0:
320,192,2357,1,0,0:0:0:0:
320,192,2700,1,0,0:0:0:0:
192,192,2871,128,0,3042:0:0:0:0:
64,192,2871,1,0,0:0:0:0:
448,192,3042,128,0,3728:0:0:0:0:
320,192,3042,1,0,0:0:0:0:
320,192,3728,1,0,0:0:0:0:
192,192,3900,1,0,0:0:0:0:
320,192,4071,1,0,0:0:0:0:
64,192,4242,128,0,4928:0:0:0:0:
192,192,4242,1,0,0:0:0:0:
320,192,4928,1,0,0:0:0:0:
448,192,5100,1,0,0:0:0:0:
192,192,5271,1,0,0:0:0:0:
320,192,5442,1,0,0:0:0:0:
64,192,5614,1,0,0:0:0:0:
448,192,5785,128,0,5957:0:0:0:0:
320,192,5785,1,0,0:0:0:0:
64,192,6128,128,0,6300:0:0:0:0:
192,192,6128,1,0,0:0:0:0:
320,192,6471,128,0,6642:0:0:0:0:
192,192,6471,1,0,0:0:0:0:
64,192,6814,1,0,0:0:0:0:
320,192,6985,128,0,7157:0:0:0:0:
448,192,6985,1,0,0:0:0:0:
192,192,7157,128,0,7328:0:0:0:0:
64,192,7157,1,0,0:0:0:0:
320,192,7328,1,0,0:0:0:0:
192,192,7500,128,0,7671:0:0:0:0:
448,192,7500,1,0,0:0:0:0:
64,192,7842,128,0,8014:0:0:0:0:
320,192,7842,1,0,0:0:0:0:
448,192,8185,1,0,0:0:0:0:
448,192,8357,128,0,9385:0:0:0:0:
64,192,8357,1,0,0:0:0:0:
320,192,9385,128,0,9557:0:0:0:0:
192,192,9385,1,0,0:0:0:0:
192,192,9557,128,0,9728:0:0:0:0:
64,192,9557,1,0,0:0:0:0:
64,192,9728,128,0,10414:0:0:0:0:
448,192,9728,1,0,0:0:0:0:
192,192,10414,128,0,11100:0:0:0:0:
320,192,10414,1,0,0:0:0:0:
448,192,11100,1,0,0:0:0:0:
192,192,11271,128,0,11442:0:0:0:0:
64,192,11271,1,0,0:0:0:0:
448,192,11614,128,0,11785:0:0:0:0:
320,192,11614,1,0,0:0:0:0:
192,192,11957,128,0,12128:0:0:0:0:
320,192,11957,1,0,0:0:0:0:
192,192,12300,1,0,0:0:0:0:
320,192,12471,128,0,12642:0:0:0:0:
64,192,12471,1,0,0:0:0:0:
448,192,12642,128,0,12814:0:0:0:0:
192,192,12642,1,0,0:0:0:0:
320,192,12814,1,0,0:0:0:0:
320,192,12985,128,0,13157:0:0:0:0:
64,192,12985,1,0,0:0:0:0:
192,192,13328,128,0,13500:0:0:0:0:
64,192,13328,1,0,0:0:0:0:
320,192,13671,1,0,0:0:0:0:
64,192,13842,128,0,14871:0:0:0:0:
448,192,13842,1,0,0:0:0:0:
192,192,14871,128,0,15042:0:0:0:0:
320,192,14871,1,0,0:0:0:0:
320,192,15042,128,0,15214:0:0:0:0:
64,192,15042,1,0,0:0:0:0:
64,192,15214,128,0,15900:0:0:0:0:
448,192,15214,1,0,0:0:0:0:
192,192,15900,128,0,16757:0:0:0:0:
320,192,15900,1,0,0:0:0:0:
448,192,16757,128,0,17442:0:0:0:0:
64,192,16757,1,0,0:0:0:0:
320,192,17442,1,0,0:0:0:0:
192,192,17614,1,0,0:0:0:0:
448,192,17785,1,0,0:0:0:0:
320,192,17957,1,0,0:0:0:0:
192,192,18128,1,0,0:0:0:0:
320,192,18300,1,0,0:0:0:0:
64,192,18471,1,0,0:0:0:0:
448,192,18642,1,0,0:0:0:0:
320,192,18814,1,0,0:0:0:0:
64,192,18985,1,0,0:0:0:0:
448,192,19157,1,0,0:0:0:0:
192,192,19328,1,0,0:0:0:0:
64,192,19500,1,0,0:0:0:0:
448,192,19671,1,0,0:0:0:0:
192,192,19842,1,0,0:0:0:0:
320,192,20014,1,0,0:0:0:0:
448,192,20185,1,0,0:0:0:0:
64,192,20357,1,0,0:0:0:0:
320,192,20528,1,0,0:0:0:0:
64,192,20700,1,0,0:0:0:0:
192,192,20871,1,0,0:0:0:0:
448,192,21042,1,0,0:0:0:0:
320,192,21214,1,0,0:0:0:0:
64,192,21385,1,0,0:0:0:0:
192,192,21557,1,0,0:0:0:0:
448,192,21728,1,0,0:0:0:0:
192,192,21900,1,0,0:0:0:0:
320,192,22071,1,0,0:0:0:0:
64,192,22242,128,0,22585:0:0:0:0:
192,192,22242,1,0,0:0:0:0:
192,192,22585,128,0,22757:0:0:0:0:
320,192,22585,1,0,0:0:0:0:
320,192,22757,128,0,22928:0:0:0:0:
448,192,22757,1,0,0:0:0:0:
448,192,22928,128,0,23271:0:0:0:0:
64,192,22928,1,0,0:0:0:0:
192,192,23271,128,0,23614:0:0:0:0:
320,192,23271,1,0,0:0:0:0:
448,192,23614,128,0,23957:0:0:0:0:
64,192,23614,1,0,0:0:0:0:
320,192,23957,128,0,24128:0:0:0:0:
64,192,23957,1,0,0:0:0:0:
192,192,24128,128,0,24300:0:0:0:0:
448,192,24128,1,0,0:0:0:0:
64,192,24300,128,0,24642:0:0:0:0:
320,192,24300,1,0,0:0:0:0:
192,192,24642,128,0,24985:0:0:0:0:
448,192,24642,1,0,0:0:0:0:
448,192,24985,128,0,25328:0:0:0:0:
64,192,24985,1,0,0:0:0:0:
320,192,25328,128,0,25500:0:0:0:0:
192,192,25328,1,0,0:0:0:0:
192,192,25500,128,0,25671:0:0:0:0:
64,192,25500,1,0,0:0:0:0:
64,192,25671,128,0,26014:0:0:0:0:
448,192,25671,1,0,0:0:0:0:
320,192,26014,128,0,26357:0:0:0:0:
192,192,26014,1,0,0:0:0:0:
448,192,26357,128,0,26700:0:0:0:0:
64,192,26357,1,0,0:0:0:0:
320,192,26700,128,0,26871:0:0:0:0:
192,192,26700,1,0,0:0:0:0:
192,192,26871,128,0,27042:0:0:0:0:
64,192,26871,1,0,0:0:0:0:
64,192,27042,128,0,27385:0:0:0:0:
448,192,27042,1,0,0:0:0:0:
320,192,27385,128,0,27728:0:0:0:0:
192,192,27385,1,0,0:0:0:0:
192,192,27728,128,0,28071:0:0:0:0:
448,192,27728,1,0,0:0:0:0:
320,192,28071,128,0,28242:0:0:0:0:
64,192,28071,1,0,0:0:0:0:
64,192,28242,128,0,28414:0:0:0:0:
448,192,28242,1,0,0:0:0:0:
448,192,28414,128,0,28757:0:0:0:0:
320,192,28414,1,0,0:0:0:0:
64,192,28757,128,0,29100:0:0:0:0:
192,192,28757,1,0,0:0:0:0:
320,192,29100,128,0,29442:0:0:0:0:
448,192,29100,1,0,0:0:0:0:
64,192,29442,128,0,29614:0:0:0:0:
192,192,29442,1,0,0:0:0:0:
192,192,29614,128,0,29785:0:0:0:0:
320,192,29614,1,0,0:0:0:0:
320,192,29785,128,0,30128:0:0:0:0:
448,192,29785,1,0,0:0:0:0:
448,192,30128,128,0,30471:0:0:0:0:
192,192,30128,1,0,0:0:0:0:
64,192,30471,128,0,30814:0:0:0:0:
320,192,30471,1,0,0:0:0:0:
448,192,30814,128,0,30985:0:0:0:0:
320,192,30814,1,0,0:0:0:0:
320,192,30985,128,0,31157:0:0:0:0:
192,192,30985,1,0,0:0:0:0:
192,192,31157,128,0,31500:0:0:0:0:
64,192,31157,1,0,0:0:0:0:
448,192,31500,128,0,31842:0:0:0:0:
320,192,31500,1,0,0:0:0:0:
320,192,31842,128,0,32185:0:0:0:0:
64,192,31842,1,0,0:0:0:0:
192,192,32185,128,0,32357:0:0:0:0:
448,192,32185,1,0,0:0:0:0:
64,192,32357,128,0,32528:0:0:0:0:
320,192,32357,1,0,0:0:0:0:
448,192,32528,128,0,32700:0:0:0:0:
192,192,32528,1,0,0:0:0:0:
320,192,32700,128,0,32871:0:0:0:0:
64,192,32700,1,0,0:0:0:0:
192,192,32871,128,0,33042:0:0:0:0:
448,192,32871,1,0,0:0:0:0:
64,192,33042,128,0,33214:0:0:0:0:
320,192,33042,1,0,0:0:0:0:
192,192,33214,128,0,33557:0:0:0:0:
448,192,33214,1,0,0:0:0:0:
320,192,33557,128,0,33728:0:0:0:0:
64,192,33557,1,0,0:0:0:0:
448,192,33728,128,0,33900:0:0:0:0:
192,192,33728,1,0,0:0:0:0:
192,192,33900,128,0,34242:0:0:0:0:
320,192,33900,1,0,0:0:0:0:
320,192,34242,128,0,34585:0:0:0:0:
64,192,34242,1,0,0:0:0:0:
448,192,34585,128,0,34928:0:0:0:0:
192,192,34585,1,0,0:0:0:0:
320,192,34928,128,0,35100:0:0:0:0:
64,192,34928,1,0,0:0:0:0:
192,192,35100,128,0,35271:0:0:0:0:
448,192,35100,1,0,0:0:0:0:
64,192,35271,128,0,35614:0:0:0:0:
320,192,35271,1,0,0:0:0:0:
320,192,35614,128,0,35957:0:0:0:0:
448,192,35614,1,0,0:0:0:0:
192,192,35957,128,0,36300:0:0:0:0:
64,192,35957,1,0,0:0:0:0:
448,192,36300,128,0,36471:0:0:0:0:
64,192,36300,1,0,0:0:0:0:
320,192,36471,128,0,36642:0:0:0:0:
192,192,36471,1,0,0:0:0:0:
192,192,36642,128,0,36985:0:0:0:0:
64,192,36642,1,0,0:0:0:0:
320,192,36985,128,0,37328:0:0:0:0:
448,192,36985,1,0,0:0:0:0:
448,192,37328,128,0,37671:0:0:0:0:
64,192,37328,1,0,0:0:0:0:
320,192,37671,128,0,37842:0:0:0:0:
64,192,37671,1,0,0:0:0:0:
448,192,37842,128,0,38014:0:0:0:0:
192,192,37842,1,0,0:0:0:0:
64,192,38014,128,0,38357:0:0:0:0:
320,192,38014,1,0,0:0:0:0:
448,192,38357,128,0,38700:0:0:0:0:
192,192,38357,1,0,0:0:0:0:
64,192,38700,128,0,39042:0:0:0:0:
320,192,38700,1,0,0:0:0:0:
192,192,39042,128,0,39214:0:0:0:0:
320,192,39042,1,0,0:0:0:0:
320,192,39214,128,0,39385:0:0:0:0:
64,192,39214,1,0,0:0:0:0:
448,192,39385,128,0,39728:0:0:0:0:
192,192,39385,1,0,0:0:0:0:
64,192,39728,128,0,40071:0:0:0:0:
192,192,39728,1,0,0:0:0:0:
192,192,40071,128,0,40414:0:0:0:0:
320,192,40071,1,0,0:0:0:0:
320,192,40414,128,0,40585:0:0:0:0:
448,192,40414,1,0,0:0:0:0:
64,192,40585,128,0,40757:0:0:0:0:
192,192,40585,1,0,0:0:0:0:
192,192,40757,128,0,41100:0:0:0:0:
320,192,40757,1,0,0:0:0:0:
448,192,41100,128,0,41442:0:0:0:0:
64,192,41100,1,0,0:0:0:0:
320,192,41442,128,0,41785:0:0:0:0:
192,192,41442,1,0,0:0:0:0:
64,192,41785,128,0,41957:0:0:0:0:
448,192,41785,1,0,0:0:0:0:
192,192,41957,128,0,42128:0:0:0:0:
320,192,41957,1,0,0:0:0:0:
320,192,42128,128,0,42471:0:0:0:0:
64,192,42128,1,0,0:0:0:0:
192,192,42471,128,0,42814:0:0:0:0:
448,192,42471,1,0,0:0:0:0:
448,192,42814,128,0,43157:0:0:0:0:
320,192,42814,1,0,0:0:0:0:
320,192,43157,128,0,43328:0:0:0:0:
64,192,43157,1,0,0:0:0:0:
192,192,43328,128,0,43500:0:0:0:0:
448,192,43328,1,0,0:0:0:0:
64,192,43500,128,0,43671:0:0:0:0:
320,192,43500,1,0,0:0:0:0:
448,192,43671,128,0,43842:0:0:0:0:
192,192,43671,1,0,0:0:0:0:
320,192,43842,128,0,44014:0:0:0:0:
64,192,43842,1,0,0:0:0:0:
192,192,44014,128,0,44185:0:0:0:0:
448,192,44014,1,0,0:0:0:0:
320,192,44185,1,0,0:0:0:0:
64,192,44357,1,0,0:0:0:0:
320,192,44528,1,0,0:0:0:0:
192,192,44700,128,0,44871:0:0:0:0:
64,192,44700,128,0,44871:0:0:0:0:
64,192,45042,1,0,0:0:0:0:
192,192,45214,1,0,0:0:0:0:
448,192,45385,128,0,45557:0:0:0:0:
320,192,45385,128,0,45557:0:0:0:0:
192,192,45728,1,0,0:0:0:0:
320,192,45900,1,0,0:0:0:0:
64,192,46071,1,0,0:0:0:0:
192,192,46242,1,0,0:0:0:0:
448,192,46414,1,0,0:0:0:0:
320,192,46585,1,0,0:0:0:0:
192,192,46757,1,0,0:0:0:0:
448,192,46928,1,0,0:0:0:0:
64,192,47100,1,0,0:0:0:0:
448,192,47271,1,0,0:0:0:0:
64,192,47442,128,0,47614:0:0:0:0:
192,192,47442,128,0,47614:0:0:0:0:
320,192,47785,1,0,0:0:0:0:
448,192,47957,1,0,0:0:0:0:
192,192,48128,128,0,48300:0:0:0:0:
64,192,48128,128,0,48300:0:0:0:0:
320,192,48471,1,0,0:0:0:0:
64,192,48642,1,0,0:0:0:0:
448,192,48814,1,0,0:0:0:0:
192,192,48985,1,0,0:0:0:0:
320,192,49157,1,0,0:0:0:0:
64,192,49328,1,0,0:0:0:0:
320,192,49500,1,0,0:0:0:0:
64,192,49671,128,0,50014:0:0:0:0:
448,192,49671,1,0,0:0:0:0:
192,192,50014,128,0,50185:0:0:0:0:
320,192,50014,1,0,0:0:0:0:
320,192,50185,128,0,50528:0:0:0:0:
64,192,50185,1,0,0:0:0:0:
192,192,50528,1,0,0:0:0:0:
320,192,50700,1,0,0:0:0:0:
448,192,51042,128,0,51385:0:0:0:0:
320,192,51042,1,0,0:0:0:0:
320,192,51385,128,0,51557:0:0:0:0:
64,192,51385,1,0,0:0:0:0:
192,192,51557,128,0,51900:0:0:0:0:
448,192,51557,1,0,0:0:0:0:
64,192,51900,1,0,0:0:0:0:
192,192,52071,1,0,0:0:0:0:
320,192,52242,1,0,0:0:0:0:
64,192,52414,128,0,52757:0:0:0:0:
448,192,52414,1,0,0:0:0:0:
192,192,52757,128,0,52928:0:0:0:0:
448,192,52757,1,0,0:0:0:0:
320,192,52928,128,0,53271:0:0:0:0:
64,192,52928,1,0,0:0:0:0:
192,192,53271,1,0,0:0:0:0:
320,192,53442,1,0,0:0:0:0:
448,192,53785,128,0,54128:0:0:0:0:
192,192,53785,1,0,0:0:0:0:
320,192,54128,128,0,54300:0:0:0:0:
64,192,54128,1,0,0:0:0:0:
192,192,54300,128,0,54642:0:0:0:0:
448,192,54300,1,0,0:0:0:0:
320,192,54642,1,0,0:0:0:0:
192,192,54814,1,0,0:0:0:0:
64,192,54985,1,0,0:0:0:0:
448,192,55157,1,0,0:0:0:0:
192,192,55329,1,0,0:0:0:0:
320,192,55500,1,0,0:0:0:0:
192,192,55671,128,0,55842:0:0:0:0:
64,192,55672,128,0,55843:0:0:0:0:
448,192,55842,1,0,0:0:0:0:
320,192,56014,1,0,0:0:0:0:
64,192,56185,1,0,0:0:0:0:
448,192,56357,128,0,56529:0:0:0:0:
320,192,56357,128,0,56528:0:0:0:0:
192,192,56700,1,0,0:0:0:0:
320,192,56872,1,0,0:0:0:0:
64,192,57043,1,0,0:0:0:0:
320,192,57214,1,0,0:0:0:0:
448,192,57386,1,0,0:0:0:0:
320,192,57557,1,0,0:0:0:0:
192,192,57729,1,0,0:0:0:0:
320,192,57900,1,0,0:0:0:0:
64,192,58072,1,0,0:0:0:0:
448,192,58243,1,0,0:0:0:0:
64,192,58414,128,0,58586:0:0:0:0:
192,192,58414,128,0,58585:0:0:0:0:
320,192,58757,1,0,0:0:0:0:
448,192,58929,1,0,0:0:0:0:
192,192,59100,128,0,59272:0:0:0:0:
320,192,59100,128,0,59271:0:0:0:0:
448,192,59442,1,0,0:0:0:0:
64,192,59614,1,0,0:0:0:0:
320,192,59785,1,0,0:0:0:0:
192,192,59957,1,0,0:0:0:0:
320,192,60128,1,0,0:0:0:0:
64,192,60300,1,0,0:0:0:0:
192,192,60472,1,0,0:0:0:0:
448,192,60642,128,0,62014:0:0:0:0:
320,192,60642,1,0,0:0:0:0:
320,192,62014,128,0,63385:0:0:0:0:
192,192,62014,1,0,0:0:0:0:
192,192,63385,128,0,64757:0:0:0:0:
64,192,63385,1,0,0:0:0:0:
64,192,64757,128,0,64928:0:0:0:0:
448,192,64757,1,0,0:0:0:0:
320,192,64928,128,0,65100:0:0:0:0:
192,192,64928,1,0,0:0:0:0:
448,192,65100,128,0,65271:0:0:0:0:
64,192,65100,1,0,0:0:0:0:
64,192,65271,128,0,65442:0:0:0:0:
320,192,65271,1,0,0:0:0:0:
192,192,65442,128,0,65614:0:0:0:0:
448,192,65442,1,0,0:0:0:0:
320,192,65614,128,0,65785:0:0:0:0:
64,192,65614,1,0,0:0:0:0:
448,192,65785,128,0,65957:0:0:0:0:
192,192,65785,1,0,0:0:0:0:
320,192,65957,1,0,0:0:0:0:
64,192,66128,128,0,66985:0:0:0:0:
192,192,66128,1,0,0:0:0:0:
192,192,66985,128,0,67157:0:0:0:0:
448,192,66985,1,0,0:0:0:0:
320,192,67157,128,0,67328:0:0:0:0:
64,192,67157,1,0,0:0:0:0:
448,192,67328,128,0,67500:0:0:0:0:
192,192,67328,1,0,0:0:0:0:
64,192,67500,128,0,68357:0:0:0:0:
320,192,67500,1,0,0:0:0:0:
448,192,68357,128,0,68528:0:0:0:0:
320,192,68357,1,0,0:0:0:0:
320,192,68528,128,0,68700:0:0:0:0:
192,192,68528,1,0,0:0:0:0:
192,192,68700,128,0,68871:0:0:0:0:
64,192,68700,1,0,0:0:0:0:
448,192,68871,128,0,69728:0:0:0:0:
320,192,68871,1,0,0:0:0:0:
64,192,69728,128,0,69900:0:0:0:0:
320,192,69728,1,0,0:0:0:0:
320,192,69900,128,0,70071:0:0:0:0:
192,192,69900,1,0,0:0:0:0:
192,192,70071,128,0,70242:0:0:0:0:
448,192,70071,1,0,0:0:0:0:
448,192,70242,128,0,70414:0:0:0:0:
320,192,70242,1,0,0:0:0:0:
64,192,70414,128,0,70585:0:0:0:0:
192,192,70414,1,0,0:0:0:0:
320,192,70585,128,0,70757:0:0:0:0:
448,192,70585,1,0,0:0:0:0:
64,192,70757,128,0,70928:0:0:0:0:
192,192,70757,1,0,0:0:0:0:
192,192,70928,128,0,71100:0:0:0:0:
320,192,70928,1,0,0:0:0:0:
448,192,71100,128,0,71271:0:0:0:0:
64,192,71100,1,0,0:0:0:0:
320,192,71271,128,0,71442:0:0:0:0:
192,192,71271,1,0,0:0:0:0:
64,192,71442,128,0,71614:0:0:0:0:
448,192,71442,1,0,0:0:0:0:
448,192,71614,128,0,72471:0:0:0:0:
320,192,71614,1,0,0:0:0:0:
192,192,72471,128,0,72642:0:0:0:0:
320,192,72471,1,0,0:0:0:0:
320,192,72642,128,0,72814:0:0:0:0:
64,192,72642,1,0,0:0:0:0:
64,192,72814,128,0,72985:0:0:0:0:
448,192,72814,1,0,0:0:0:0:
320,192,72985,128,0,73842:0:0:0:0:
192,192,72985,1,0,0:0:0:0:
448,192,73842,128,0,74014:0:0:0:0:
192,192,73842,1,0,0:0:0:0:
192,192,74014,128,0,74185:0:0:0:0:
320,192,74014,1,0,0:0:0:0:
64,192,74185,128,0,74357:0:0:0:0:
448,192,74185,1,0,0:0:0:0:
320,192,74357,128,0,75214:0:0:0:0:
192,192,74357,1,0,0:0:0:0:
64,192,75214,128,0,75385:0:0:0:0:
448,192,75214,1,0,0:0:0:0:
448,192,75385,128,0,75557:0:0:0:0:
192,192,75385,1,0,0:0:0:0:
192,192,75557,128,0,75728:0:0:0:0:
320,192,75557,1,0,0:0:0:0:
320,192,75728,128,0,75900:0:0:0:0:
64,192,75728,1,0,0:0:0:0:
448,192,75900,128,0,76071:0:0:0:0:
192,192,75900,1,0,0:0:0:0:
192,192,76071,128,0,76242:0:0:0:0:
320,192,76071,1,0,0:0:0:0:
64,192,76242,128,0,76414:0:0:0:0:
448,192,76242,1,0,0:0:0:0:
320,192,76414,128,0,76585:0:0:0:0:
192,192,76414,1,0,0:0:0:0:
448,192,76585,128,0,76757:0:0:0:0:
64,192,76585,1,0,0:0:0:0:
192,192,76757,128,0,76928:0:0:0:0:
320,192,76757,1,0,0:0:0:0:
320,192,76928,128,0,77100:0:0:0:0:
64,192,76928,1,0,0:0:0:0:
64,192,77100,128,0,77442:0:0:0:0:
448,192,77100,1,0,0:0:0:0:
192,192,77442,1,0,0:0:0:0:
448,192,77442,128,0,77614:0:0:0:0:
192,192,77614,128,0,77785:0:0:0:0:
320,192,77614,1,0,0:0:0:0:
64,192,77785,128,0,77957:0:0:0:0:
448,192,77785,1,0,0:0:0:0:
320,192,77957,128,0,78128:0:0:0:0:
192,192,77957,1,0,0:0:0:0:
448,192,78128,128,0,78300:0:0:0:0:
64,192,78128,1,0,0:0:0:0:
320,192,78300,128,0,78471:0:0:0:0:
192,192,78300,1,0,0:0:0:0:
192,192,78471,128,0,78642:0:0:0:0:
448,192,78471,1,0,0:0:0:0:
64,192,78642,128,0,78814:0:0:0:0:
320,192,78642,1,0,0:0:0:0:
320,192,78814,128,0,78985:0:0:0:0:
192,192,78814,1,0,0:0:0:0:
448,192,78985,128,0,79157:0:0:0:0:
64,192,78985,1,0,0:0:0:0:
64,192,79157,128,0,79500:0:0:0:0:
192,192,79157,1,0,0:0:0:0:
320,192,79500,1,0,0:0:0:0:
64,192,79842,128,0,80185:0:0:0:0:
448,192,79842,1,0,0:0:0:0:
320,192,80185,128,0,80357:0:0:0:0:
192,192,80185,1,0,0:0:0:0:
64,192,80357,128,0,80528:0:0:0:0:
448,192,80357,1,0,0:0:0:0:
448,192,80528,128,0,80700:0:0:0:0:
192,192,80528,1,0,0:0:0:0:
320,192,80700,1,0,0:0:0:0:
192,192,80785,1,0,0:0:0:0:
64,192,80871,128,0,81042:0:0:0:0:
192,192,81042,128,0,81214:0:0:0:0:
320,192,81042,1,0,0:0:0:0:
320,192,81214,128,0,81385:0:0:0:0:
448,192,81214,1,0,0:0:0:0:
192,192,81385,128,0,81557:0:0:0:0:
64,192,81385,1,0,0:0:0:0:
448,192,81557,128,0,81728:0:0:0:0:
320,192,81557,1,0,0:0:0:0:
320,192,81728,128,0,81900:0:0:0:0:
192,192,81900,1,0,0:0:0:0:
64,192,81985,1,0,0:0:0:0:
192,192,82071,1,0,0:0:0:0:
320,192,82157,1,0,0:0:0:0:
448,192,82242,128,0,82414:0:0:0:0:
64,192,82414,128,0,82585:0:0:0:0:
192,192,82414,1,0,0:0:0:0:
320,192,82585,128,0,82928:0:0:0:0:
448,192,82585,1,0,0:0:0:0:
192,192,82928,1,0,0:0:0:0:
192,192,83100,128,0,83271:0:0:0:0:
64,192,83100,1,0,0:0:0:0:
448,192,83271,128,0,83442:0:0:0:0:
320,192,83271,1,0,0:0:0:0:
64,192,83442,1,0,0:0:0:0:
192,192,83528,1,0,0:0:0:0:
320,192,83614,128,0,83785:0:0:0:0:
448,192,83785,128,0,83957:0:0:0:0:
192,192,83785,1,0,0:0:0:0:
320,192,83957,128,0,84128:0:0:0:0:
192,192,83957,1,0,0:0:0:0:
192,192,84128,128,0,84300:0:0:0:0:
64,192,84128,1,0,0:0:0:0:
64,192,84300,128,0,84471:0:0:0:0:
448,192,84300,1,0,0:0:0:0:
448,192,84471,128,0,84642:0:0:0:0:
192,192,84471,1,0,0:0:0:0:
192,192,84642,128,0,84985:0:0:0:0:
64,192,84642,1,0,0:0:0:0:
448,192,84985,1,0,0:0:0:0:
448,192,85328,128,0,85500:0:0:0:0:
320,192,85328,1,0,0:0:0:0:
64,192,85500,1,0,0:0:0:0:
192,192,85585,1,0,0:0:0:0:
320,192,85671,128,0,85842:0:0:0:0:
64,192,85842,128,0,86014:0:0:0:0:
192,192,86014,128,0,86357:0:0:0:0:
448,192,86014,1,0,0:0:0:0:
320,192,86357,128,0,86700:0:0:0:0:
64,192,86357,1,0,0:0:0:0:
448,192,86700,128,0,86871:0:0:0:0:
192,192,86700,1,0,0:0:0:0:
320,192,86871,1,0,0:0:0:0:
192,192,86957,1,0,0:0:0:0:
64,192,87042,128,0,87214:0:0:0:0:
192,192,87214,128,0,87385:0:0:0:0:
448,192,87214,1,0,0:0:0:0:
448,192,87385,128,0,87728:0:0:0:0:
320,192,87385,1,0,0:0:0:0:
320,192,87728,128,0,88071:0:0:0:0:
64,192,87728,1,0,0:0:0:0:
64,192,88071,128,0,88928:0:0:0:0:
192,192,88071,1,0,0:0:0:0:
192,192,88928,128,0,89100:0:0:0:0:
320,192,88928,1,0,0:0:0:0:
320,192,89100,128,0,89271:0:0:0:0:
448,192,89100,1,0,0:0:0:0:
448,192,89271,128,0,89443:0:0:0:0:
192,192,89271,1,0,0:0:0:0:
320,192,89442,1,0,0:0:0:0:
64,192,89443,128,0,90300:0:0:0:0:
448,192,90300,128,0,90471:0:0:0:0:
320,192,90300,1,0,0:0:0:0:
320,192,90471,128,0,90643:0:0:0:0:
192,192,90471,1,0,0:0:0:0:
64,192,90642,1,0,0:0:0:0:
192,192,90643,128,0,90814:0:0:0:0:
448,192,90814,128,0,91671:0:0:0:0:
320,192,90814,1,0,0:0:0:0:
64,192,91671,128,0,91843:0:0:0:0:
192,192,91671,1,0,0:0:0:0:
448,192,91842,1,0,0:0:0:0:
320,192,91843,128,0,92014:0:0:0:0:
192,192,92014,128,0,92185:0:0:0:0:
64,192,92014,1,0,0:0:0:0:
448,192,92185,128,0,92357:0:0:0:0:
320,192,92185,1,0,0:0:0:0:
64,192,92357,128,0,92528:0:0:0:0:
192,192,92357,1,0,0:0:0:0:
320,192,92528,128,0,92700:0:0:0:0:
448,192,92528,1,0,0:0:0:0:
64,192,92700,128,0,92871:0:0:0:0:
192,192,92700,1,0,0:0:0:0:
192,192,92871,128,0,93043:0:0:0:0:
320,192,92871,1,0,0:0:0:0:
64,192,93042,1,0,0:0:0:0:
448,192,93043,128,0,93214:0:0:0:0:
320,192,93214,128,0,93385:0:0:0:0:
192,192,93214,1,0,0:0:0:0:
192,192,93385,128,0,93557:0:0:0:0:
64,192,93385,1,0,0:0:0:0:
64,192,93557,128,0,94414:0:0:0:0:
448,192,93557,1,0,0:0:0:0:
192,192,94414,128,0,94586:0:0:0:0:
320,192,94414,1,0,0:0:0:0:
448,192,94585,1,0,0:0:0:0:
320,192,94586,128,0,94757:0:0:0:0:
448,192,94757,128,0,94929:0:0:0:0:
64,192,94757,1,0,0:0:0:0:
192,192,94928,1,0,0:0:0:0:
64,192,94929,128,0,95786:0:0:0:0:
320,192,95785,1,0,0:0:0:0:
448,192,95786,128,0,95957:0:0:0:0:
320,192,95957,128,0,96129:0:0:0:0:
192,192,95957,1,0,0:0:0:0:
64,192,96128,1,0,0:0:0:0:
192,192,96129,128,0,96300:0:0:0:0:
448,192,96300,128,0,97157:0:0:0:0:
320,192,96300,1,0,0:0:0:0:
64,192,97157,128,0,97329:0:0:0:0:
320,192,97157,1,0,0:0:0:0:
192,192,97328,1,0,0:0:0:0:
320,192,97329,128,0,97500:0:0:0:0:
192,192,97500,128,0,97671:0:0:0:0:
448,192,97500,1,0,0:0:0:0:
448,192,97671,128,0,97843:0:0:0:0:
64,192,97671,1,0,0:0:0:0:
320,192,97842,1,0,0:0:0:0:
64,192,97843,128,0,98014:0:0:0:0:
320,192,98014,128,0,98186:0:0:0:0:
192,192,98014,1,0,0:0:0:0:
448,192,98185,1,0,0:0:0:0:
64,192,98186,128,0,98357:0:0:0:0:
192,192,98357,128,0,98529:0:0:0:0:
320,192,98357,1,0,0:0:0:0:
64,192,98528,1,0,0:0:0:0:
448,192,98529,128,0,98700:0:0:0:0:
320,192,98700,128,0,98871:0:0:0:0:
192,192,98700,1,0,0:0:0:0:
192,192,98871,128,0,99042:0:0:0:0:
64,192,99042,128,0,99384:0:0:0:0:
448,192,99042,1,0,0:0:0:0:
448,192,99385,1,0,0:0:0:0:
192,192,99556,128,0,99727:0:0:0:0:
320,192,99557,1,0,0:0:0:0:
64,192,99727,128,0,99899:0:0:0:0:
192,192,99900,1,0,0:0:0:0:
320,192,99984,1,0,0:0:0:0:
448,192,100070,128,0,100242:0:0:0:0:
320,192,100242,128,0,100413:0:0:0:0:
192,192,100413,128,0,100584:0:0:0:0:
448,192,100414,1,0,0:0:0:0:
64,192,100584,128,0,100756:0:0:0:0:
320,192,100585,1,0,0:0:0:0:
320,192,100756,128,0,100927:0:0:0:0:
192,192,100757,1,0,0:0:0:0:
448,192,100927,128,0,101099:0:0:0:0:
64,192,100928,1,0,0:0:0:0:
64,192,101099,128,0,101442:0:0:0:0:
192,192,101100,1,0,0:0:0:0:
448,192,101442,1,0,0:0:0:0:
64,192,101784,128,0,102127:0:0:0:0:
320,192,101785,1,0,0:0:0:0:
320,192,102127,128,0,102299:0:0:0:0:
192,192,102128,1,0,0:0:0:0:
64,192,102299,128,0,102470:0:0:0:0:
448,192,102300,1,0,0:0:0:0:
448,192,102470,128,0,102642:0:0:0:0:
192,192,102471,1,0,0:0:0:0:
320,192,102642,1,0,0:0:0:0:
192,192,102727,1,0,0:0:0:0:
64,192,102813,128,0,102984:0:0:0:0:
192,192,102984,128,0,103156:0:0:0:0:
320,192,102985,1,0,0:0:0:0:
320,192,103156,128,0,103327:0:0:0:0:
64,192,103157,1,0,0:0:0:0:
192,192,103327,128,0,103499:0:0:0:0:
448,192,103328,1,0,0:0:0:0:
448,192,103499,128,0,103670:0:0:0:0:
320,192,103500,1,0,0:0:0:0:
320,192,103670,128,0,103842:0:0:0:0:
64,192,103671,1,0,0:0:0:0:
192,192,103842,1,0,0:0:0:0:
64,192,103927,1,0,0:0:0:0:
192,192,104013,1,0,0:0:0:0:
320,192,104099,1,0,0:0:0:0:
448,192,104184,128,0,104356:0:0:0:0:
64,192,104356,128,0,104527:0:0:0:0:
320,192,104357,1,0,0:0:0:0:
320,192,104527,128,0,104870:0:0:0:0:
192,192,104528,1,0,0:0:0:0:
448,192,104871,1,0,0:0:0:0:
192,192,105042,128,0,105213:0:0:0:0:
64,192,105042,1,0,0:0:0:0:
448,192,105213,128,0,105384:0:0:0:0:
320,192,105214,1,0,0:0:0:0:
64,192,105385,1,0,0:0:0:0:
192,192,105470,1,0,0:0:0:0:
320,192,105556,128,0,105727:0:0:0:0:
448,192,105727,128,0,105899:0:0:0:0:
192,192,105728,1,0,0:0:0:0:
320,192,105899,128,0,106070:0:0:0:0:
64,192,105900,1,0,0:0:0:0:
192,192,106070,128,0,106242:0:0:0:0:
448,192,106071,1,0,0:0:0:0:
64,192,106242,128,0,106413:0:0:0:0:
320,192,106242,1,0,0:0:0:0:
448,192,106413,128,0,106584:0:0:0:0:
192,192,106414,1,0,0:0:0:0:
192,192,106584,128,0,106927:0:0:0:0:
320,192,106585,1,0,0:0:0:0:
64,192,106928,1,0,0:0:0:0:
448,192,107270,128,0,107442:0:0:0:0:
320,192,107271,1,0,0:0:0:0:
64,192,107442,1,0,0:0:0:0:
192,192,107528,1,0,0:0:0:0:
320,192,107613,128,0,107784:0:0:0:0:
64,192,107784,128,0,107956:0:0:0:0:
192,192,107785,1,0,0:0:0:0:
192,192,107956,128,0,108299:0:0:0:0:
448,192,107957,1,0,0:0:0:0:
320,192,108299,128,0,108642:0:0:0:0:
64,192,108300,1,0,0:0:0:0:
448,192,108642,128,0,108813:0:0:0:0:
192,192,108642,1,0,0:0:0:0:
320,192,108814,1,0,0:0:0:0:
192,192,108900,1,0,0:0:0:0:
64,192,108984,128,0,109156:0:0:0:0:
192,192,109156,128,0,109327:0:0:0:0:
320,192,109157,1,0,0:0:0:0:
448,192,109327,128,0,109670:0:0:0:0:
64,192,109328,1,0,0:0:0:0:
320,192,109670,128,0,110013:0:0:0:0:
192,192,109671,1,0,0:0:0:0:
448,192,110014,128,0,110186:0:0:0:0:
64,192,110014,1,0,0:0:0:0:
320,192,110185,1,0,0:0:0:0:
64,192,110357,128,0,110529:0:0:0:0:
192,192,110357,1,0,0:0:0:0:
320,192,110700,128,0,110871:0:0:0:0:
448,192,110700,1,0,0:0:0:0:
64,192,111042,1,0,0:0:0:0:
320,192,111214,128,0,111386:0:0:0:0:
448,192,111214,1,0,0:0:0:0:
64,192,111386,128,0,111557:0:0:0:0:
192,192,111557,1,0,0:0:0:0:
320,192,111728,1,0,0:0:0:0:
192,192,111729,128,0,111900:0:0:0:0:
64,192,112071,128,0,112243:0:0:0:0:
448,192,112071,1,0,0:0:0:0:
448,192,112414,1,0,0:0:0:0:
64,192,112585,1,0,0:0:0:0:
320,192,112586,128,0,113614:0:0:0:0:
448,192,113614,128,0,113786:0:0:0:0:
192,192,113614,1,0,0:0:0:0:
320,192,113785,1,0,0:0:0:0:
192,192,113786,128,0,113957:0:0:0:0:
64,192,113957,128,0,114643:0:0:0:0:
448,192,113957,1,0,0:0:0:0:
448,192,114642,1,0,0:0:0:0:
192,192,114643,128,0,115329:0:0:0:0:
64,192,115328,1,0,0:0:0:0:
448,192,115500,128,0,115672:0:0:0:0:
320,192,115500,1,0,0:0:0:0:
192,192,115842,1,0,0:0:0:0:
64,192,115843,128,0,116015:0:0:0:0:
448,192,116185,1,0,0:0:0:0:
320,192,116186,128,0,116357:0:0:0:0:
320,192,116700,128,0,116872:0:0:0:0:
448,192,116700,1,0,0:0:0:0:
64,192,116872,128,0,117043:0:0:0:0:
192,192,117042,1,0,0:0:0:0:
320,192,117214,1,0,0:0:0:0:
192,192,117215,128,0,117386:0:0:0:0:
64,192,117557,128,0,117729:0:0:0:0:
192,192,117557,1,0,0:0:0:0:
192,192,117900,1,0,0:0:0:0:
448,192,118071,1,0,0:0:0:0:
320,192,118072,128,0,119100:0:0:0:0:
448,192,119100,128,0,119272:0:0:0:0:
64,192,119100,1,0,0:0:0:0:
320,192,119271,1,0,0:0:0:0:
192,192,119272,128,0,119443:0:0:0:0:
448,192,119442,1,0,0:0:0:0:
64,192,119443,128,0,120129:0:0:0:0:
448,192,120128,1,0,0:0:0:0:
192,192,120129,128,0,120815:0:0:0:0:
64,192,120814,1,0,0:0:0:0:
448,192,120985,128,0,121157:0:0:0:0:
320,192,120985,1,0,0:0:0:0:
64,192,121328,128,0,121500:0:0:0:0:
192,192,121328,1,0,0:0:0:0:
320,192,121671,128,0,121842:0:0:0:0:
448,192,121671,1,0,0:0:0:0:
192,192,122014,1,0,0:0:0:0:
320,192,122185,128,0,122357:0:0:0:0:
448,192,122185,1,0,0:0:0:0:
64,192,122357,128,0,122528:0:0:0:0:
192,192,122528,1,0,0:0:0:0:
320,192,122700,1,0,0:0:0:0:
448,192,122700,128,0,122871:0:0:0:0:
64,192,123042,128,0,123214:0:0:0:0:
192,192,123042,1,0,0:0:0:0:
448,192,123385,1,0,0:0:0:0:
320,192,123557,128,0,124585:0:0:0:0:
192,192,123557,1,0,0:0:0:0:
448,192,124585,128,0,124757:0:0:0:0:
192,192,124585,1,0,0:0:0:0:
192,192,124757,128,0,124928:0:0:0:0:
64,192,124757,1,0,0:0:0:0:
64,192,124928,128,0,125614:0:0:0:0:
320,192,124928,1,0,0:0:0:0:
192,192,125614,128,0,126300:0:0:0:0:
448,192,125614,1,0,0:0:0:0:
64,192,126300,1,0,0:0:0:0:
448,192,126471,128,0,126643:0:0:0:0:
320,192,126471,1,0,0:0:0:0:
192,192,126728,1,0,0:0:0:0:
64,192,126814,128,0,126986:0:0:0:0:
192,192,127071,1,0,0:0:0:0:
448,192,127157,128,0,127328:0:0:0:0:
320,192,127414,1,0,0:0:0:0:
192,192,127500,1,0,0:0:0:0:
64,192,127585,1,0,0:0:0:0:
320,192,127671,128,0,127843:0:0:0:0:
448,192,127671,1,0,0:0:0:0:
192,192,127842,1,0,0:0:0:0:
64,192,127843,128,0,128014:0:0:0:0:
320,192,128100,1,0,0:0:0:0:
64,192,128185,1,0,0:0:0:0:
192,192,128186,128,0,128357:0:0:0:0:
320,192,128442,1,0,0:0:0:0:
64,192,128528,128,0,128700:0:0:0:0:
192,192,128528,1,0,0:0:0:0:
320,192,128785,1,0,0:0:0:0:
192,192,128871,1,0,0:0:0:0:
64,192,128957,1,0,0:0:0:0:
448,192,129042,1,0,0:0:0:0:
320,192,129043,128,0,130071:0:0:0:0:
448,192,130071,128,0,130243:0:0:0:0:
192,192,130071,1,0,0:0:0:0:
64,192,130242,1,0,0:0:0:0:
192,192,130243,128,0,130414:0:0:0:0:
64,192,130414,128,0,131100:0:0:0:0:
320,192,130414,1,0,0:0:0:0:
192,192,131100,128,0,131786:0:0:0:0:
448,192,131100,1,0,0:0:0:0:
64,192,131785,1,0,0:0:0:0:
448,192,131957,128,0,132300:0:0:0:0:
320,192,131957,128,0,132300:0:0:0:0:
64,192,132471,128,0,132814:0:0:0:0:
192,192,132471,128,0,132814:0:0:0:0:
320,192,132985,1,0,0:0:0:0:
448,192,132985,1,0,0:0:0:0:
64,192,133328,128,0,133671:0:0:0:0:
192,192,133328,128,0,133671:0:0:0:0:
64,192,134014,128,0,136071:0:0:0:0:
192,192,134014,128,0,135900:0:0:0:0:
448,192,135900,1,0,0:0:0:0:
320,192,135985,1,0,0:0:0:0:
448,192,136071,128,0,137271:0:0:0:0:
192,192,136071,1,0,0:0:0:0:
