osu file format v14

[General]
AudioFilename: audio.mp3
AudioLeadIn: 0
PreviewTime: 45988
Countdown: 0
SampleSet: Soft
StackLeniency: 0.7
Mode: 3
LetterboxInBreaks: 0
SpecialStyle: 0
WidescreenStoryboard: 1

[Editor]
DistanceSpacing: 1
BeatDivisor: 4
GridSize: 4
TimelineZoom: 1.8

[Metadata]
Title:Passcode 4854 -TV edit-
TitleUnicode:パスコード 4854 -TV edit-
Artist:Yasuda Rei
ArtistUnicode:安田レイ
Creator:Zylin
Version:Hard
Source:金田一少年の事件簿R
Tags:Yuta Yoneyama 玉井 健二 矢田 亨 釣 俊輔 Rachel Rhodes The Kindaichi Case Files of Young Shounen no Jikenbo Ritanzu Returns Ending ED
BeatmapID:1518680
BeatmapSetID:719146

[Difficulty]
HPDrainRate:7.5
CircleSize:7
OverallDifficulty:7.5
ApproachRate:5
SliderMultiplier:1.4
SliderTickRate:1

[Events]
//Background and Video events
0,0,"cropped-1366-768-873404.png",0,0
Video,0,"KR.avi"
//Break Periods
//Storyboard Layer 0 (Background)
//Storyboard Layer 1 (Fail)
//Storyboard Layer 2 (Pass)
//Storyboard Layer 3 (Foreground)
//Storyboard Sound Samples
Sample,2274,0,"soft-hitnormal.wav",0
Sample,3346,0,"soft-hitnormal.wav",0
Sample,3988,0,"soft-hitnormal.wav",0
Sample,4631,0,"soft-hitnormal.wav",0
Sample,6560,0,"soft-hitnormal.wav",0
Sample,6988,0,"soft-hitnormal.wav",0
Sample,7631,0,"soft-hitnormal.wav",0
Sample,8274,0,"soft-hitnormal.wav",0
Sample,9774,0,"soft-hitnormal.wav",0
Sample,10417,0,"soft-hitnormal.wav",0
Sample,10631,0,"soft-hitnormal.wav",0
Sample,11060,0,"soft-hitnormal.wav",0
Sample,11488,0,"soft-hitnormal.wav",0
Sample,13203,0,"soft-hitnormal.wav",0
Sample,13846,0,"soft-hitnormal.wav",0
Sample,14060,0,"soft-hitnormal.wav",0
Sample,14488,0,"soft-hitnormal.wav",0
Sample,14917,0,"soft-hitnormal.wav",0
Sample,16631,0,"soft-hitnormal.wav",0
Sample,17274,0,"soft-hitnormal.wav",0
Sample,17488,0,"soft-hitnormal.wav",0
Sample,17917,0,"soft-hitnormal.wav",0
Sample,18346,0,"soft-hitnormal.wav",0
Sample,20060,0,"soft-hitnormal.wav",0
Sample,20703,0,"soft-hitnormal.wav",0
Sample,20917,0,"soft-hitnormal.wav",0
Sample,21346,0,"soft-hitnormal.wav",0
Sample,21774,0,"soft-hitnormal.wav",0
Sample,23488,0,"soft-hitnormal.wav",0
Sample,24131,0,"soft-hitnormal.wav",0
Sample,24346,0,"soft-hitnormal.wav",0
Sample,24774,0,"soft-hitnormal.wav",0
Sample,25203,0,"soft-hitnormal.wav",0
Sample,26917,0,"soft-hitnormal.wav",0
Sample,27560,0,"soft-hitnormal.wav",0
Sample,27774,0,"soft-hitnormal.wav",0
Sample,28203,0,"soft-hitnormal.wav",0
Sample,28631,0,"soft-hitnormal.wav",0
Sample,30346,0,"soft-hitnormal.wav",0
Sample,30988,0,"soft-hitnormal.wav",0
Sample,31203,0,"soft-hitnormal.wav",0
Sample,31631,0,"soft-hitnormal.wav",0
Sample,32060,0,"soft-hitnormal.wav",0
Sample,33774,0,"soft-hitnormal.wav",0
Sample,34417,0,"soft-hitnormal.wav",0
Sample,34631,0,"soft-hitnormal.wav",0
Sample,35060,0,"soft-hitnormal.wav",0
Sample,35488,0,"soft-hitnormal.wav",0
Sample,37203,0,"soft-hitnormal.wav",0
Sample,37846,0,"soft-hitnormal.wav",0
Sample,38060,0,"soft-hitnormal.wav",0
Sample,38488,0,"soft-hitnormal.wav",0
Sample,38917,0,"soft-hitnormal.wav",0
Sample,40631,0,"soft-hitnormal.wav",0
Sample,41274,0,"soft-hitnormal.wav",0
Sample,41488,0,"soft-hitnormal.wav",0
Sample,41917,0,"soft-hitnormal.wav",0
Sample,42346,0,"soft-hitnormal.wav",0
Sample,42988,0,"soft-hitnormal.wav",0
Sample,46631,0,"soft-hitnormal.wav",0
Sample,47274,0,"soft-hitnormal.wav",0
Sample,47488,0,"soft-hitnormal.wav",0
Sample,48131,0,"soft-hitnormal.wav",0
Sample,48346,0,"soft-hitnormal.wav",0
Sample,48988,0,"soft-hitnormal.wav",0
Sample,49203,0,"soft-hitnormal.wav",0
Sample,49417,0,"soft-hitnormal.wav",0
Sample,50060,0,"soft-hitnormal.wav",0
Sample,50703,0,"soft-hitnormal.wav",0
Sample,50917,0,"soft-hitnormal.wav",0
Sample,51560,0,"soft-hitnormal.wav",0
Sample,51774,0,"soft-hitnormal.wav",0
Sample,52631,0,"soft-hitnormal.wav",0
Sample,54346,0,"soft-hitnormal.wav",0
Sample,55203,0,"soft-hitnormal.wav",0
Sample,56060,0,"soft-hitnormal.wav",0
Sample,56703,0,"soft-hitnormal.wav",0
Sample,57774,0,"soft-hitnormal.wav",0
Sample,59060,0,"soft-hitnormal.wav",0
Sample,59274,0,"soft-hitnormal.wav",0
Sample,59274,0,"soft-hitnormal.wav",0
Sample,59488,0,"soft-hitnormal.wav",0
Sample,59488,0,"soft-hitnormal.wav",0
Sample,59703,0,"soft-hitnormal.wav",0
Sample,59703,0,"soft-hitnormal.wav",0
Sample,60346,0,"soft-hitnormal.wav",0
Sample,60988,0,"soft-hitnormal.wav",0
Sample,61203,0,"soft-hitnormal.wav",0
Sample,61846,0,"soft-hitnormal.wav",0
Sample,62060,0,"soft-hitnormal.wav",0
Sample,62703,0,"soft-hitnormal.wav",0
Sample,62917,0,"soft-hitnormal.wav",0
Sample,63131,0,"soft-hitnormal.wav",0
Sample,63774,0,"soft-hitnormal.wav",0
Sample,64417,0,"soft-hitnormal.wav",0
Sample,64631,0,"soft-hitnormal.wav",0
Sample,65274,0,"soft-hitnormal.wav",0
Sample,65488,0,"soft-hitnormal.wav",0
Sample,68060,0,"soft-hitnormal.wav",0
Sample,68917,0,"soft-hitnormal.wav",0
Sample,69774,0,"soft-hitnormal.wav",0
Sample,71488,0,"soft-hitnormal.wav",0
Sample,73203,0,"soft-hitnormal.wav",0
Sample,74060,0,"soft-hitnormal.wav",0
Sample,74917,0,"soft-hitnormal.wav",0
Sample,75774,0,"soft-hitnormal.wav",0
Sample,76203,0,"soft-hitnormal.wav",0
Sample,76631,0,"soft-hitnormal.wav",0
Sample,78560,0,"soft-hitnormal.wav",0
Sample,80060,0,"soft-hitnormal.wav",0
Sample,80274,0,"soft-hitnormal.wav",0
Sample,86488,0,"soft-hitnormal.wav",0
Sample,86488,0,"soft-hitnormal.wav",0
Sample,87346,0,"soft-hitnormal.wav",0

[TimingPoints]
1846,428.571428571429,4,2,1,41,1,0
46203,-100,4,2,1,41,0,1
80488,-100,4,2,1,41,0,0

[HitObjects]
109,192,1846,5,0,0:0:0:0:
475,192,1846,128,0,2060:0:0:0:0:
256,192,2060,1,0,0:0:0:0:
36,192,2274,1,0,0:0:0:0:
182,192,2274,128,0,2488:0:0:0:0:
402,192,2488,1,0,0:0:0:0:
329,192,2703,1,0,0:0:0:0:
256,192,2917,128,0,3131:0:0:0:0:
475,192,2917,1,0,0:0:0:0:
109,192,3131,1,0,0:0:0:0:
36,192,3346,128,0,3560:0:0:0:0:
182,192,3346,1,0,0:0:0:0:
329,192,3560,1,0,0:0:0:0:
256,192,3774,1,0,0:0:0:0:
475,192,3774,128,0,3988:0:0:0:0:
182,192,3988,1,0,0:0:0:0:
402,192,3988,128,0,4203:0:0:0:0:
36,192,4203,1,0,0:0:0:0:
109,192,4417,1,0,0:0:0:0:
256,192,4631,128,0,4846:0:0:0:0:
402,192,4631,1,0,0:0:0:0:
182,192,4846,1,0,0:0:0:0:
256,192,5060,128,0,5274:0:0:0:0:
329,192,5060,1,0,0:0:0:0:
182,192,5274,128,2,5488:0:0:0:0:
475,192,5274,1,0,0:0:0:0:
36,192,5488,1,0,0:0:0:0:
109,192,5703,1,8,0:0:0:0:
329,192,5703,128,0,5917:0:0:0:0:
402,192,5703,1,0,0:0:0:0:
256,192,5917,1,0,0:0:0:0:
182,192,6131,1,0,0:0:0:0:
36,192,6346,128,2,6560:0:0:0:0:
109,192,6346,1,0,0:0:0:0:
256,192,6560,1,8,0:0:0:0:
475,192,6560,1,0,0:0:0:0:
329,192,6774,1,0,0:0:0:0:
402,192,6774,128,0,6988:0:0:0:0:
109,192,6988,1,2,0:0:0:0:
36,192,7203,128,2,7417:0:0:0:0:
182,192,7203,1,0,0:0:0:0:
109,192,7417,128,8,7631:0:0:0:0:
256,192,7417,1,0,0:0:0:0:
475,192,7417,1,0,0:0:0:0:
329,192,7631,1,2,0:0:0:0:
182,192,7846,1,0,0:0:0:0:
402,192,8060,128,2,8274:0:0:0:0:
475,192,8060,1,0,0:0:0:0:
36,192,8274,1,8,0:0:0:0:
329,192,8274,1,0,0:0:0:0:
182,192,8488,128,0,8703:0:0:0:0:
256,192,8488,1,0,0:0:0:0:
109,192,8703,1,2,0:0:0:0:
475,192,8703,128,0,12131:0:0:0:0:
329,192,8917,1,0,0:0:0:0:
36,192,9131,1,8,0:0:0:0:
256,192,9131,1,0,0:0:0:0:
402,192,9131,1,0,0:0:0:0:
109,192,9346,1,0,0:0:0:0:
256,192,9560,1,0,0:0:0:0:
182,192,9774,1,2,0:0:0:0:
36,192,9988,1,8,0:0:0:0:
329,192,9988,1,0,0:0:0:0:
402,192,9988,1,0,0:0:0:0:
182,192,10203,1,0,0:0:0:0:
402,192,10417,1,2,0:0:0:0:
256,192,10631,1,2,0:0:0:0:
36,192,10846,1,8,0:0:0:0:
109,192,10846,1,0,0:0:0:0:
329,192,10846,1,0,0:0:0:0:
182,192,11060,1,2,0:0:0:0:
329,192,11274,1,0,0:0:0:0:
256,192,11488,1,2,0:0:0:0:
36,192,11703,1,8,0:0:0:0:
182,192,11703,1,0,0:0:0:0:
402,192,11703,1,0,0:0:0:0:
109,192,11917,1,0,0:0:0:0:
36,192,12131,128,2,15560:0:0:0:0:
256,192,12131,1,0,0:0:0:0:
182,192,12346,1,0,0:0:0:0:
256,192,12560,1,8,0:0:0:0:
329,192,12560,1,0,0:0:0:0:
402,192,12560,1,0,0:0:0:0:
475,192,12774,1,0,0:0:0:0:
109,192,12988,1,0,0:0:0:0:
256,192,13203,1,2,0:0:0:0:
182,192,13417,1,8,0:0:0:0:
329,192,13417,1,0,0:0:0:0:
402,192,13417,1,0,0:0:0:0:
475,192,13631,1,0,0:0:0:0:
402,192,13846,1,2,0:0:0:0:
109,192,14060,1,2,0:0:0:0:
256,192,14274,1,8,0:0:0:0:
329,192,14274,1,0,0:0:0:0:
475,192,14274,1,0,0:0:0:0:
182,192,14488,1,2,0:0:0:0:
402,192,14703,1,0,0:0:0:0:
475,192,14917,1,2,0:0:0:0:
109,192,15131,1,8,0:0:0:0:
182,192,15131,1,0,0:0:0:0:
329,192,15131,1,0,0:0:0:0:
256,192,15346,1,0,0:0:0:0:
256,192,15560,128,2,18988:0:0:0:0:
402,192,15560,1,0,0:0:0:0:
182,192,15774,1,0,0:0:0:0:
36,192,15988,1,8,0:0:0:0:
109,192,15988,1,0,0:0:0:0:
475,192,15988,1,0,0:0:0:0:
329,192,16203,1,0,0:0:0:0:
402,192,16417,1,0,0:0:0:0:
36,192,16631,1,2,0:0:0:0:
109,192,16846,1,8,0:0:0:0:
182,192,16846,1,0,0:0:0:0:
329,192,16846,1,0,0:0:0:0:
475,192,17060,1,0,0:0:0:0:
402,192,17274,1,2,0:0:0:0:
182,192,17488,1,2,0:0:0:0:
36,192,17703,1,8,0:0:0:0:
329,192,17703,1,0,0:0:0:0:
475,192,17703,1,0,0:0:0:0:
109,192,17917,1,2,0:0:0:0:
182,192,18131,1,0,0:0:0:0:
402,192,18346,1,2,0:0:0:0:
109,192,18560,1,8,0:0:0:0:
329,192,18560,1,0,0:0:0:0:
475,192,18560,1,0,0:0:0:0:
182,192,18774,1,0,0:0:0:0:
36,192,18988,1,2,0:0:0:0:
402,192,18988,128,0,22417:0:0:0:0:
109,192,19203,1,0,0:0:0:0:
182,192,19417,1,8,0:0:0:0:
329,192,19417,1,0,0:0:0:0:
475,192,19417,1,0,0:0:0:0:
256,192,19631,1,0,0:0:0:0:
475,192,19846,1,0,0:0:0:0:
36,192,20060,1,2,0:0:0:0:
109,192,20274,1,8,0:0:0:0:
182,192,20274,1,0,0:0:0:0:
329,192,20274,1,0,0:0:0:0:
256,192,20488,1,0,0:0:0:0:
329,192,20703,1,2,0:0:0:0:
109,192,20917,1,2,0:0:0:0:
36,192,21131,1,8,0:0:0:0:
256,192,21131,1,0,0:0:0:0:
475,192,21131,1,0,0:0:0:0:
182,192,21346,1,2,0:0:0:0:
329,192,21560,1,0,0:0:0:0:
256,192,21774,1,2,0:0:0:0:
36,192,21988,1,8,0:0:0:0:
109,192,21988,1,0,0:0:0:0:
475,192,21988,1,0,0:0:0:0:
329,192,22203,1,0,0:0:0:0:
182,192,22417,128,2,25846:0:0:0:0:
256,192,22417,1,0,0:0:0:0:
36,192,22631,1,0,0:0:0:0:
109,192,22846,1,8,0:0:0:0:
402,192,22846,1,0,0:0:0:0:
475,192,22846,1,0,0:0:0:0:
329,192,23060,1,0,0:0:0:0:
402,192,23274,1,0,0:0:0:0:
109,192,23488,1,2,0:0:0:0:
36,192,23703,1,8,0:0:0:0:
256,192,23703,1,0,0:0:0:0:
329,192,23703,1,0,0:0:0:0:
475,192,23917,1,0,0:0:0:0:
329,192,24131,1,2,0:0:0:0:
109,192,24346,1,2,0:0:0:0:
36,192,24560,1,8,0:0:0:0:
402,192,24560,1,0,0:0:0:0:
475,192,24560,1,0,0:0:0:0:
256,192,24774,1,2,0:0:0:0:
329,192,24988,1,0,0:0:0:0:
36,192,25203,1,2,0:0:0:0:
109,192,25417,1,8,0:0:0:0:
329,192,25417,1,0,0:0:0:0:
475,192,25417,1,0,0:0:0:0:
256,192,25631,1,0,0:0:0:0:
402,192,25846,1,2,0:0:0:0:
475,192,25846,128,0,29274:0:0:0:0:
329,192,26060,1,0,0:0:0:0:
36,192,26274,1,8,0:0:0:0:
109,192,26274,1,0,0:0:0:0:
256,192,26274,1,0,0:0:0:0:
182,192,26488,1,0,0:0:0:0:
36,192,26703,1,0,0:0:0:0:
329,192,26917,1,2,0:0:0:0:
109,192,27131,1,8,0:0:0:0:
256,192,27131,1,0,0:0:0:0:
402,192,27131,1,0,0:0:0:0:
182,192,27346,1,0,0:0:0:0:
256,192,27560,1,2,0:0:0:0:
109,192,27774,1,2,0:0:0:0:
36,192,27988,1,8,0:0:0:0:
256,192,27988,1,0,0:0:0:0:
329,192,27988,1,0,0:0:0:0:
402,192,28203,1,2,0:0:0:0:
256,192,28417,1,0,0:0:0:0:
182,192,28631,1,2,0:0:0:0:
109,192,28846,1,8,0:0:0:0:
329,192,28846,1,0,0:0:0:0:
402,192,28846,1,0,0:0:0:0:
36,192,29060,1,0,0:0:0:0:
256,192,29274,1,2,0:0:0:0:
402,192,29274,128,0,32703:0:0:0:0:
182,192,29488,1,0,0:0:0:0:
36,192,29703,1,8,0:0:0:0:
109,192,29703,1,0,0:0:0:0:
329,192,29703,1,0,0:0:0:0:
256,192,29917,1,0,0:0:0:0:
36,192,30131,1,0,0:0:0:0:
182,192,30346,1,2,0:0:0:0:
109,192,30560,1,8,0:0:0:0:
256,192,30560,1,0,0:0:0:0:
475,192,30560,1,0,0:0:0:0:
329,192,30774,1,0,0:0:0:0:
256,192,30988,1,2,0:0:0:0:
36,192,31203,1,2,0:0:0:0:
109,192,31417,1,8,0:0:0:0:
182,192,31417,1,0,0:0:0:0:
329,192,31417,1,0,0:0:0:0:
475,192,31631,1,2,0:0:0:0:
329,192,31846,1,0,0:0:0:0:
256,192,32060,1,2,0:0:0:0:
36,192,32274,1,8,0:0:0:0:
182,192,32274,1,0,0:0:0:0:
475,192,32274,1,0,0:0:0:0:
109,192,32488,1,0,0:0:0:0:
109,192,32703,128,2,36131:0:0:0:0:
329,192,32703,1,0,0:0:0:0:
475,192,32917,1,0,0:0:0:0:
36,192,33131,1,8,0:0:0:0:
182,192,33131,1,0,0:0:0:0:
256,192,33131,1,0,0:0:0:0:
402,192,33346,1,0,0:0:0:0:
36,192,33560,1,0,0:0:0:0:
329,192,33774,1,2,0:0:0:0:
182,192,33988,1,8,0:0:0:0:
402,192,33988,1,0,0:0:0:0:
475,192,33988,1,0,0:0:0:0:
256,192,34203,1,0,0:0:0:0:
36,192,34417,1,2,0:0:0:0:
182,192,34631,1,2,0:0:0:0:
36,192,34846,1,8,0:0:0:0:
329,192,34846,1,0,0:0:0:0:
402,192,34846,1,0,0:0:0:0:
475,192,35060,1,2,0:0:0:0:
402,192,35274,1,0,0:0:0:0:
256,192,35488,1,2,0:0:0:0:
36,192,35703,1,8,0:0:0:0:
329,192,35703,1,0,0:0:0:0:
475,192,35703,1,0,0:0:0:0:
402,192,35917,1,0,0:0:0:0:
182,192,36131,128,2,39560:0:0:0:0:
475,192,36131,1,0,0:0:0:0:
256,192,36346,1,0,0:0:0:0:
36,192,36560,1,8,0:0:0:0:
402,192,36560,1,0,0:0:0:0:
475,192,36560,1,0,0:0:0:0:
329,192,36774,1,0,0:0:0:0:
475,192,36988,1,0,0:0:0:0:
256,192,37203,1,2,0:0:0:0:
36,192,37417,1,8,0:0:0:0:
329,192,37417,1,0,0:0:0:0:
402,192,37417,1,0,0:0:0:0:
109,192,37631,1,0,0:0:0:0:
36,192,37846,1,2,0:0:0:0:
256,192,38060,1,2,0:0:0:0:
109,192,38274,1,8,0:0:0:0:
402,192,38274,1,0,0:0:0:0:
475,192,38274,1,0,0:0:0:0:
329,192,38488,1,2,0:0:0:0:
36,192,38703,1,0,0:0:0:0:
109,192,38917,1,2,0:0:0:0:
256,192,39131,1,8,0:0:0:0:
329,192,39131,1,0,0:0:0:0:
475,192,39131,1,0,0:0:0:0:
402,192,39346,1,0,0:0:0:0:
36,192,39560,128,2,42988:0:0:0:0:
329,192,39560,1,0,0:0:0:0:
256,192,39774,1,0,0:0:0:0:
109,192,39988,1,8,0:0:0:0:
402,192,39988,1,0,0:0:0:0:
475,192,39988,1,0,0:0:0:0:
182,192,40203,1,0,0:0:0:0:
402,192,40417,1,0,0:0:0:0:
329,192,40631,1,2,0:0:0:0:
182,192,40846,1,8,0:0:0:0:
256,192,40846,1,0,0:0:0:0:
475,192,40846,1,0,0:0:0:0:
109,192,41060,1,0,0:0:0:0:
182,192,41274,1,2,0:0:0:0:
402,192,41488,1,2,0:0:0:0:
182,192,41703,1,8,0:0:0:0:
256,192,41703,1,0,0:0:0:0:
329,192,41703,1,0,0:0:0:0:
475,192,41917,1,2,0:0:0:0:
109,192,42131,1,0,0:0:0:0:
256,192,42346,1,2,0:0:0:0:
182,192,42560,1,8,0:0:0:0:
402,192,42560,1,0,0:0:0:0:
475,192,42560,1,0,0:0:0:0:
329,192,42774,1,0,0:0:0:0:
256,192,42881,1,0,0:0:0:0:
109,192,42988,128,0,43631:0:0:0:0:
182,192,42988,1,0,0:0:0:0:
475,192,42988,128,0,43631:0:0:0:0:
36,192,43631,128,0,44274:0:0:0:0:
402,192,43631,128,0,44274:0:0:0:0:
329,192,44274,128,0,44703:0:0:0:0:
475,192,44274,128,0,44703:0:0:0:0:
36,192,44703,1,0,0:0:0:0:
182,192,44810,1,0,0:0:0:0:
109,192,44917,1,0,0:0:0:0:
329,192,45024,1,0,0:0:0:0:
256,192,45131,1,0,0:0:0:0:
475,192,45238,1,0,0:0:0:0:
402,192,45346,1,0,0:0:0:0:
182,192,45560,1,2,0:0:0:0:
256,192,45560,1,0,0:0:0:0:
329,192,45560,1,0,0:0:0:0:
182,192,45774,1,2,0:0:0:0:
256,192,45774,1,0,0:0:0:0:
329,192,45774,1,0,0:0:0:0:
36,192,46203,1,4,0:0:0:0:
256,192,46203,1,8,0:0:0:0:
402,192,46203,1,0,0:0:0:0:
475,192,46203,128,0,48131:0:0:0:0:
109,192,46631,1,2,0:0:0:0:
182,192,46846,1,8,0:0:0:0:
256,192,46846,1,0,0:0:0:0:
402,192,46846,1,0,0:0:0:0:
329,192,47060,1,0,0:0:0:0:
36,192,47274,1,2,0:0:0:0:
256,192,47488,1,2,0:0:0:0:
36,192,47703,1,8,0:0:0:0:
109,192,47703,1,0,0:0:0:0:
329,192,47703,1,0,0:0:0:0:
402,192,47917,1,0,0:0:0:0:
182,192,48131,1,2,0:0:0:0:
256,192,48131,128,0,48988:0:0:0:0:
36,192,48346,1,2,0:0:0:0:
109,192,48560,1,8,0:0:0:0:
329,192,48560,1,0,0:0:0:0:
402,192,48560,1,0,0:0:0:0:
475,192,48774,1,0,0:0:0:0:
182,192,48988,128,2,49631:0:0:0:0:
402,192,48988,1,0,0:0:0:0:
36,192,49203,1,2,0:0:0:0:
109,192,49417,1,8,0:0:0:0:
329,192,49417,1,0,0:0:0:0:
36,192,49631,1,6,0:0:0:0:
256,192,49631,1,0,0:0:0:0:
402,192,49631,128,0,51560:0:0:0:0:
475,192,49631,1,0,0:0:0:0:
36,192,50060,1,2,0:0:0:0:
109,192,50274,1,8,0:0:0:0:
329,192,50274,1,0,0:0:0:0:
475,192,50274,1,0,0:0:0:0:
256,192,50488,1,0,0:0:0:0:
182,192,50703,1,2,0:0:0:0:
329,192,50917,1,2,0:0:0:0:
36,192,51131,1,8,0:0:0:0:
256,192,51131,1,0,0:0:0:0:
475,192,51131,1,0,0:0:0:0:
182,192,51346,1,0,0:0:0:0:
109,192,51560,128,2,52417:0:0:0:0:
256,192,51560,1,0,0:0:0:0:
475,192,51774,1,2,0:0:0:0:
36,192,51988,1,8,0:0:0:0:
256,192,51988,1,0,0:0:0:0:
329,192,51988,1,0,0:0:0:0:
402,192,52203,1,0,0:0:0:0:
36,192,52417,128,0,53274:0:0:0:0:
182,192,52417,1,2,0:0:0:0:
475,192,52417,128,0,52631:0:0:0:0:
256,192,52631,128,2,52846:0:0:0:0:
182,192,52846,1,0,0:0:0:0:
329,192,52846,128,0,53060:0:0:0:0:
475,192,52846,1,8,0:0:0:0:
109,192,53060,128,0,53274:0:0:0:0:
402,192,53060,1,0,0:0:0:0:
182,192,53274,1,4,0:0:0:0:
329,192,53274,1,2,0:0:0:0:
475,192,53274,1,0,0:0:0:0:
402,192,53488,1,0,0:0:0:0:
36,192,53703,1,8,0:0:0:0:
256,192,53703,1,0,0:0:0:0:
475,192,53703,1,0,0:0:0:0:
109,192,53917,1,0,0:0:0:0:
182,192,54131,1,2,0:0:0:0:
256,192,54131,1,0,0:0:0:0:
402,192,54346,1,2,0:0:0:0:
109,192,54560,1,8,0:0:0:0:
329,192,54560,1,0,0:0:0:0:
475,192,54560,1,0,0:0:0:0:
182,192,54774,1,0,0:0:0:0:
36,192,54988,1,2,0:0:0:0:
475,192,54988,1,0,0:0:0:0:
256,192,55203,1,2,0:0:0:0:
109,192,55417,1,8,0:0:0:0:
182,192,55417,1,0,0:0:0:0:
402,192,55417,1,0,0:0:0:0:
329,192,55631,1,0,0:0:0:0:
256,192,55846,1,2,0:0:0:0:
475,192,55846,1,0,0:0:0:0:
36,192,56060,1,2,0:0:0:0:
109,192,56274,1,8,0:0:0:0:
329,192,56274,1,0,0:0:0:0:
402,192,56274,1,0,0:0:0:0:
182,192,56488,1,0,0:0:0:0:
256,192,56596,1,0,0:0:0:0:
36,192,56703,1,6,0:0:0:0:
329,192,56703,1,0,0:0:0:0:
475,192,56703,1,0,0:0:0:0:
109,192,56917,1,0,0:0:0:0:
182,192,57131,1,8,0:0:0:0:
402,192,57131,1,0,0:0:0:0:
475,192,57131,1,0,0:0:0:0:
329,192,57346,1,0,0:0:0:0:
36,192,57560,1,2,0:0:0:0:
256,192,57560,1,0,0:0:0:0:
109,192,57774,1,2,0:0:0:0:
182,192,57988,1,8,0:0:0:0:
329,192,57988,1,0,0:0:0:0:
475,192,57988,1,0,0:0:0:0:
402,192,58203,1,0,0:0:0:0:
329,192,58310,1,0,0:0:0:0:
256,192,58417,1,0,0:0:0:0:
475,192,58417,128,0,58631:0:0:0:0:
36,192,58631,128,0,58846:0:0:0:0:
109,192,58631,1,0,0:0:0:0:
182,192,58846,1,0,0:0:0:0:
402,192,58846,1,0,0:0:0:0:
475,192,58846,128,0,59060:0:0:0:0:
256,192,59060,1,0,0:0:0:0:
182,192,59167,1,0,0:0:0:0:
109,192,59274,1,8,0:0:0:0:
402,192,59274,1,0,0:0:0:0:
109,192,59488,1,8,0:0:0:0:
402,192,59488,1,0,0:0:0:0:
109,192,59703,1,8,0:0:0:0:
402,192,59703,1,0,0:0:0:0:
36,192,59917,128,6,61846:0:0:0:0:
182,192,59917,1,0,0:0:0:0:
402,192,59917,1,0,0:0:0:0:
475,192,59917,1,0,0:0:0:0:
256,192,60346,1,2,0:0:0:0:
329,192,60560,1,8,0:0:0:0:
402,192,60560,1,0,0:0:0:0:
475,192,60560,1,0,0:0:0:0:
109,192,60774,1,0,0:0:0:0:
182,192,60988,1,2,0:0:0:0:
402,192,61203,1,2,0:0:0:0:
109,192,61417,1,8,0:0:0:0:
256,192,61417,1,0,0:0:0:0:
329,192,61417,1,0,0:0:0:0:
475,192,61631,1,0,0:0:0:0:
109,192,61846,1,2,0:0:0:0:
256,192,61846,128,0,62703:0:0:0:0:
182,192,62060,1,2,0:0:0:0:
36,192,62274,1,8,0:0:0:0:
402,192,62274,1,0,0:0:0:0:
475,192,62274,1,0,0:0:0:0:
329,192,62488,1,0,0:0:0:0:
182,192,62703,128,2,63346:0:0:0:0:
475,192,62703,1,0,0:0:0:0:
109,192,62917,1,2,0:0:0:0:
329,192,63131,1,8,0:0:0:0:
475,192,63131,1,0,0:0:0:0:
36,192,63346,1,6,0:0:0:0:
256,192,63346,1,0,0:0:0:0:
402,192,63346,128,0,64417:0:0:0:0:
475,192,63346,1,0,0:0:0:0:
329,192,63774,1,2,0:0:0:0:
36,192,63988,1,8,0:0:0:0:
109,192,63988,1,0,0:0:0:0:
475,192,63988,1,0,0:0:0:0:
182,192,64203,1,0,0:0:0:0:
256,192,64417,1,2,0:0:0:0:
475,192,64417,128,0,65274:0:0:0:0:
36,192,64631,1,2,0:0:0:0:
109,192,64846,1,8,0:0:0:0:
182,192,64846,1,0,0:0:0:0:
402,192,64846,1,0,0:0:0:0:
329,192,65060,1,0,0:0:0:0:
109,192,65274,128,0,66131:0:0:0:0:
256,192,65274,1,2,0:0:0:0:
182,192,65488,1,2,0:0:0:0:
36,192,65703,1,8,0:0:0:0:
402,192,65703,1,0,0:0:0:0:
475,192,65703,1,0,0:0:0:0:
329,192,65917,1,0,0:0:0:0:
256,192,66131,1,2,0:0:0:0:
402,192,66131,128,0,66560:0:0:0:0:
329,192,66346,1,2,0:0:0:0:
109,192,66560,1,0,0:0:0:0:
256,192,66560,128,0,66988:0:0:0:0:
475,192,66560,1,8,0:0:0:0:
36,192,66774,128,0,66988:0:0:0:0:
182,192,66774,1,0,0:0:0:0:
109,192,66988,1,6,0:0:0:0:
329,192,66988,1,0,0:0:0:0:
475,192,66988,1,0,0:0:0:0:
182,192,67417,1,8,0:0:0:0:
256,192,67417,1,0,0:0:0:0:
402,192,67417,1,0,0:0:0:0:
329,192,67631,1,0,0:0:0:0:
36,192,67846,1,2,0:0:0:0:
475,192,67846,1,0,0:0:0:0:
109,192,68060,1,2,0:0:0:0:
182,192,68274,1,8,0:0:0:0:
256,192,68274,1,0,0:0:0:0:
329,192,68274,1,0,0:0:0:0:
402,192,68488,1,0,0:0:0:0:
36,192,68703,1,2,0:0:0:0:
109,192,68703,1,0,0:0:0:0:
475,192,68917,1,2,0:0:0:0:
36,192,69131,1,8,0:0:0:0:
256,192,69131,1,0,0:0:0:0:
329,192,69131,1,0,0:0:0:0:
402,192,69346,1,0,0:0:0:0:
109,192,69560,1,2,0:0:0:0:
182,192,69560,1,0,0:0:0:0:
329,192,69774,1,2,0:0:0:0:
36,192,69988,1,8,0:0:0:0:
256,192,69988,1,0,0:0:0:0:
475,192,69988,1,0,0:0:0:0:
182,192,70203,1,0,0:0:0:0:
109,192,70417,1,6,0:0:0:0:
256,192,70417,1,0,0:0:0:0:
402,192,70417,1,0,0:0:0:0:
329,192,70631,1,0,0:0:0:0:
36,192,70846,1,8,0:0:0:0:
182,192,70846,1,0,0:0:0:0:
475,192,70846,1,0,0:0:0:0:
256,192,71060,1,0,0:0:0:0:
329,192,71274,1,2,0:0:0:0:
402,192,71274,1,0,0:0:0:0:
109,192,71488,1,2,0:0:0:0:
36,192,71703,1,8,0:0:0:0:
256,192,71703,1,0,0:0:0:0:
475,192,71703,1,0,0:0:0:0:
329,192,71917,1,0,0:0:0:0:
256,192,72024,1,0,0:0:0:0:
109,192,72131,128,2,72346:0:0:0:0:
182,192,72131,1,0,0:0:0:0:
329,192,72346,1,2,0:0:0:0:
402,192,72346,128,0,72560:0:0:0:0:
36,192,72560,1,8,0:0:0:0:
256,192,72560,128,0,72774:0:0:0:0:
475,192,72560,1,0,0:0:0:0:
109,192,72774,1,0,0:0:0:0:
182,192,72881,1,0,0:0:0:0:
329,192,72988,1,8,0:0:0:0:
402,192,72988,1,0,0:0:0:0:
475,192,72988,1,0,0:0:0:0:
256,192,73203,1,2,0:0:0:0:
36,192,73417,1,8,0:0:0:0:
182,192,73417,1,0,0:0:0:0:
475,192,73417,1,0,0:0:0:0:
256,192,73631,1,6,0:0:0:0:
329,192,73631,1,0,0:0:0:0:
402,192,73631,1,0,0:0:0:0:
109,192,74060,1,2,0:0:0:0:
36,192,74274,1,8,0:0:0:0:
182,192,74274,1,0,0:0:0:0:
475,192,74274,1,0,0:0:0:0:
402,192,74488,1,0,0:0:0:0:
256,192,74703,1,2,0:0:0:0:
329,192,74703,1,0,0:0:0:0:
182,192,74917,1,2,0:0:0:0:
36,192,75131,1,8,0:0:0:0:
256,192,75131,1,0,0:0:0:0:
475,192,75131,1,0,0:0:0:0:
109,192,75346,1,6,0:0:0:0:
256,192,75346,1,0,0:0:0:0:
402,192,75346,1,0,0:0:0:0:
329,192,75774,1,2,0:0:0:0:
36,192,75988,1,8,0:0:0:0:
109,192,75988,1,0,0:0:0:0:
182,192,75988,1,0,0:0:0:0:
256,192,76203,1,2,0:0:0:0:
475,192,76417,1,0,0:0:0:0:
402,192,76631,1,2,0:0:0:0:
36,192,76846,1,8,0:0:0:0:
256,192,76846,1,0,0:0:0:0:
475,192,76846,1,0,0:0:0:0:
182,192,76953,1,0,0:0:0:0:
109,192,77060,1,0,0:0:0:0:
256,192,77167,1,0,0:0:0:0:
182,192,77274,1,6,0:0:0:0:
329,192,77274,1,0,0:0:0:0:
402,192,77274,1,0,0:0:0:0:
36,192,78560,128,0,78774:0:0:0:0:
475,192,78774,128,0,79846:0:0:0:0:
109,192,79846,1,8,0:0:0:0:
402,192,79846,1,0,0:0:0:0:
256,192,80060,128,0,80274:0:0:0:0:
182,192,80274,1,8,0:0:0:0:
329,192,80274,1,0,0:0:0:0:
36,192,80488,1,6,0:0:0:0:
256,192,80488,1,0,0:0:0:0:
475,192,80488,1,0,0:0:0:0:
402,192,80703,1,0,0:0:0:0:
109,192,80917,1,0,0:0:0:0:
329,192,81131,1,8,0:0:0:0:
402,192,81131,1,0,0:0:0:0:
475,192,81131,128,0,81346:0:0:0:0:
256,192,81346,1,0,0:0:0:0:
182,192,81560,1,0,0:0:0:0:
36,192,81774,1,2,0:0:0:0:
109,192,81774,128,0,81988:0:0:0:0:
256,192,81988,1,8,0:0:0:0:
329,192,81988,1,0,0:0:0:0:
182,192,82203,1,0,0:0:0:0:
402,192,82203,128,0,82417:0:0:0:0:
475,192,82203,1,0,0:0:0:0:
36,192,82417,1,2,0:0:0:0:
109,192,82631,128,2,82846:0:0:0:0:
329,192,82631,1,0,0:0:0:0:
182,192,82846,1,8,0:0:0:0:
256,192,82846,128,0,83060:0:0:0:0:
475,192,82846,1,0,0:0:0:0:
402,192,83060,1,2,0:0:0:0:
36,192,83274,1,0,0:0:0:0:
109,192,83488,1,2,0:0:0:0:
329,192,83488,128,0,83703:0:0:0:0:
182,192,83703,1,8,0:0:0:0:
475,192,83703,1,0,0:0:0:0:
256,192,83917,128,0,84131:0:0:0:0:
402,192,83917,1,0,0:0:0:0:
36,192,84131,1,2,0:0:0:0:
109,192,84131,128,0,84346:0:0:0:0:
182,192,84346,1,0,0:0:0:0:
329,192,84560,1,8,0:0:0:0:
402,192,84560,1,0,0:0:0:0:
475,192,84560,128,0,84774:0:0:0:0:
256,192,84774,1,0,0:0:0:0:
109,192,84988,1,0,0:0:0:0:
256,192,85203,128,2,85417:0:0:0:0:
329,192,85203,1,0,0:0:0:0:
36,192,85417,1,8,0:0:0:0:
475,192,85417,1,0,0:0:0:0:
109,192,85631,128,0,85846:0:0:0:0:
182,192,85631,1,0,0:0:0:0:
329,192,85846,1,2,0:0:0:0:
256,192,86060,128,2,86274:0:0:0:0:
402,192,86060,1,0,0:0:0:0:
36,192,86274,1,8,0:0:0:0:
182,192,86274,1,0,0:0:0:0:
475,192,86274,128,0,86488:0:0:0:0:
109,192,86488,1,2,0:0:0:0:
256,192,86703,1,8,0:0:0:0:
402,192,86703,1,0,0:0:0:0:
182,192,86917,1,2,0:0:0:0:
329,192,86917,1,0,0:0:0:0:
182,192,87131,1,2,0:0:0:0:
329,192,87131,1,0,0:0:0:0:
36,192,87346,1,6,0:0:0:0:
256,192,87346,1,0,0:0:0:0:
475,192,87346,1,0,0:0:0:0:
