osu file format v13

[General]
AudioFilename: Rei Yasuda Mirror.mp3
AudioLeadIn: 1000
PreviewTime: 56625
Countdown: 0
SampleSet: Soft
StackLeniency: 0.7
Mode: 0
LetterboxInBreaks: 0
WidescreenStoryboard: 0

[Editor]
Bookmarks: 17767,43034
DistanceSpacing: 1.8
BeatDivisor: 4
GridSize: 32
TimelineZoom: 0.8

[Metadata]
Title:Mirror -TV edit-
TitleUnicode:Mirror -TV edit-
Artist:Yasuda Rei
ArtistUnicode:安田レイ
Creator:Umi
Version:Insane
Source:Mahouka Koukou no Rettousei
Tags:魔法科高校の劣等生 ending the irregular at magic high school no_gu fumika desperate-kun
BeatmapID:496376
BeatmapSetID:211036

[Difficulty]
HPDrainRate:7
CircleSize:4
OverallDifficulty:7
ApproachRate:8.5
SliderMultiplier:2
SliderTickRate:1

[Events]
//Background and Video events
Video,-185,"Mahouka ED.avi"
0,0,"Mahouka.jpg",0,0
//Break Periods
//Storyboard Layer 0 (Background)
//Storyboard Layer 1 (Fail)
//Storyboard Layer 2 (Pass)
//Storyboard Layer 3 (Foreground)
//Storyboard Sound Samples
//Background Colour Transformations
3,100,163,162,255

[TimingPoints]
405,472.44094488189,4,2,1,60,1,0
405,-166.666666666667,4,2,2,30,0,0
2294,-166.666666666667,4,2,2,35,0,0
9853,-125,4,2,1,50,0,0
12924,-125,4,2,1,30,0,0
13633,-125,4,2,1,50,0,0
16704,-125,4,2,1,30,0,0
17294,-125,4,2,1,40,0,0
20483,-125,4,2,1,30,0,0
21192,-125,4,2,1,50,0,0
24971,-100,4,2,1,65,0,0
45523,-100,4,2,1,40,0,0
45641,-100,4,2,1,65,0,0
47649,-100,4,2,1,80,0,0
49066,-100,4,2,1,60,0,0
49302,-100,4,2,1,80,0,0
56625,-100,4,2,1,70,0,0
56743,-100,4,2,1,80,0,0
56861,-100,4,2,1,90,0,0
56979,-100,4,2,1,100,0,0
57097,-100,4,2,1,80,0,1
70562,-100,4,2,1,70,0,1
71034,-100,4,2,1,80,0,1
71507,-100,4,2,1,90,0,1
71979,-100,4,2,1,100,0,1
72097,-100,4,2,1,100,0,0
72216,-100,4,2,1,80,0,1
79302,-100,4,2,1,60,0,1
79538,-100,4,2,1,80,0,1
85444,-100,4,2,1,70,0,0
85916,-100,4,2,1,50,0,0
86389,-100,4,2,1,80,0,0
87334,-100,4,2,1,90,0,0
87452,-100,4,2,1,50,0,0
89223,-100,4,2,1,5,0,0

[Colours]
Combo1 : 206,179,242
Combo2 : 196,196,196
Combo3 : 136,204,240
Combo4 : 58,95,218
Combo5 : 150,231,204

[HitObjects]
87,176,405,6,0,L|146:170,1,59.9999981689454,2|0,0:0|0:0,0:0:0:0:
321,285,877,1,0,0:0:0:0:
235,231,1113,1,0,0:0:0:0:
387,167,1349,2,0,P|400:193|403:223,1,59.9999981689454,2|0,0:0|0:0,0:0:0:0:
241,101,1822,2,0,P|244:72|261:48,1,59.9999981689454,0|0,0:0|0:0,0:0:0:0:
299,219,2294,6,0,P|241:231|184:218,1,119.999996337891,2|0,0:0|0:0,0:0:0:0:
73,145,3003,2,0,L|92:263,1,119.999996337891,2|0,0:0|0:0,0:0:0:0:
247,137,3712,2,0,L|254:107,3,29.9999990844727,0|0|0|0,0:0|0:0|0:0|0:0,0:0:0:0:
262,75,4184,6,0,P|321:67|380:75,1,119.999996337891,2|0,0:0|0:0,0:0:0:0:
230,249,4893,2,0,P|171:241|112:249,1,119.999996337891,2|0,0:0|0:0,0:0:0:0:
312,339,5601,1,0,0:0:0:0:
325,312,5719,1,0,0:0:0:0:
338,284,5838,1,0,0:0:0:0:
353,258,5956,1,0,0:0:0:0:
364,230,6074,6,0,L|423:225,1,59.9999981689454,2|0,0:0|0:0,0:0:0:0:
258,241,6546,1,0,0:0:0:0:
171,170,6782,2,0,P|158:113|175:56,1,119.999996337891,2|0,0:0|0:0,0:0:0:0:
352,32,7491,1,0,0:0:0:0:
362,60,7609,1,0,0:0:0:0:
364,89,7727,1,0,0:0:0:0:
364,118,7845,1,0,0:0:0:0:
358,147,7964,5,2,0:0:0:0:
139,306,8436,1,0,0:0:0:0:
202,40,8908,1,2,0:0:0:0:
255,244,9381,1,0,0:0:0:0:
255,244,9853,6,0,P|288:223|310:190,1,80,6|0,0:0|0:0,0:0:0:0:
311,33,10326,1,0,0:0:0:0:
221,156,10562,2,0,P|182:165|144:157,1,80,2|0,0:0|0:0,0:0:0:0:
43,69,11034,1,0,0:0:0:0:
97,246,11271,1,0,0:0:0:0:
97,246,11507,1,0,0:0:0:0:
205,119,11743,6,0,P|238:139|255:175,1,80,2|0,0:0|0:0,0:0:0:0:
261,256,12097,2,0,L|339:239,1,80
417,217,12452,1,2,0:0:0:0:
342,343,12688,1,0,0:0:0:0:
320,184,12924,2,0,L|313:125,1,40,2|2,0:0|0:0,0:0:0:0:
432,100,13160,2,0,L|427:139,1,40,2|2,0:0|0:0,0:0:0:0:
417,217,13397,1,2,0:0:0:0:
272,99,13633,6,0,P|229:134|222:178,1,80,2|0,0:0|0:0,0:0:0:0:
229,299,14105,1,0,0:0:0:0:
375,344,14342,2,0,P|399:269|371:196,1,160,2|0,0:0|0:0,0:0:0:0:
264,272,15050,1,0,0:0:0:0:
376,344,15286,1,0,0:0:0:0:
181,343,15523,6,0,P|159:311|155:272,1,80,2|0,0:0|0:0,0:0:0:0:
190,189,15877,2,0,P|153:180|112:190,1,80
264,272,16231,2,0,P|301:281|342:271,1,80,2|0,0:0|0:0,0:0:0:0:
394,136,16704,1,2,0:0:0:0:
394,136,16822,1,2,0:0:0:0:
394,136,16940,2,0,L|338:135,1,40,2|2,0:0|0:0,0:0:0:0:
279,97,17176,2,0,L|231:97,1,40
178,37,17412,6,0,P|155:71|153:113,1,80,2|0,0:0|0:0,0:0:0:0:
215,255,17885,1,0,0:0:0:0:
355,167,18121,2,0,P|378:200|383:240,1,80,2|0,0:0|0:0,0:0:0:0:
299,311,18593,1,0,0:0:0:0:
203,154,18830,2,0,L|227:66,1,80,0|0,0:0|0:0,0:0:0:0:
261,245,19302,6,0,P|204:258|146:245,2,120,2|0|2,0:0|0:0|0:0,0:0:0:0:
380,157,20247,1,0,0:0:0:0:
318,27,20483,1,0,0:0:0:0:
290,30,20601,1,0,0:0:0:0:
262,33,20719,1,0,0:0:0:0:
234,36,20838,1,0,0:0:0:0:
206,38,20956,1,0,0:0:0:0:
130,150,21192,6,0,L|209:140,1,80,2|0,0:0|0:0,0:0:0:0:
323,231,21546,2,0,L|243:226,1,80
172,116,21901,2,0,L|251:106,1,80,2|0,0:0|0:0,0:0:0:0:
391,86,22373,1,0,0:0:0:0:
467,257,22609,2,0,P|442:287|406:303,1,80
280,201,23082,6,0,P|241:197|201:202,1,80,2|0,0:0|0:0,0:0:0:0:
112,235,23436,2,0,L|136:326,1,80
35,197,23790,2,0,P|59:166|95:151,1,80,2|0,0:0|0:0,0:0:0:0:
295,151,24263,6,0,P|313:159|332:162,1,40,2|2,0:0|0:0,0:0:0:0:
446,107,24499,2,0,P|427:110|409:119,1,40,8|2,0:3|0:0,0:0:0:0:
414,236,24735,2,0,P|412:217|406:198,1,40
332,84,24971,6,0,L|232:96,1,100,6|0,0:0|0:0,0:0:0:0:
208,101,25326,1,0,0:0:0:0:
183,104,25444,1,0,0:0:0:0:
114,271,25680,2,0,P|160:287|210:288,1,100,8|0,0:0|0:0,0:0:0:0:
261,174,26153,1,2,0:0:0:0:
389,321,26389,1,8,0:0:0:0:
459,200,26625,1,0,0:0:0:0:
459,200,26743,1,0,0:0:0:0:
459,200,26861,6,0,P|409:202|371:233,1,100,2|0,0:0|0:0,0:0:0:0:
300,287,27216,2,0,P|339:318|388:320,1,100,2|0,0:0|0:0,0:0:0:0:
280,199,27570,2,0,B|237:177|181:191|128:205|82:190,1,200,8|2,0:0|0:0,0:0:0:0:
142,26,28279,1,8,0:0:0:0:
162,40,28397,1,8,0:0:0:0:
181,56,28515,1,2,0:0:0:0:
200,71,28633,1,2,0:0:0:0:
220,85,28751,6,0,L|319:75,1,100,2|0,0:0|0:0,0:0:0:0:
421,98,29105,2,0,P|444:142|447:192,1,100,0|0,0:0|0:0,0:0:0:0:
385,338,29460,2,0,P|361:294|358:244,1,100,8|0,0:0|0:0,0:0:0:0:
421,98,29932,1,2,0:0:0:0:
358,245,30168,1,8,0:0:0:0:
195,187,30405,1,0,0:0:0:0:
198,152,30523,1,0,0:0:0:0:
201,116,30641,6,0,L|360:105,1,150,2|2,0:0|0:0,0:0:0:0:
480,280,31349,2,0,L|380:272,1,100,8|0,0:0|0:0,0:0:0:0:
201,117,31822,1,2,0:0:0:0:
174,139,31940,1,0,0:0:0:0:
162,171,32058,1,8,0:0:0:0:
160,205,32176,1,8,0:0:0:0:
170,238,32294,1,2,0:0:0:0:
243,326,32530,6,0,L|342:336,1,100,6|0,0:0|0:0,0:0:0:0:
372,340,32885,1,0,0:0:0:0:
401,342,33003,1,0,0:0:0:0:
419,126,33239,2,0,L|319:136,1,100,8|0,0:0|0:0,0:0:0:0:
180,146,33712,2,0,P|156:190|162:239,2,100,2|8|0,0:0|0:0|0:0,0:0:0:0:
227,120,34302,1,0,0:0:0:0:
227,120,34420,6,0,P|275:130|324:121,1,100,2|0,0:0|0:0,0:0:0:0:
406,95,34775,2,0,L|391:193,1,100,2|0,0:0|0:0,0:0:0:0:
502,323,35129,2,0,L|487:224,1,100,8|0,0:0|0:0,0:0:0:0:
406,95,35601,1,2,0:0:0:0:
367,85,35719,1,0,0:0:0:0:
325,82,35838,1,8,0:0:0:0:
285,85,35956,1,8,0:0:0:0:
246,95,36074,1,2,0:0:0:0:
95,252,36310,6,0,P|166:270|238:252,1,150,2|0,0:0|0:0,0:0:0:0:
389,95,37019,2,0,L|394:194,1,100,8|0,0:0|0:0,0:0:0:0:
482,37,37491,1,2,0:0:0:0:
290,146,37727,1,8,0:0:0:0:
482,177,37964,1,2,0:0:0:0:
326,35,38200,6,0,P|252:28|194:72,1,150,2|2,0:0|0:0,0:0:0:0:
185,127,38672,1,8,0:0:0:0:
227,275,38908,2,0,P|299:213|282:119,1,200,6|2,0:0|0:0,0:0:0:0:
103,224,39617,1,8,0:0:0:0:
92,257,39735,1,8,0:0:0:0:
92,292,39853,1,4,0:3:0:0:
104,324,39971,1,2,0:0:0:0:
124,352,40090,6,0,L|273:343,1,150,6|2,0:0|0:0,0:0:0:0:
419,137,40798,2,0,P|371:133|336:98,1,100,8|0,0:0|0:0,0:0:0:0:
319,45,41153,1,8,0:0:0:0:
319,45,41271,2,0,L|220:59,1,100,2|8,0:0|0:0,0:0:0:0:
61,82,41743,1,0,0:0:0:0:
202,176,41979,6,0,P|214:224|204:272,1,100,2|0,0:0|0:0,0:0:0:0:
156,338,42334,2,0,P|228:318|301:334,1,150,2|8,0:0|0:0,0:0:0:0:
483,251,42924,1,0,0:0:0:0:
483,251,43042,1,8,0:0:0:0:
483,251,43160,2,0,P|436:265|389:251,1,100,2|8,0:0|0:0,0:0:0:0:
281,198,43633,1,0,0:0:0:0:
159,84,43869,6,0,P|206:70|253:83,1,100,6|0,0:0|0:0,0:0:0:0:
301,150,44223,2,0,P|314:77|372:33,2,150,2|2|8,0:0|0:0|0:0,0:0:0:0:
313,203,45050,1,2,0:0:0:0:
413,138,45286,1,8,0:0:0:0:
504,278,45523,1,4,0:0:0:0:
480,303,45641,1,0,0:0:0:0:
453,325,45759,6,0,P|404:329|354:326,1,100,2|0,0:0|0:0,0:0:0:0:
306,322,46113,1,2,0:0:0:0:
201,206,46349,1,0,0:0:0:0:
201,206,46467,2,0,P|275:201|350:205,1,150,2|8,0:0|0:0,0:0:0:0:
401,212,46940,1,2,0:0:0:0:
401,212,47176,1,8,0:0:0:0:
408,183,47294,1,8,0:0:0:0:
415,154,47412,1,0,0:0:0:0:
423,125,47530,1,0,0:0:0:0:
432,96,47649,6,0,P|475:118|495:163,1,100,4|0,0:0|0:0,0:0:0:0:
378,295,48003,2,0,P|335:273|315:228,1,100,2|0,0:0|0:0,0:0:0:0:
308,86,48357,2,0,P|243:121|170:111,1,150,2|8,0:0|0:0,0:0:0:0:
126,88,48830,1,2,0:0:0:0:
192,244,49066,1,12,0:0:0:0:
65,160,49302,1,0,0:0:0:0:
227,28,49538,6,0,L|240:127,1,100,4|0,0:0|0:0,0:0:0:0:
337,129,49893,2,0,L|301:222,1,100,2|0,0:0|0:0,0:0:0:0:
250,302,50247,2,0,P|300:294|349:301,1,100,2|0,0:0|0:0,0:0:0:0:
492,336,50719,1,2,0:0:0:0:
492,336,50838,1,2,0:0:0:0:
492,336,50956,2,0,L|480:236,1,100,12|0,0:0|0:0,0:0:0:0:
273,149,51428,6,0,P|199:157|133:124,2,150,6|8|8,0:0|0:0|0:0,0:0:0:0:
437,94,52373,2,0,P|453:141|454:190,1,100,2|0,0:0|0:0,0:0:0:0:
434,268,52727,1,2,0:0:0:0:
434,268,52845,2,0,P|386:258|337:267,1,100,12|0,0:0|0:0,0:0:0:0:
169,149,53318,6,0,P|218:148|260:122,1,100,8|0,0:0|0:0,0:0:0:0:
102,78,53672,2,0,P|74:119|73:169,1,100,8|0,0:0|0:0,0:0:0:0:
104,249,54027,1,8,0:0:0:0:
290,217,54263,1,8,0:0:0:0:
169,149,54499,1,8,0:3:0:0:
242,330,54735,2,0,P|291:334|341:328,1,100,4|0,0:3|0:0,0:0:0:0:
452,223,55208,6,0,L|430:125,1,100,4|0,0:0|0:0,0:0:0:0:
420,91,55562,1,0,0:0:0:0:
420,91,55680,1,8,0:0:0:0:
245,48,55916,1,0,0:0:0:0:
245,48,56034,1,8,0:0:0:0:
245,48,56153,2,0,L|223:145,1,100,8|2,0:0|0:0,0:0:0:0:
181,255,56625,5,8,0:0:0:0:
131,278,56743,1,8,0:0:0:0:
93,237,56861,1,8,0:0:0:0:
119,189,56979,1,8,0:0:0:0:
175,196,57097,6,0,P|224:206|273:197,1,100,6|2,0:0|0:0,0:0:0:0:
320,179,57452,1,0,0:0:0:0:
320,179,57570,2,0,L|322:278,1,100,8|2,0:0|0:0,0:0:0:0:
446,179,58042,2,0,L|449:129,2,50,0|8|2,0:0|0:0|0:0,0:0:0:0:
341,46,58515,1,8,0:0:0:0:
233,192,58751,1,0,0:0:0:0:
249,222,58869,1,8,0:0:0:0:
266,252,58987,6,0,L|365:248,1,100,2|2,0:0|0:0,0:0:0:0:
218,163,59460,1,8,0:0:0:0:
120,311,59696,1,2,0:0:0:0:
92,289,59814,1,8,0:0:0:0:
76,257,59932,1,0,0:0:0:0:
70,222,60050,1,8,0:0:0:0:
75,187,60168,1,2,0:0:0:0:
146,46,60405,1,8,0:0:0:0:
288,156,60641,1,0,0:0:0:0:
288,156,60759,1,8,0:0:0:0:
288,156,60877,6,0,P|338:162|388:157,1,100,2|2,0:0|0:0,0:0:0:0:
229,283,61349,2,0,P|179:277|129:282,1,100,8|2,0:0|0:0,0:0:0:0:
97,295,61704,1,8,0:0:0:0:
77,266,61822,1,0,0:0:0:0:
59,235,61940,1,8,0:0:0:0:
40,205,62058,1,2,0:0:0:0:
118,65,62294,1,8,0:0:0:0:
190,174,62530,1,0,0:0:0:0:
322,35,62767,6,0,P|343:79|346:129,1,100,2|2,0:0|0:0,0:0:0:0:
340,179,63121,1,0,0:0:0:0:
340,179,63239,1,8,0:0:0:0:
215,268,63475,1,2,0:0:0:0:
215,268,63593,1,8,0:0:0:0:
215,268,63712,1,0,0:0:0:0:
215,268,63830,1,8,0:0:0:0:
215,268,63948,2,0,P|194:224|190:174,1,100,2|8,0:0|0:0,0:0:0:0:
234,46,64420,1,8,0:0:0:0:
234,46,64538,1,8,0:0:0:0:
234,46,64656,6,0,L|333:59,1,100,6|2,0:0|0:0,0:0:0:0:
153,122,65129,1,8,0:0:0:0:
234,219,65365,1,2,0:0:0:0:
268,214,65483,1,8,0:0:0:0:
302,208,65601,1,0,0:0:0:0:
336,202,65719,1,8,0:0:0:0:
370,196,65838,1,2,0:0:0:0:
487,327,66074,2,0,P|441:345|392:345,1,100,8|0,0:0|0:0,0:0:0:0:
358,336,66428,1,8,0:0:0:0:
358,336,66546,6,0,L|340:237,1,100,2|2,0:0|0:0,0:0:0:0:
249,66,67019,2,0,P|214:101|205:150,1,100,8|2,0:0|0:0,0:0:0:0:
215,183,67373,1,8,0:0:0:0:
224,216,67491,1,0,0:0:0:0:
224,250,67609,1,8,0:0:0:0:
214,283,67727,1,2,0:0:0:0:
105,231,67964,1,8,0:0:0:0:
265,114,68200,2,0,L|249:67,1,50,0|8,0:0|0:0,0:0:0:0:
340,131,68436,6,0,P|317:174|271:191,2,100,2|2|8,0:0|0:0|0:0,0:0:0:0:
151,179,69145,2,0,L|164:227,1,50,2|8,0:0|0:0,0:0:0:0:
428,134,69499,2,0,L|438:85,1,50,8|2,0:0|0:0,0:0:0:0:
400,262,69853,1,8,0:0:0:0:
272,149,70090,1,0,0:0:0:0:
265,114,70208,1,8,0:0:0:0:
259,78,70326,6,0,P|211:67|163:78,1,100,2|2,0:0|0:0,0:0:0:0:
96,108,70680,1,8,0:0:0:0:
96,108,70798,2,0,L|88:157,3,50,8|2|8|8,0:0|0:0|0:0|0:0,0:0:0:0:
86,192,71271,1,2,0:0:0:0:
89,226,71389,1,8,0:0:0:0:
106,257,71507,1,8,0:0:0:0:
133,278,71625,1,8,0:0:0:0:
167,283,71743,2,0,L|216:278,3,50,8|8|8|8,0:0|0:0|0:0|0:0,0:0:0:0:
296,271,72216,6,0,P|322:228|324:179,1,100,6|2,0:0|0:0,0:0:0:0:
253,48,72688,1,8,0:0:0:0:
324,179,72924,1,2,0:0:0:0:
358,186,73042,1,8,0:0:0:0:
392,190,73160,1,0,0:0:0:0:
427,186,73279,1,8,0:0:0:0:
461,179,73397,1,2,0:0:0:0:
475,74,73633,1,8,0:0:0:0:
448,292,73869,1,0,0:0:0:0:
324,179,74105,6,0,P|274:175|224:180,1,100,2|2,0:0|0:0,0:0:0:0:
100,220,74578,2,0,L|113:120,1,100,8|2,0:0|0:0,0:0:0:0:
119,71,74932,1,8,0:0:0:0:
322,44,75168,2,0,L|332:92,1,50,8|2,0:0|0:0,0:0:0:0:
368,234,75523,1,8,0:0:0:0:
189,246,75759,1,0,0:0:0:0:
189,246,75877,1,8,0:0:0:0:
189,246,75995,6,0,L|203:147,1,100,2|2,0:0|0:0,0:0:0:0:
322,44,76467,1,8,0:0:0:0:
462,143,76704,2,0,P|440:152|415:154,1,50,2|8,0:0|0:0,0:0:0:0:
190,83,77058,2,0,P|213:72|238:71,1,50,8|2,0:0|0:0,0:0:0:0:
132,156,77412,2,0,P|102:118|98:69,1,100,8|0,0:0|0:0,0:0:0:0:
272,150,77885,6,0,P|267:199|241:241,1,100,2|2,0:0|0:0,0:0:0:0:
158,335,78357,1,8,0:0:0:0:
341,295,78593,1,2,0:0:0:0:
375,290,78712,1,8,0:0:0:0:
409,293,78830,1,0,0:0:0:0:
439,309,78948,1,8,0:0:0:0:
467,331,79066,2,0,P|487:285|479:236,1,100,2|12,0:0|0:0,0:0:0:0:
375,103,79538,1,8,0:0:0:0:
356,132,79656,1,8,0:0:0:0:
337,161,79775,6,0,L|237:149,1,100,6|2,0:0|0:0,0:0:0:0:
105,308,80247,2,0,L|204:296,1,100,8|2,0:0|0:0,0:0:0:0:
253,289,80601,1,8,0:0:0:0:
420,183,80838,2,0,P|433:203|439:228,1,50,8|2,0:0|0:0,0:0:0:0:
327,132,81192,2,0,P|323:82|349:41,1,100,8|0,0:0|0:0,0:0:0:0:
238,184,81664,6,0,P|214:140|213:90,1,100,2|2,0:0|0:0,0:0:0:0:
87,176,82137,1,8,0:0:0:0:
199,308,82373,2,0,L|248:305,1,50,2|8,0:0|0:0,0:0:0:0:
421,117,82727,2,0,L|371:108,1,50,8|2,0:0|0:0,0:0:0:0:
165,79,83082,2,0,P|152:126|161:175,1,100,8|0,0:0|0:0,0:0:0:0:
350,208,83554,6,0,P|359:256|346:304,1,100,6|2,0:0|0:0,0:0:0:0:
273,133,84027,2,0,L|357:79,1,100,8|2,0:0|0:0,0:0:0:0:
400,53,84381,1,0,0:0:0:0:
200,44,84617,1,0,0:0:0:0:
171,71,84735,1,2,0:0:0:0:
156,110,84853,1,2,0:0:0:0:
159,149,84971,1,4,0:0:0:0:
244,247,85208,1,0,0:0:0:0:
244,247,85326,1,8,0:0:0:0:
244,247,85444,6,0,B|293:235|346:245|409:258|442:238,2,200,6|8|4,0:0|0:3|0:0,0:0:0:0:
81,300,86625,1,2,0:0:0:0:
57,274,86743,1,8,0:0:0:0:
36,245,86861,2,0,L|45:145,1,100,8|2,0:0|0:0,0:0:0:0:
256,50,87334,5,6,0:0:0:0:
256,192,87452,12,0,89223,0:0:0:0:
