osu file format v14

[General]
AudioFilename: Mahouka Koukou no Rettousei ED2 Tv-Size.mp3
AudioLeadIn: 1000
PreviewTime: 57651
Countdown: 0
SampleSet: Soft
StackLeniency: 0.7
Mode: 0
LetterboxInBreaks: 0
WidescreenStoryboard: 0

[Editor]
DistanceSpacing: 1.2
BeatDivisor: 4
GridSize: 4
TimelineZoom: 1

[Metadata]
Title:Mirror -TV Edit-
TitleUnicode:Mirror -TV Edit-
Artist:Yasuda Rei
ArtistUnicode:安田レイ
Creator:Estellia-
Version:Insane
Source:魔法科高校の劣等生
Tags:エンディングテーマ ED Ending The irregular at magic high school Mahouka Koukou no Rettousei Shiba Tatsuya Miyuki
BeatmapID:515863
BeatmapSetID:220239

[Difficulty]
HPDrainRate:7
CircleSize:4
OverallDifficulty:7
ApproachRate:8
SliderMultiplier:1.8
SliderTickRate:1

[Events]
//Background and Video events
Video,-621,"video.avi"
0,0,"tatsuya.jpg",0,0
//Break Periods
//Storyboard Layer 0 (Background)
//Storyboard Layer 1 (Fail)
//Storyboard Layer 2 (Pass)
//Storyboard Layer 3 (Foreground)
//Storyboard Sound Samples

[TimingPoints]
1067,472.44094488189,4,2,1,100,1,0
1067,-125,4,2,1,10,0,0
2956,-111.111111111111,4,2,1,20,0,0
10515,-100,4,2,1,40,0,0
17602,-100,4,3,1,40,0,0
18192,-100,4,2,1,40,0,0
25161,-100,4,3,1,40,0,0
25752,-100,4,2,1,40,0,0
32720,-100,4,3,1,40,0,0
33311,-100,4,2,1,40,0,0
40279,-100,4,3,1,40,0,0
40752,-125,4,2,1,30,0,0
44531,-125,4,2,1,50,0,0
44767,-125,4,2,1,30,0,0
48311,-111.111111111111,4,2,1,30,0,0
54925,-111.111111111111,4,3,1,30,0,0
55870,-111.111111111111,4,2,1,50,0,0
57759,-83.3333333333333,4,2,1,70,0,1
64846,-83.3333333333333,4,3,1,70,0,1
65437,-83.3333333333333,4,2,1,70,0,1
72405,-83.3333333333333,4,3,1,70,0,0
72878,-83.3333333333333,4,2,1,70,0,1
86106,-83.3333333333333,4,2,1,65,0,0
89767,-100,4,2,1,10,0,0

[Colours]
Combo1 : 64,120,207
Combo2 : 44,224,125
Combo3 : 57,176,198
Combo4 : 191,230,245

[HitObjects]
274,272,1067,5,2,0:0:0:0:
309,168,1303,1,0,0:0:0:0:
408,120,1539,1,0,0:0:0:0:
511,154,1775,1,0,0:0:0:0:
425,244,2011,5,2,2:0:0:0:
408,120,2248,1,0,2:0:0:0:
307,43,2484,1,0,2:0:0:0:
181,58,2720,1,0,2:0:0:0:
56,128,2956,6,0,P|136:176|216:140,1,161.999995056153,2|0,0:0|0:0,0:0:0:0:
320,136,3665,1,0,0:0:0:0:
450,190,3901,1,0,0:0:0:0:
126,196,4255,1,0,0:0:0:0:
126,196,4374,1,2,0:0:0:0:
320,136,4610,1,0,0:0:0:0:
126,196,4846,6,0,P|122:265|188:332,1,161.999995056153,0|0,0:0|0:0,0:0:0:0:
220,234,5555,1,2,0:0:0:0:
192,96,5791,1,0,0:0:0:0:
423,279,6145,1,0,0:0:0:0:
423,279,6263,2,0,P|429:239|421:199,1,80.9999975280763,2|0,0:0|0:0,0:0:0:0:
302,283,6736,6,0,P|297:322|305:362,2,80.9999975280763,0|0|2,0:0|0:0|0:0,0:0:0:0:
206,215,7444,1,0,0:0:0:0:
206,215,7681,2,0,L|56:196,1,121.499996292114,0|0,0:0|0:0,0:0:0:0:
146,125,8153,2,0,L|242:137,1,80.9999975280763,2|0,0:0|0:0,0:0:0:0:
256,192,8626,12,4,10515,0:0:0:0:
178,285,10752,6,0,P|170:229|178:189,1,90,0|2,0:0|0:0,0:0:0:0:
314,173,11224,2,0,L|458:185,1,135,0|0,0:0|0:0,0:0:0:0:
449,184,11696,2,0,P|457:144|453:88,1,90,0|2,0:0|0:0,0:0:0:0:
238,125,12169,2,0,P|230:165|234:221,1,90,0|2,0:0|0:0,0:0:0:0:
324,269,12641,2,0,P|248:235|163:298,1,180,0|2,0:0|0:0,0:0:0:0:
112,160,13350,2,0,L|-12:144,1,90
4,24,13822,2,0,L|128:40,1,90,2|0,0:0|0:0,0:0:0:0:
200,140,14295,5,0,0:0:0:0:
284,96,14531,2,0,P|288:52|280:-4,1,90,0|2,0:0|0:0,0:0:0:0:
200,140,15004,2,0,P|272:192|336:180,1,135
314,189,15476,2,0,P|308:233|312:278,1,90,0|2,0:0|0:0,0:0:0:0:
468,177,15948,2,0,P|474:133|470:88,1,90,0|2,0:0|0:0,0:0:0:0:
367,51,16421,2,0,B|279:79|280:21|193:51,1,180,0|0,0:0|0:0,0:0:0:0:
100,109,17129,2,0,P|88:183|89:219,1,90
235,289,17602,5,8,0:0:0:0:
195,273,17720,1,8,0:0:0:0:
151,265,17838,1,4,0:0:0:0:
107,273,17956,1,4,0:0:0:0:
67,294,18074,1,4,0:0:0:0:
212,122,18311,6,0,L|332:130,1,90,0|2,0:0|0:0,0:0:0:0:
414,236,18783,2,0,L|244:224,1,135
279,226,19255,2,0,P|296:307|288:339,1,90,0|2,0:0|0:0,0:0:0:0:
194,199,19728,2,0,P|255:143|287:134,1,90,0|2,0:0|0:0,0:0:0:0:
345,75,20200,2,0,P|266:49|242:26,1,90,0|2,0:0|0:0,0:0:0:0:
10,84,20673,2,0,B|46:97|85:89|109:68|109:68|189:81,1,180
219,119,21263,1,0,0:0:0:0:
255,155,21381,1,0,0:0:0:0:
48,272,21618,2,0,L|44:316,1,45
160,352,21854,6,0,P|204:368|304:320,2,135,0|0|2,0:0|0:0|0:0,0:0:0:0:
216,260,22799,1,0,0:0:0:0:
356,284,23035,2,0,L|460:296,1,90,0|2,0:0|0:0,0:0:0:0:
228,98,23744,6,0,L|384:116,1,135,0|0,0:0|0:0,0:0:0:0:
362,113,24216,2,0,P|379:69|354:-7,1,90,2|0,0:0|0:0,0:0:0:0:
286,203,24689,2,0,P|268:246|294:323,1,90
78,327,25161,6,0,P|42:323|22:327,1,45,8|8,0:0|0:0,0:0:0:0:
177,357,25397,2,0,P|213:361|233:357,1,45,4|4,0:0|0:0,0:0:0:0:
100,240,25633,1,4,0:0:0:0:
286,120,25870,6,0,L|386:136,1,90,0|2,0:0|0:0,0:0:0:0:
501,244,26342,2,0,L|335:217,1,135,0|0,0:0|0:0,0:0:0:0:
368,222,26815,2,0,P|378:152|362:108,1,90,0|2,0:0|0:0,0:0:0:0:
290,262,27287,2,0,P|345:305|391:313,1,90,0|2,0:0|0:0,0:0:0:0:
266,358,27759,2,0,P|214:319|97:385,1,180,2|0,0:0|0:0,0:0:0:0:
81,335,28350,1,0,0:0:0:0:
46,316,28468,6,0,L|-41:329,1,45,2|0,0:0|0:0,0:0:0:0:
87,215,28704,2,0,L|4:182,1,45
172,147,28941,2,0,L|115:78,1,45,2|0,0:0|0:0,0:0:0:0:
281,131,29177,2,0,L|267:44,1,45
416,176,29413,5,0,0:0:0:0:
312,244,29649,2,0,L|212:256,1,90,0|2,0:0|0:0,0:0:0:0:
64,152,30122,2,0,L|224:160,1,135,0|0,0:0|0:0,0:0:0:0:
199,159,30594,2,0,P|193:97|205:49,1,90,0|2,0:0|0:0,0:0:0:0:
388,200,31067,2,0,P|394:262|382:310,1,90,0|2,0:0|0:0,0:0:0:0:
339,125,31539,2,0,P|411:114|476:209,1,180,0|2,0:0|0:0,0:0:0:0:
472,242,32129,1,0,0:0:0:0:
446,282,32248,1,2,0:0:0:0:
238,311,32484,1,0,0:0:0:0:
56,208,32720,5,8,0:0:0:0:
100,213,32838,1,8,0:0:0:0:
145,219,32956,1,4,0:0:0:0:
189,224,33074,1,4,0:0:0:0:
234,230,33192,1,4,0:0:0:0:
357,323,33429,6,0,P|385:259|353:187,1,135,0|2,0:0|0:0,0:0:0:0:
365,200,33901,2,0,L|454:192,1,90
340,59,34374,2,0,L|251:52,1,90,0|2,0:0|0:0,0:0:0:0:
149,195,34846,2,0,L|238:187,1,90,0|2,0:0|0:0,0:0:0:0:
116,119,35318,2,0,P|67:189|107:264,1,180,0|0,0:0|0:0,0:0:0:0:
115,281,35909,1,0,0:0:0:0:
124,296,36027,2,0,P|136:364|128:412,1,90
239,239,36500,2,0,P|226:170|234:122,1,90,2|0,0:0|0:0,0:0:0:0:
335,143,36972,6,0,B|403:128|398:171|465:156,2,135,0|2|2,0:0|0:0|0:0,0:0:0:0:
335,143,38153,1,0,0:0:0:0:
241,181,38389,2,0,P|238:221|243:269,1,45,2|0,0:0|0:0,0:0:0:0:
335,236,38626,2,0,P|352:272|381:310,1,45,0|0,0:0|0:0,0:0:0:0:
419,135,38862,6,0,P|381:71|283:76,1,180,2|2,0:0|0:0,0:0:0:0:
355,194,39570,2,0,P|413:222|500:166,1,135,4|0,0:0|0:0,0:0:0:0:
477,200,40043,1,0,0:0:0:0:
312,355,40279,6,0,P|275:362|238:358,1,45,8|8,0:0|0:0,0:0:0:0:
116,328,40515,2,0,P|152:320|189:324,1,45,4|4,0:0|0:0,0:0:0:0:
256,204,40752,1,4,0:0:0:0:
88,200,40988,6,0,L|84:100,1,72,0|2,0:0|0:0,0:0:0:0:
192,20,41460,2,0,L|184:168,1,144
164,264,42169,1,2,0:0:0:0:
393,241,42405,2,0,P|341:194|272:200,1,144
236,224,42996,1,0,0:0:0:0:
220,264,43114,1,2,0:0:0:0:
140,96,43350,2,0,L|283:103,1,144
492,168,44059,2,0,L|348:171,1,144,6|4,0:0|0:0,0:0:0:0:
414,375,44767,6,0,P|420:339|416:304,1,72,0|2,0:0|0:0,0:0:0:0:
336,248,45240,2,0,B|264:232|269:277|196:262,1,144,0|0,0:0|0:0,0:0:0:0:
152,244,45830,1,0,0:0:0:0:
116,216,45948,2,0,L|103:121,1,72,2|0,0:0|0:0,0:0:0:0:
25,65,46421,2,0,L|19:137,1,72,2|0,0:0|0:0,0:0:0:0:
192,90,46893,2,0,L|185:18,1,72,2|0,0:0|0:0,0:0:0:0:
262,126,47366,2,0,P|210:166|154:158,2,108,0|0|2,0:0|0:0|0:0,0:0:0:0:
304,104,48192,1,0,0:0:0:0:
356,96,48311,5,4,0:0:0:0:
440,208,48547,2,0,P|444:284|456:376,1,161.999995056153,2|0,0:0|0:0,0:0:0:0:
340,268,49255,2,0,P|344:208|344:152,1,80.9999975280763
248,120,49610,1,0,0:0:0:0:
248,120,49728,2,0,P|252:152|256:224,1,80.9999975280763,2|0,0:0|0:0,0:0:0:0:
307,64,50200,2,0,P|273:43|233:40,2,80.9999975280763,0|0|0,0:0|0:0|0:0,0:0:0:0:
364,195,50909,2,0,B|320:188|320:188|250:200|250:200|204:192,1,161.999995056153,0|0,0:0|0:0,0:0:0:0:
164,220,51500,1,0,0:0:0:0:
154,267,51618,2,0,P|79:247|21:303,1,161.999995056153,0|4,0:0|0:0,0:0:0:0:
383,286,52326,6,0,P|308:306|250:250,1,161.999995056153,0|0,0:0|0:0,0:0:0:0:
485,190,53035,2,0,L|476:360,1,161.999995056153,2|2,0:0|0:0,0:0:0:0:
367,142,53980,2,0,L|360:20,2,121.499996292114,2|0|2,0:0|0:0|0:0,0:0:0:0:
0,99,54925,6,0,P|33:100|60:106,1,40.4999987640381,8|8,0:0|0:0,0:0:0:0:
262,21,55161,2,0,P|243:49|224:70,1,40.4999987640381,8|8,0:0|0:0,0:0:0:0:
198,286,55397,2,0,P|181:255|173:229,3,40.4999987640381,8|8|0|0,0:0|0:0|0:0|0:0,0:0:0:0:
256,192,55870,12,0,57287,0:0:0:0:
216,136,57759,6,0,L|16:124,2,161.999995056153,4|0|0,0:0|0:0|0:0,0:0:0:0:
301,236,58704,2,0,L|501:224,2,161.999995056153,2|0|0,0:0|0:0|0:0,0:0:0:0:
220,120,59649,2,0,P|232:56|220:12,1,107.999996704102,2|0,0:0|0:0,0:0:0:0:
128,232,60122,1,0,0:0:0:0:
128,232,60240,1,0,0:0:0:0:
128,232,60358,2,0,P|116:296|128:340,1,107.999996704102,0|2,0:0|0:0,0:0:0:0:
312,116,60830,6,0,P|288:60|132:87,1,215.999993408203
352,188,61539,2,0,P|382:157|388:96,2,107.999996704102,2|0|0,0:0|0:0|0:0,0:0:0:0:
264,284,62248,2,0,P|340:204|448:248,1,215.999993408203,2|0,0:0|0:0,0:0:0:0:
322,337,62956,2,0,P|276:362|214:346,1,107.999996704102
204,222,63429,2,0,B|235:200|283:204|283:204|319:228|359:220,2,161.999995056153,2|0|0,0:0|0:0|0:0,0:0:0:0:
417,276,64374,2,0,P|437:224|421:168,1,107.999996704102,2|0,0:0|0:0,0:0:0:0:
291,22,64846,5,8,0:0:0:0:
287,63,64964,1,8,0:0:0:0:
283,103,65082,1,4,0:0:0:0:
279,143,65200,1,4,0:0:0:0:
276,184,65318,1,4,0:0:0:0:
405,341,65555,6,0,P|357:285|261:301,1,161.999995056153,2|0,0:0|0:0,0:0:0:0:
274,290,66027,2,0,P|265:237|281:173,1,107.999996704102,2|0,0:0|0:0,0:0:0:0:
348,112,66500,1,0,0:0:0:0:
440,56,66736,2,0,P|449:109|433:173,1,107.999996704102,2|0,0:0|0:0,0:0:0:0:
200,136,67208,2,0,L|0:120,2,161.999995056153,2|0|0,0:0|0:0|0:0,0:0:0:0:
328,208,68153,2,0,L|188:244,1,107.999996704102,2|0,0:0|0:0,0:0:0:0:
428,270,68626,1,2,0:0:0:0:
439,227,68744,1,0,0:0:0:0:
436,184,68862,1,0,0:0:0:0:
417,145,68980,1,0,0:0:0:0:
386,120,69098,1,2,0:0:0:0:
200,128,69334,6,0,L|324:152,1,107.999996704102
131,176,69807,2,0,P|115:124|247:60,1,215.999993408203,2|0,0:0|0:0,0:0:0:0:
208,216,70515,2,0,P|216:268|200:328,1,107.999996704102
200,128,70988,2,0,L|-12:108,2,161.999995056153,2|0|0,0:0|0:0|0:0,0:0:0:0:
344,48,71933,2,0,L|220:28,1,107.999996704102,2|0,0:0|0:0,0:0:0:0:
89,43,72405,6,0,P|97:99|109:123,1,53.9999983520508,8|8,0:0|0:0,0:0:0:0:
188,177,72641,2,0,P|180:121|168:97,1,53.9999983520508,4|4,0:0|0:0,0:0:0:0:
136,253,72878,6,0,B|182:261|182:261|252:249|252:249|296:256,2,161.999995056153,4|0|0,0:0|0:0|0:0,0:0:0:0:
295,168,73822,2,0,P|286:115|294:61,1,107.999996704102,2|0,0:0|0:0,0:0:0:0:
294,62,74177,2,0,L|103:44,1,161.999995056153,2|0,0:0|0:0,0:0:0:0:
390,183,74767,2,0,L|518:195,2,107.999996704102,2|0|0,0:0|0:0|0:0,0:0:0:0:
164,232,75476,2,0,P|260:280|324:244,1,161.999995056153,2|0,0:0|0:0,0:0:0:0:
305,263,75948,2,0,P|325:313|304:384,2,107.999996704102,0|0|0,0:0|0:0|0:0,0:0:0:0:
224,160,76657,6,0,P|204:110|224:38,2,107.999996704102,2|0|0,0:0|0:0|0:0,0:0:0:0:
344,210,77366,2,0,P|238:164|157:228,1,215.999993408203,2|0,0:0|0:0,0:0:0:0:
385,281,78074,2,0,P|423:228|407:159,1,107.999996704102
288,80,78547,2,0,L|116:68,2,161.999995056153,2|0|0,0:0|0:0|0:0,0:0:0:0:
416,108,79492,1,2,0:0:0:0:
485,217,79728,2,0,P|501:315|485:359,2,107.999996704102,0|0|0,0:0|0:0|0:0,0:0:0:0:
256,192,80437,12,0,81381,0:0:0:0:
200,140,81854,6,0,L|64:124,1,107.999996704102
248,73,82326,2,0,P|279:145|240:212,2,161.999995056153,2|0|0,0:0|0:0|0:0,0:0:0:0:
376,84,83271,2,0,L|492:72,1,107.999996704102,2|0,0:0|0:0,0:0:0:0:
408,180,83744,2,0,L|252:164,1,107.999996704102
172,280,84216,6,0,B|253:296|248:246|328:264,2,161.999995056153,6|0|4,0:0|0:0|0:0,0:0:0:0:
158,262,85043,1,0,0:0:0:0:
147,243,85161,2,0,P|131:195|147:127,1,107.999996704102,2|0,0:0|0:0,0:0:0:0:
392,128,85633,1,4,0:0:0:0:
268,346,85870,5,0,0:0:0:0:
272,344,85988,1,0,0:0:0:0:
276,342,86106,2,0,B|317:312|376:315|376:315|429:350|482:339,1,215.999993408203,4|0,0:0|0:0,0:0:0:0:
240,40,87051,2,0,B|198:69|140:67|140:67|86:31|33:42,1,215.999993408203,4|0,0:0|0:0,0:0:0:0:
256,192,87996,5,4,0:0:0:0:
256,192,88114,12,4,89885,0:0:0:0:
