osu file format v14

[General]
AudioFilename: Mahouka Koukou no Rettousei ED2 Tv-Size.mp3
AudioLeadIn: 1000
PreviewTime: 57651
Countdown: 0
SampleSet: Soft
StackLeniency: 0.7
Mode: 0
LetterboxInBreaks: 0
WidescreenStoryboard: 0

[Editor]
Bookmarks: 6736,67336,86470
DistanceSpacing: 1.3
BeatDivisor: 4
GridSize: 4
TimelineZoom: 1

[Metadata]
Title:Mirror -TV Edit-
TitleUnicode:Mirror -TV Edit-
Artist:Yasuda Rei
ArtistUnicode:安田レイ
Creator:Estellia-
Version:Hard
Source:魔法科高校の劣等生
Tags:エンディングテーマ ED Ending The irregular at magic high school Mahouka Koukou no Rettousei Shiba Tatsuya Miyuki
BeatmapID:515508
BeatmapSetID:220239

[Difficulty]
HPDrainRate:6
CircleSize:4
OverallDifficulty:6
ApproachRate:7
SliderMultiplier:1.5
SliderTickRate:1

[Events]
//Background and Video events
0,0,"tatsuya.jpg",0,0
Video,-621,"video.avi"
//Break Periods
//Storyboard Layer 0 (Background)
//Storyboard Layer 1 (Fail)
//Storyboard Layer 2 (Pass)
//Storyboard Layer 3 (Foreground)
//Storyboard Sound Samples

[TimingPoints]
1067,472.44094488189,4,2,1,100,1,0
1067,-125,4,2,1,10,0,0
2956,-111.111111111111,4,2,1,20,0,0
2956,-111.111111111111,4,2,1,20,0,0
10515,-100,4,2,1,40,0,0
17602,-100,4,3,1,40,0,0
18192,-100,4,2,1,40,0,0
25161,-100,4,3,1,40,0,0
25752,-100,4,2,1,40,0,0
32720,-100,4,3,1,40,0,0
33311,-100,4,2,1,40,0,0
40279,-100,4,3,1,40,0,0
40752,-125,4,2,1,30,0,0
44531,-125,4,2,1,50,0,0
44767,-125,4,2,1,30,0,0
48311,-111.111111111111,4,2,1,30,0,0
54925,-111.111111111111,4,3,1,60,0,0
55870,-111.111111111111,4,2,1,50,0,0
57759,-83.3333333333333,4,2,1,70,0,1
72405,-83.3333333333333,4,3,1,70,0,0
72878,-83.3333333333333,4,2,1,70,0,1
85988,-83.3333333333333,4,2,1,70,0,0
89767,-100,4,2,1,10,0,0

[Colours]
Combo1 : 64,120,207
Combo2 : 44,224,125
Combo3 : 57,176,198
Combo4 : 191,230,245

[HitObjects]
32,76,1067,6,0,L|120:68,1,60,2|0,0:0|0:0,0:0:0:0:
156,156,1539,2,0,L|68:164,1,60,0|0,0:0|0:0,0:0:0:0:
196,32,2011,2,0,L|284:39,1,60,2|0,0:0|0:0,0:0:0:0:
304,132,2484,2,0,L|215:124,1,60
352,57,2956,6,0,P|390:112|376:184,1,134.999995880127,2|0,0:0|0:0,0:0:0:0:
312,228,3665,1,2,0:0:0:0:
240,176,3901,2,0,L|95:192,1,134.999995880127,0|0,0:0|0:0,0:0:0:0:
24,368,4846,6,0,L|188:348,1,134.999995880127,2|0,0:0|0:0,0:0:0:0:
200,272,5555,1,2,0:0:0:0:
274,318,5791,2,0,P|333:331|409:278,1,134.999995880127
496,128,6736,6,0,P|430:115|373:148,1,134.999995880127
288,132,7444,1,2,0:0:0:0:
210,173,7681,2,0,L|198:29,1,134.999995880127
256,192,8626,12,0,10043,0:0:0:0:
164,216,10515,5,4,0:0:0:0:
244,160,10752,2,0,L|324:148,1,75,0|2,0:0|0:0,0:0:0:0:
497,205,11224,2,0,L|336:228,1,150,0|0,0:0|0:0,0:0:0:0:
253,253,11933,1,2,0:0:0:0:
181,313,12169,2,0,P|161:265|165:217,1,75,0|0,0:0|0:0,0:0:0:0:
325,193,12641,2,0,P|345:241|341:289,1,75,0|2,0:0|0:0,0:0:0:0:
160,243,13114,2,0,P|179:194|216:163,1,75,0|0,0:0|0:0,0:0:0:0:
346,263,13586,2,0,P|326:311|289:342,2,75,0|2|0,0:0|0:0|0:0,0:0:0:0:
245,128,14295,6,0,L|313:159,2,75,0|2|0,0:0|0:0|0:0,0:0:0:0:
160,161,15004,2,0,P|219:114|226:41,1,150
136,69,15712,1,2,0:0:0:0:
64,137,15948,2,0,P|64:197|80:229,1,75
136,353,16421,2,0,P|136:293|120:261,1,75,0|2,0:0|0:0,0:0:0:0:
160,180,16893,2,0,L|332:196,1,150
408,196,17602,1,8,0:0:0:0:
408,196,17720,1,0,0:0:0:0:
408,196,17838,1,0,0:0:0:0:
296,52,18074,5,4,0:0:0:0:
200,80,18311,2,0,P|208:40|192:-20,1,75,0|2,0:0|0:0,0:0:0:0:
124,116,18783,2,0,P|196:164|263:136,1,150
337,192,19492,2,0,L|413:184,1,75
476,288,19964,2,0,L|400:296,1,75,0|2,0:0|0:0,0:0:0:0:
314,339,20437,1,0,0:0:0:0:
217,349,20673,2,0,P|145:358|88:313,1,150
172,264,21381,1,2,0:0:0:0:
224,180,21618,1,0,0:0:0:0:
312,224,21854,6,0,B|360:208|360:208|404:232|448:216,2,112.5,0|2|0,0:0|0:0|0:0,0:0:0:0:
256,304,22799,1,0,0:0:0:0:
154,291,23035,2,0,P|117:287|80:288,1,75,0|2,0:0|0:0,0:0:0:0:
80,112,23744,6,0,L|240:128,1,150,0|2,0:0|0:0,0:0:0:0:
220,224,24452,1,0,0:0:0:0:
305,176,24689,2,0,P|317:208|305:268,1,75
136,268,25161,1,8,0:0:0:0:
136,268,25279,1,0,0:0:0:0:
136,268,25397,1,0,0:0:0:0:
216,324,25633,5,4,0:0:0:0:
280,248,25870,2,0,L|384:256,1,75,0|2,0:0|0:0,0:0:0:0:
472,352,26342,2,0,L|322:340,1,150,0|0,0:0|0:0,0:0:0:0:
228,320,27051,1,2,0:0:0:0:
172,240,27287,2,0,P|123:237|82:246,1,75
180,146,27759,2,0,P|229:149|270:140,1,75
82,141,28232,2,0,L|7:135,2,75,0|0|0,0:0|0:0|0:0,0:0:0:0:
168,52,28941,2,0,L|242:45,1,75,2|0,0:0|0:0,0:0:0:0:
277,66,29295,1,0,0:0:0:0:
303,97,29413,5,0,0:0:0:0:
236,160,29649,2,0,L|152:156,1,75,0|2,0:0|0:0,0:0:0:0:
24,244,30122,2,0,L|209:252,1,150,0|0,0:0|0:0,0:0:0:0:
268,272,30830,1,2,0:0:0:0:
356,312,31067,2,0,P|364:264|356:232,1,75
352,56,31539,2,0,P|344:104|352:136,1,75,0|2,0:0|0:0,0:0:0:0:
268,192,32011,2,0,P|188:200|96:192,1,150
28,104,32720,1,8,0:0:0:0:
28,104,32838,1,8,0:0:0:0:
28,104,32956,1,4,0:0:0:0:
196,140,33192,5,4,0:0:0:0:
132,216,33429,2,0,P|128:276|106:305,2,75,0|2|0,0:0|0:0|0:0,0:0:0:0:
88,140,34137,1,0,0:0:0:0:
88,140,34374,2,0,P|124:130|161:134,1,75,0|2,0:0|0:0,0:0:0:0:
252,96,34846,2,0,P|228:66|196:48,1,75
332,56,35318,2,0,P|341:92|338:130,1,75,0|2,0:0|0:0,0:0:0:0:
376,212,35791,6,0,B|396:200|416:184|424:152|424:152|468:144|500:160,1,150,0|2,0:0|0:0,0:0:0:0:
504,252,36500,1,2,0:0:0:0:
420,301,36736,1,2,0:0:0:0:
333,345,36972,2,0,B|280:336|280:336|245:349|205:346,2,112.5,0|0|0,0:0|0:0|0:0,0:0:0:0:
279,137,38153,6,0,L|271:211,2,75,0|2|0,0:0|0:0|0:0,0:0:0:0:
328,52,38862,6,0,P|408:49|460:104,1,150,0|0,0:0|0:0,0:0:0:0:
234,60,39570,2,0,P|197:56|162:34,1,75,4|0,0:0|0:0,0:0:0:0:
272,132,40043,1,0,0:0:0:0:
336,196,40279,1,8,0:0:0:0:
336,196,40397,1,8,0:0:0:0:
336,196,40515,1,4,0:0:0:0:
316,280,40752,5,4,0:0:0:0:
252,228,40988,2,0,L|168:220,1,60,0|2,0:0|0:0,0:0:0:0:
84,288,41460,2,0,L|225:301,1,120,0|0,0:0|0:0,0:0:0:0:
280,304,42169,1,2,0:0:0:0:
332,248,42405,2,0,P|325:187|267:142,1,120,2|0,0:0|0:0,0:0:0:0:
203,161,43114,1,2,0:0:0:0:
142,213,43350,2,0,P|193:240|250:225,1,120,0|0,0:0|0:0,0:0:0:0:
237,93,44059,2,0,P|178:87|162:98,2,60,6|0|4,0:0|0:0|0:0,0:0:0:0:
369,133,44767,6,0,P|391:107|398:67,1,60,0|2,0:0|0:0,0:0:0:0:
289,150,45240,2,0,P|321:198|385:211,1,120,0|0,0:0|0:0,0:0:0:0:
422,277,45948,2,0,L|432:360,2,60,2|0|0,0:0|0:0|0:0,0:0:0:0:
435,199,46657,2,0,L|425:116,2,60,2|0|0,0:0|0:0|0:0,0:0:0:0:
356,193,47366,2,0,P|323:187|276:187,1,60,2|0,0:0|0:0,0:0:0:0:
255,264,47838,1,0,0:0:0:0:
255,264,47956,1,0,0:0:0:0:
255,264,48074,2,0,P|288:270|335:270,1,60,2|0,0:0|0:0,0:0:0:0:
401,257,48547,6,0,P|432:213|397:125,1,134.999995880127,2|2,0:0|0:0,0:0:0:0:
358,70,49255,2,0,L|280:61,1,67.4999979400635,0|0,0:0|0:0,0:0:0:0:
191,132,49728,2,0,L|271:128,1,67.4999979400635,2|0,0:0|0:0,0:0:0:0:
179,214,50200,2,0,L|101:205,2,67.4999979400635,4|0|0,0:0|0:0|0:0,0:0:0:0:
262,185,50909,2,0,P|278:149|218:49,1,134.999995880127
246,64,51500,1,2,0:0:0:0:
246,64,51618,1,4,0:0:0:0:
191,132,51854,1,0,0:0:0:0:
180,213,52090,5,4,0:0:0:0:
240,288,52326,2,0,B|263:273|297:282|297:282|328:306|368:299,1,134.999995880127,2|0,0:0|0:0,0:0:0:0:
351,212,53035,2,0,L|343:120,1,67.4999979400635,2|0,0:0|0:0,0:0:0:0:
269,43,53507,2,0,L|264:111,1,67.4999979400635,2|0,0:0|0:0,0:0:0:0:
183,146,53980,2,0,L|195:30,2,101.249996910095,2|0|2,0:0|0:0|0:0,0:0:0:0:
238,256,54925,6,0,P|246:288|246:340,1,67.4999979400635,8|8,0:0|0:0,0:0:0:0:
132,328,55397,2,0,L|80:320,3,33.7499989700318,4|4|4|4,0:0|0:0|0:0|0:0,0:0:0:0:
55,332,55870,1,4,0:0:0:0:
256,192,56106,12,0,57287,0:0:0:0:
204,224,57759,6,0,L|44:212,2,134.999995880127,4|0|0,0:0|0:0|0:0,0:0:0:0:
292,180,58704,2,0,L|452:192,2,134.999995880127,2|0|0,0:0|0:0|0:0,0:0:0:0:
300,276,59649,2,0,P|308:320|296:368,1,89.9999972534181,2|0,0:0|0:0,0:0:0:0:
202,215,60122,2,0,B|202:195|194:171|206:123,1,89.9999972534181
296,180,60594,5,0,0:0:0:0:
296,180,60712,1,0,0:0:0:0:
296,180,60830,2,0,B|352:196|352:196|399:173|445:181|477:215,1,179.999994506836
404,284,61539,1,2,0:0:0:0:
304,286,61775,2,0,L|184:239,1,89.9999972534181
168,147,62248,2,0,P|195:221|114:309,1,179.999994506836,2|0,0:0|0:0,0:0:0:0:
34,257,62956,2,0,P|27:208|40:164,1,89.9999972534181
97,68,63429,6,0,L|205:56,1,89.9999972534181,2|0,0:0|0:0,0:0:0:0:
278,130,63901,1,0,0:0:0:0:
374,146,64137,2,0,P|304:224|234:218,2,179.999994506836,2|0|0,0:0|0:0|0:0,0:0:0:0:
374,146,65200,1,0,0:0:0:0:
374,146,65318,5,4,0:0:0:0:
311,46,65555,2,0,L|127:34,1,179.999994506836,0|2,0:0|0:0,0:0:0:0:
14,119,66263,2,0,L|138:111,1,89.9999972534181,0|0,0:0|0:0,0:0:0:0:
264,172,66736,2,0,L|136:168,1,89.9999972534181,2|0,0:0|0:0,0:0:0:0:
312,108,67208,6,0,P|344:176|308:240,2,134.999995880127,2|0|2,0:0|0:0|0:0,0:0:0:0:
212,115,68153,1,0,0:0:0:0:
204,16,68389,2,0,B|272:32|272:32|304:12|356:21|376:51,1,179.999994506836,2|0,0:0|0:0,0:0:0:0:
408,140,69098,5,0,0:0:0:0:
364,228,69334,2,0,P|352:280|356:316,2,89.9999972534181,0|2|0,0:0|0:0|0:0,0:0:0:0:
408,140,70043,1,0,0:0:0:0:
492,196,70279,2,0,P|504:144|500:108,1,89.9999972534181,0|2,0:0|0:0,0:0:0:0:
424,44,70752,1,0,0:0:0:0:
332,84,70988,6,0,L|180:72,1,134.999995880127,2|0,0:0|0:0,0:0:0:0:
84,172,71696,2,0,L|173:179,1,89.9999972534181,2|0,0:0|0:0,0:0:0:0:
272,188,72169,1,2,0:0:0:0:
324,280,72405,2,0,L|203:295,1,89.9999972534181,8|4,0:0|0:0,0:0:0:0:
176,298,72759,1,4,0:0:0:0:
133,257,72878,6,0,P|118:199|177:113,2,134.999995880127,6|0|0,0:0|0:0|0:0,0:0:0:0:
217,205,73822,1,2,0:0:0:0:
318,242,74059,1,0,0:0:0:0:
328,125,74295,2,0,L|320:25,1,89.9999972534181,0|0,0:0|0:0,0:0:0:0:
216,108,74767,6,0,L|223:197,2,89.9999972534181,2|0|0,0:0|0:0|0:0,0:0:0:0:
296,236,75476,2,0,P|248:276|164:256,1,134.999995880127,2|0,0:0|0:0,0:0:0:0:
180,268,75948,2,0,P|162:325|170:369,2,89.9999972534181,0|2|0,0:0|0:0|0:0,0:0:0:0:
135,160,76657,5,0,0:0:0:0:
224,84,76893,2,0,L|332:80,1,89.9999972534181,0|2,0:0|0:0,0:0:0:0:
476,160,77366,2,0,L|286:167,1,179.999994506836
244,279,78074,2,0,P|235:323|248:366,1,89.9999972534181,2|0,0:0|0:0,0:0:0:0:
367,208,78547,6,0,P|374:142|332:92,2,134.999995880127,2|0|0,0:0|0:0|0:0,0:0:0:0:
284,264,79492,1,2,0:0:0:0:
188,212,79728,2,0,L|-4:236,1,179.999994506836,2|0,0:0|0:0,0:0:0:0:
256,192,80437,12,0,81381,0:0:0:0:
256,176,81854,5,2,0:0:0:0:
164,140,82090,1,0,0:0:0:0:
184,236,82326,2,0,P|196:300|176:384,2,134.999995880127,2|0|0,0:0|0:0|0:0,0:0:0:0:
256,176,83271,2,0,L|364:160,1,89.9999972534181
164,140,83744,2,0,L|56:132,1,89.9999972534181,2|0,0:0|0:0,0:0:0:0:
256,176,84216,6,0,P|248:88|192:44,2,134.999995880127,4|0|0,0:0|0:0|0:0,0:0:0:0:
144,208,85161,2,0,L|136:336,1,89.9999972534181,2|0,0:0|0:0,0:0:0:0:
260,368,85633,2,0,L|256:268,1,89.9999972534181,4|0,0:0|0:0,0:0:0:0:
256,91,86106,6,0,B|168:61|168:120|80:91,1,179.999994506836,4|0,0:0|0:0,0:0:0:0:
256,293,87051,2,0,B|344:323|344:264|432:293,1,179.999994506836,4|0,0:0|0:0,0:0:0:0:
256,192,87996,5,4,0:0:0:0:
256,192,88114,12,0,89885,0:0:0:0:
