osu file format v14

[General]
AudioFilename: Mahouka Koukou no Rettousei ED2 Tv-Size.mp3
AudioLeadIn: 1000
PreviewTime: 57651
Countdown: 0
SampleSet: Soft
StackLeniency: 0.7
Mode: 0
LetterboxInBreaks: 0
WidescreenStoryboard: 0

[Editor]
DistanceSpacing: 1
BeatDivisor: 4
GridSize: 4
TimelineZoom: 1

[Metadata]
Title:Mirror -TV Edit-
TitleUnicode:Mirror -TV Edit-
Artist:Yasuda Rei
ArtistUnicode:安田レイ
Creator:Estellia-
Version:Easy
Source:魔法科高校の劣等生
Tags:エンディングテーマ ED Ending The irregular at magic high school Mahouka Koukou no Rettousei Shiba Tatsuya Miyuki
BeatmapID:515507
BeatmapSetID:220239

[Difficulty]
HPDrainRate:2
CircleSize:3
OverallDifficulty:2
ApproachRate:3
SliderMultiplier:1
SliderTickRate:1

[Events]
//Background and Video events
0,0,"tatsuya.jpg",0,0
Video,-621,"video.avi"
//Break Periods
//Storyboard Layer 0 (Background)
//Storyboard Layer 1 (Fail)
//Storyboard Layer 2 (Pass)
//Storyboard Layer 3 (Foreground)
//Storyboard Sound Samples

[TimingPoints]
1067,472.44094488189,4,2,1,10,1,0
2956,-100,4,2,1,20,0,0
10515,-100,4,2,1,40,0,0
25633,-100,4,2,1,50,0,0
40752,-100,4,2,1,30,0,0
55870,-100,4,2,1,50,0,0
57759,-100,4,2,1,70,0,1
72405,-100,4,2,1,70,0,0
72878,-100,4,2,1,70,0,1
86106,-100,4,2,1,65,0,0
89767,-100,4,2,1,10,0,0

[Colours]
Combo1 : 64,120,207
Combo2 : 44,224,125
Combo3 : 57,176,198
Combo4 : 191,230,245

[HitObjects]
288,288,1067,6,0,P|192:304|212:144,1,300,2|0,0:0|0:0,0:0:0:0:
296,132,2956,6,0,L|501:151,1,200,2|2,0:0|0:0,0:0:0:0:
349,288,4846,2,0,L|144:269,1,200,2|2,0:0|0:0,0:0:0:0:
5,131,6736,6,0,L|210:150,1,200,2|2,0:0|0:0,0:0:0:0:
89,313,8626,2,0,P|189:285|287:302,1,200,0|2,0:0|0:0,0:0:0:0:
340,218,10043,1,0,0:0:0:0:
391,132,10515,6,0,L|507:136,1,100,4|2,0:0|0:0,0:0:0:0:
457,41,11460,2,0,L|341:37,1,100,0|0,0:0|0:0,0:0:0:0:
271,89,12405,2,0,P|291:153|275:201,2,100,2|0|2,0:0|0:0|0:0,0:0:0:0:
191,149,13822,1,0,0:0:0:0:
91,143,14295,6,0,B|115:199|115:199|83:239|87:311|123:339,1,200,2|0,0:0|0:0,0:0:0:0:
210,352,15712,1,0,0:0:0:0:
228,254,16185,2,0,P|301:218|396:280,1,200,2|0,0:0|0:0,0:0:0:0:
483,230,17602,1,0,0:0:0:0:
480,130,18074,6,0,L|368:138,1,100,2|0,0:0|0:0,0:0:0:0:
320,217,19019,2,0,L|208:225,1,100
124,195,19964,2,0,P|117:145|125:96,2,100,2|0|2,0:0|0:0|0:0,0:0:0:0:
178,279,21381,1,0,0:0:0:0:
271,315,21854,6,0,P|359:331|414:244,1,200,2|0,0:0|0:0,0:0:0:0:
332,191,23271,1,2,0:0:0:0:
241,149,23744,2,0,L|129:145,1,100,2|0,0:0|0:0,0:0:0:0:
186,56,24689,2,0,L|298:60,1,100,2|4,0:0|0:3,0:0:0:0:
384,80,25633,6,0,B|416:112|416:180|384:224|384:224|404:272,1,200,4|0,0:0|0:0,0:0:0:0:
444,356,27051,1,0,0:0:0:0:
344,340,27523,2,0,B|246:307|246:372|149:340,1,200,2|0,0:0|0:0,0:0:0:0:
198,252,28941,1,0,0:0:0:0:
151,163,29413,6,0,P|202:151|250:165,1,100,2|0,0:0|0:0,0:0:0:0:
316,236,30358,2,0,P|363:249|412:237,1,100,2|0,0:0|0:0,0:0:0:0:
450,145,31303,2,0,L|462:41,2,100,2|0|2,0:0|0:0|0:0,0:0:0:0:
414,238,32720,1,0,0:0:0:0:
352,316,33192,6,0,P|278:353|184:297,1,200,4|0,0:0|0:0,0:0:0:0:
275,254,34610,1,0,0:0:0:0:
189,202,35082,2,0,P|139:214|96:260,2,100,2|0|2,0:0|0:0|0:0,0:0:0:0:
224,108,36500,1,0,0:0:0:0:
309,161,36972,6,0,P|313:62|271:19,2,150,2|2|2,0:0|0:0|0:0,0:0:0:0:
227,219,38862,2,0,P|223:318|265:361,2,150,2|2|2,0:0|0:0|0:0,0:0:0:0:
326,207,40752,6,0,L|438:192,2,100,4|0|0,0:0|0:0|0:0,0:0:0:0:
248,270,42169,1,0,0:0:0:0:
167,329,42641,2,0,P|106:342|3:259,1,200,2|0,0:0|0:0,0:0:0:0:
28,165,44059,1,4,0:0:0:0:
86,84,44531,6,0,L|190:70,1,100,4|0,0:0|0:0,0:0:0:0:
237,156,45476,2,0,L|137:168,1,100
99,260,46421,2,0,P|83:317|93:365,1,100,2|0,0:0|0:0,0:0:0:0:
180,314,47366,2,0,P|195:256|185:208,1,100,2|0,0:0|0:0,0:0:0:0:
270,159,48311,6,0,L|374:151,2,100,4|0|2,0:0|0:0|0:0,0:0:0:0:
298,255,49728,1,2,0:0:0:0:
202,235,50200,2,0,P|158:227|102:239,1,100,4|0,0:0|0:0,0:0:0:0:
56,326,51145,2,0,P|105:333|154:324,1,100,2|4,0:0|0:0,0:0:0:0:
104,238,52090,6,0,P|92:178|104:142,2,100,4|0|2,0:0|0:0|0:0,0:0:0:0:
192,190,53507,1,4,0:0:0:0:
200,90,53980,2,0,L|409:76,1,200,2|0,0:0|0:0,0:0:0:0:
387,176,55397,1,2,0:0:0:0:
483,149,55870,6,0,P|478:215|362:274,1,200,4|0,0:0|0:0,0:0:0:0:
210,157,57759,6,0,P|198:211|206:260,2,100,4|0|0,0:0|0:0|0:0,0:0:0:0:
308,136,59177,1,0,0:0:0:0:
241,62,59649,2,0,L|123:72,1,100,2|0,0:0|0:0,0:0:0:0:
111,166,60594,2,0,L|220:156,1,100,2|0,0:0|0:0,0:0:0:0:
304,193,61539,5,2,0:0:0:0:
318,292,62011,1,0,0:0:0:0:
231,342,62484,2,0,P|162:353|112:342,1,100
80,264,63429,2,0,P|149:253|199:264,2,100,2|0|2,0:0|0:0|0:0,0:0:0:0:
33,175,64846,1,0,0:0:0:0:
108,108,65318,6,0,L|223:97,1,100,4|0,0:0|0:0,0:0:0:0:
264,180,66263,2,0,L|164:189,1,100,2|0,0:0|0:0,0:0:0:0:
108,272,67208,1,2,0:0:0:0:
165,353,67681,1,0,0:0:0:0:
261,321,68153,1,0,0:0:0:0:
261,221,68626,1,0,0:0:0:0:
167,188,69098,6,0,L|157:80,2,100,2|0|2,0:0|0:0|0:0,0:0:0:0:
261,221,70515,1,0,0:0:0:0:
360,205,70988,2,0,P|348:265|314:308,2,100,2|0|2,0:0|0:0|0:0,0:0:0:0:
321,112,72405,1,0,0:0:0:0:
238,54,72878,6,0,B|139:20|139:85|43:54,1,200,4|0,0:0|0:0,0:0:0:0:
31,153,74295,1,0,0:0:0:0:
96,229,74767,2,0,L|84:349,2,100,2|0|2,0:0|0:0|0:0,0:0:0:0:
192,196,76185,1,0,0:0:0:0:
288,206,76657,6,0,P|355:216|402:195,1,100,2|0,0:0|0:0,0:0:0:0:
437,121,77602,2,0,P|369:110|322:131,1,100,2|0,0:0|0:0,0:0:0:0:
241,118,78547,2,0,L|92:108,2,150,2|2|4,0:0|0:0|0:0,0:0:0:0:
310,46,80437,6,0,P|337:152|270:214,1,200,4|0,0:0|0:0,0:0:0:0:
184,188,81854,1,0,0:0:0:0:
108,252,82326,2,0,L|-11:244,1,100,2|0,0:0|0:0,0:0:0:0:
43,340,83271,2,0,L|162:348,1,100,2|0,0:0|0:0,0:0:0:0:
231,299,84216,6,0,B|286:286|286:286|331:303|386:282,2,150,4|0|4,0:0|0:0|0:0,0:0:0:0:
140,260,86106,2,0,P|122:210|132:149,1,100,6|0,0:0|0:0,0:0:0:0:
208,104,87051,2,0,P|225:153|215:214,1,100,6|0,0:0|0:0,0:0:0:0:
256,192,87996,12,0,89885,0:0:0:0:
