osu file format v14

[General]
AudioFilename: Brand New Day.mp3
AudioLeadIn: 1500
PreviewTime: 47402
Countdown: 0
SampleSet: Soft
StackLeniency: 0.3
Mode: 0
LetterboxInBreaks: 0
WidescreenStoryboard: 1

[Editor]
DistanceSpacing: 1.2
BeatDivisor: 4
GridSize: 8
TimelineZoom: 1

[Metadata]
Title:Brand New Day (Short ver.)
TitleUnicode:Brand New Day (Short ver.)
Artist:Yasuda Rei
ArtistUnicode:安田レイ
Creator:guineaQ
Version:Advanced
Source:
Tags:Will Euny eINess
BeatmapID:657497
BeatmapSetID:286240

[Difficulty]
HPDrainRate:5
CircleSize:3.7
OverallDifficulty:5
ApproachRate:6
SliderMultiplier:1.3
SliderTickRate:2

[Events]
//Background and Video events
0,0,"asdfff.jpg",0,0
//Break Periods
//Storyboard Layer 0 (Background)
//Storyboard Layer 1 (Fail)
//Storyboard Layer 2 (Pass)
//Storyboard Layer 3 (Foreground)
//Storyboard Sound Samples

[TimingPoints]
402,500,4,2,2,20,1,0
8402,-100,4,2,2,30,0,0
16402,-100,4,2,1,40,0,0
21902,-100,4,2,70,40,0,0
22152,-100,4,2,1,40,0,0
23902,-100,4,2,70,40,0,0
24152,-100,4,2,1,40,0,0
26902,-100,4,2,70,40,0,0
27152,-100,4,2,1,40,0,0
44402,-100,4,2,2,40,0,0
47652,-100,4,2,1,40,0,0
48402,-100,4,2,1,70,0,1
80402,-100,4,2,1,70,0,0

[Colours]
Combo1 : 104,217,217
Combo2 : 5,250,91
Combo3 : 53,103,157
Combo4 : 197,224,41

[HitObjects]
236,97,402,6,0,B|300:64|335:89|369:115|437:81,2,195,6|2|2,0:0|0:0|0:0,0:0:0:0:
109,163,2402,2,0,P|129:242|28:293,2,195,2|2|2,0:0|0:0|0:0,0:0:0:0:
52,217,4152,1,2,0:0:0:0:
52,217,4402,5,2,0:0:0:0:
178,308,4902,1,2,0:0:0:0:
334,308,5402,1,2,0:0:0:0:
460,217,5902,1,2,0:0:0:0:
394,75,6402,6,0,B|364:135|364:135|364:226,2,130,2|2|2,0:0|0:0|0:0,0:0:0:0:
256,1,7902,1,2,0:0:0:0:
118,75,8402,6,0,B|148:135|148:135|148:279,2,195,6|2|2,0:0|0:0|0:0,0:0:0:0:
65,221,10402,2,0,B|111:257|165:220|219:183|268:220,2,195,2|2|2,0:0|0:0|0:0,0:0:0:0:
106,155,12152,1,2,0:0:0:0:
106,155,12402,5,2,0:0:0:0:
220,260,12902,1,2,0:0:0:0:
292,124,13402,1,2,0:0:0:0:
406,229,13902,1,2,0:0:0:0:
274,315,14402,6,0,B|318:261|307:205|250:178|217:138|229:98|276:87|305:113|294:152,1,260,2|2,0:0|0:0,0:0:0:0:
220,260,16402,6,0,L|63:271,1,130,6|2,0:0|0:0,0:0:0:0:
31,320,17152,1,0,0:0:0:0:
68,251,17402,2,0,B|95:175|95:175|92:117,1,130,2|2,0:0|0:0,0:0:0:0:
35,72,18152,1,0,0:0:0:0:
35,72,18402,6,0,P|93:47|161:85,1,130,2|2,0:0|0:0,0:0:0:0:
207,126,19152,1,0,0:0:0:0:
265,177,19402,2,0,P|323:202|381:177,1,130,2|2,0:0|0:0,0:0:0:0:
243,101,20402,6,0,L|201:232,1,130,2|0,0:0|0:0,0:0:0:0:
177,298,21152,1,0,0:0:0:0:
123,240,21402,2,0,P|73:227|12:230,2,97.5,2|0|0,0:0|0:0|0:0,0:0:0:0:
177,298,22402,6,0,B|241:309|241:309|313:289,1,130,2|2,0:0|0:0,0:0:0:0:
376,262,23152,1,0,0:0:0:0:
376,262,23402,2,0,P|352:309|360:372,2,97.5,2|0|0,0:0|0:0|0:0,0:0:0:0:
449,235,24402,6,0,L|424:93,1,130,2|2,0:0|0:0,0:0:0:0:
437,29,25152,1,0,0:0:0:0:
390,91,25402,2,0,B|343:136|343:136|265:152,1,130,2|2,0:0|0:0,0:0:0:0:
218,198,26152,1,0,0:0:0:0:
218,198,26402,6,0,L|203:298,2,97.5,2|0|0,0:0|0:0|0:0,0:0:0:0:
205,120,27402,1,2,0:0:0:0:
53,82,27902,1,2,0:0:0:0:
94,232,28402,6,0,P|155:252|211:306,1,130,2|2,0:0|0:0,0:0:0:0:
256,353,29152,1,0,0:0:0:0:
329,328,29402,2,0,L|346:186,1,130,2|2,0:0|0:0,0:0:0:0:
338,120,30152,1,0,0:0:0:0:
338,120,30402,6,0,P|398:142|423:197,1,97.5,2|0,0:0|0:0,0:0:0:0:
438,200,30902,2,0,L|523:195,2,65,2|0|2,0:0|0:0|0:0,0:0:0:0:
371,241,31652,1,0,0:0:0:0:
302,278,31902,2,0,L|220:276,1,65,2|0,0:0|0:0,0:0:0:0:
186,216,32402,6,0,P|160:267|201:347,2,130,6|8|2,0:0|0:0|0:0,0:0:0:0:
289,98,33902,2,0,L|371:113,1,65,8|0,0:0|0:0,0:0:0:0:
402,170,34402,6,0,P|428:119|387:39,2,130,2|8|2,0:0|0:0|0:0,0:0:0:0:
304,285,35902,2,0,L|240:273,1,65,8|0,0:0|0:0,0:0:0:0:
186,216,36402,6,0,L|40:221,1,130,2|8,0:0|0:0,0:0:0:0:
121,78,37402,2,0,L|237:74,1,97.5,2|0,0:0|0:0,0:0:0:0:
246,101,37902,2,0,P|273:132|318:146,1,65,8|0,0:0|0:0,0:0:0:0:
369,123,38402,5,2,0:0:0:0:
374,46,38652,2,0,P|329:55|308:78,1,65,0|8,0:0|0:0,0:0:0:0:
219,190,39402,2,0,L|213:264,2,65,2|0|8,0:0|0:0|0:0,0:0:0:0:
221,111,40152,1,0,0:0:0:0:
193,37,40402,6,0,B|110:34|110:34|55:54,1,130,2|8,0:0|0:0,0:0:0:0:
85,205,41402,2,0,L|195:163,1,97.5,2|0,0:0|0:0,0:0:0:0:
213,159,41902,2,0,L|294:162,1,65,8|0,0:0|0:0,0:0:0:0:
355,158,42402,6,0,P|331:217|263:237,1,130,2|8,0:0|0:0,0:0:0:0:
122,191,43402,1,2,0:0:0:0:
147,117,43652,2,0,L|127:47,2,65,0|8|0,0:0|0:0|0:0,0:0:0:0:
256,192,44402,12,0,46402,0:0:0:0:
195,168,47652,6,0,L|204:104,2,65
142,225,48402,6,0,P|199:197|273:218,1,130,6|8,0:0|0:0,0:0:0:0:
325,257,49152,2,0,L|333:326,2,65,0|2|0,0:0|0:0|0:0,0:0:0:0:
332,179,49902,2,0,P|365:157|384:121,1,65,8|0,0:0|0:0,0:0:0:0:
390,55,50402,6,0,L|306:105,1,97.5,2|0,0:0|0:0,0:0:0:0:
269,118,50902,2,0,P|235:115|201:96,1,65,8|0,0:0|0:0,0:0:0:0:
149,49,51402,2,0,L|75:60,1,65,2|0,0:0|0:0,0:0:0:0:
9,39,51902,2,0,P|12:93|9:159,1,97.5,8|0,0:0|0:0,0:0:0:0:
34,168,52402,6,0,L|108:179,1,65,2|0,0:0|0:0,0:0:0:0:
169,211,52902,2,0,P|176:172|168:141,1,65,8|0,0:0|0:0,0:0:0:0:
98,178,53402,2,0,P|94:231|130:278,1,97.5,2|0,0:0|0:0,0:0:0:0:
148,289,53902,2,0,L|225:293,1,65,8|0,0:0|0:0,0:0:0:0:
278,250,54402,6,0,L|399:240,1,97.5
414,240,54902,1,8,0:0:0:0:
464,180,55152,2,0,P|475:144|476:107,1,65,0|2,0:0|0:0,0:0:0:0:
473,36,55652,1,0,0:0:0:0:
407,77,55902,2,0,L|328:84,1,65,8|0,0:0|0:0,0:0:0:0:
278,128,56402,6,0,L|172:119,1,97.5,2|0,0:0|0:0,0:0:0:0:
141,116,56902,1,8,0:0:0:0:
70,83,57152,2,0,P|56:47|33:22,2,65,0|2|0,0:0|0:0|0:0,0:0:0:0:
73,160,57902,2,0,L|79:245,1,65,8|0,0:0|0:0,0:0:0:0:
55,299,58402,6,0,L|152:307,1,97.5,2|0,0:0|0:0,0:0:0:0:
184,285,58902,2,0,L|264:279,1,65,8|0,0:0|0:0,0:0:0:0:
315,239,59402,2,0,P|324:267|322:306,1,65,2|0,0:0|0:0,0:0:0:0:
248,280,59902,2,0,L|264:165,1,97.5,8|0,0:0|0:0,0:0:0:0:
266,144,60402,6,0,L|350:136,1,65,2|0,0:0|0:0,0:0:0:0:
402,107,60902,2,0,P|420:140|424:175,1,65,8|0,0:0|0:0,0:0:0:0:
360,211,61402,1,2,0:0:0:0:
313,273,61652,2,0,L|301:346,2,65,0|8|0,0:0|0:0|0:0,0:0:0:0:
360,211,62402,6,0,L|346:91,1,97.5,2|0,0:0|0:0,0:0:0:0:
343,75,62902,1,8,0:0:0:0:
274,37,63152,2,0,L|201:29,2,65,0|2|0,0:0|0:0|0:0,0:0:0:0:
343,75,63902,2,0,L|420:71,1,65,8|0,0:0|0:0,0:0:0:0:
483,53,64402,6,0,P|481:95|453:139,1,65,6|0,0:0|0:0,0:0:0:0:
467,193,64902,2,0,L|493:250,2,32.5,8|0|0,0:0|0:0|0:0,0:0:0:0:
402,149,65402,2,0,L|289:158,1,97.5,2|0,0:0|0:0,0:0:0:0:
267,168,65902,2,0,P|236:199|230:243,1,65,8|0,0:0|0:0,0:0:0:0:
269,285,66402,6,0,P|301:255|308:220,1,65,2|0,0:0|0:0,0:0:0:0:
305,157,66902,2,0,L|292:101,2,32.5,8|0|0,0:0|0:0|0:0,0:0:0:0:
375,191,67402,2,0,L|405:315,1,97.5,2|0,0:0|0:0,0:0:0:0:
423,314,67902,2,0,P|400:339|367:352,1,65,8|0,0:0|0:0,0:0:0:0:
295,335,68402,6,0,L|204:339,1,65,2|0,0:0|0:0,0:0:0:0:
156,312,68902,2,0,L|116:314,2,32.5,8|0|0,0:0|0:0|0:0,0:0:0:0:
215,261,69402,2,0,L|192:166,1,97.5,2|0,0:0|0:0,0:0:0:0:
182,128,69902,2,0,L|91:132,1,65,8|0,0:0|0:0,0:0:0:0:
51,173,70402,6,0,P|46:226|34:253,2,65,2|0|8,0:0|0:0|0:0,0:0:0:0:
46,95,71152,1,0,0:0:0:0:
46,95,71402,2,0,P|75:66|145:58,1,97.5,2|0,0:0|0:0,0:0:0:0:
164,38,71902,2,0,L|228:35,1,65,8|0,0:0|0:0,0:0:0:0:
294,77,72402,6,0,L|371:75,1,65,2|0,0:0|0:0,0:0:0:0:
434,54,72902,2,0,L|457:16,2,32.5,8|0|0,0:0|0:0|0:0,0:0:0:0:
416,130,73402,2,0,B|431:175|431:175|431:252,1,97.5,2|0,0:0|0:0,0:0:0:0:
402,251,73902,2,0,L|342:295,1,65,8|0,0:0|0:0,0:0:0:0:
284,332,74402,6,0,L|224:288,1,65,2|0,0:0|0:0,0:0:0:0:
155,274,74902,2,0,L|114:291,2,32.5,8|0|0,0:0|0:0|0:0,0:0:0:0:
211,219,75402,2,0,P|229:154|219:106,1,97.5,2|0,0:0|0:0,0:0:0:0:
208,89,75902,2,0,P|203:46|213:20,1,65,8|0,0:0|0:0,0:0:0:0:
279,60,76402,6,0,L|361:60,1,65,2|0,0:0|0:0,0:0:0:0:
416,89,76902,2,0,L|457:89,2,32.5,8|0|0,0:0|0:0|0:0,0:0:0:0:
355,138,77402,2,0,L|317:251,1,97.5
311,267,77902,2,0,L|246:267,1,65,8|0,0:0|0:0,0:0:0:0:
173,294,78402,6,0,L|140:365,2,65,2|0|8,0:0|0:0|0:0,0:0:0:0:
185,216,79152,1,0,0:0:0:0:
185,216,79402,2,0,L|168:112,1,97.5,2|0,0:0|0:0,0:0:0:0:
163,80,79902,2,0,L|228:80,1,65,8|0,0:0|0:0,0:0:0:0:
297,43,80402,5,6,0:0:0:0:
