osu file format v14

[General]
AudioFilename: yoake no bell ga naru.mp3
AudioLeadIn: 0
PreviewTime: 64568
Countdown: 1
SampleSet: Soft
StackLeniency: 0.7
Mode: 0
LetterboxInBreaks: 1
WidescreenStoryboard: 0

[Editor]
Bookmarks: 21941,22025,22110,59949,59970,59992,60013,60034,71849
DistanceSpacing: 0.5
BeatDivisor: 4
GridSize: 4
TimelineZoom: 1.7

[Metadata]
Title:Yoake no Bell ga Naru
TitleUnicode:Yoake no Bell ga Naru
Artist:Yasuda Mizuho
ArtistUnicode:Yasuda Mizuho
Creator:SoGa
Version:
Source:彼女のセイイキ
Tags:
BeatmapID:703431
BeatmapSetID:315538

[Difficulty]
HPDrainRate:7
CircleSize:4
OverallDifficulty:8
ApproachRate:9
SliderMultiplier:1.8
SliderTickRate:1

[Events]
//Background and Video events
0,0,"BG.jpg",0,0
//Break Periods
2,62727,64130
//Storyboard Layer 0 (Background)
//Storyboard Layer 1 (Fail)
//Storyboard Layer 2 (Pass)
//Storyboard Layer 3 (Foreground)
//Storyboard Sound Samples

[TimingPoints]
325,677.966101694915,4,2,1,50,1,0
22019,338.983050847458,4,2,1,50,1,0
22019,-111.111111111111,4,2,1,50,0,0
64730,-200,4,2,1,50,0,0
65408,-90.9090909090909,4,2,1,50,0,1

[HitObjects]
164,304,325,6,0,L|260:296,1,90
428,256,1002,2,0,L|332:248,1,90
164,304,1680,2,0,L|260:296,1,90
428,256,2358,2,0,L|332:248,1,90
272,140,3036,6,0,L|272:40,2,90
201,231,4053,1,0,0:0:0:0:
364,220,4392,2,0,L|364:328,1,90
408,152,5070,2,0,P|360:140|312:156,1,90
201,231,5748,5,0,0:0:0:0:
68,64,6257,1,0,0:0:0:0:
68,64,6426,2,0,L|72:160,1,90
201,231,7104,2,0,P|181:167|208:100,1,135
312,40,7952,1,0,0:0:0:0:
276,172,8291,1,0,0:0:0:0:
275,171,8460,6,0,P|320:176|364:168,1,90
504,124,9138,2,0,P|512:172|500:216,1,90
404,316,9816,2,0,P|392:268|400:224,1,90
504,124,10494,2,0,P|512:172|500:216,1,90
404,316,11172,5,0,0:0:0:0:
404,316,11850,2,0,P|360:324|304:316,1,90
196,236,12528,2,0,P|152:208|68:208,1,135
16,256,13206,2,0,P|20:208|4:160,1,90
112,64,13884,5,0,0:0:0:0:
228,148,14223,2,0,P|272:152|320:136,1,90
360,40,14901,1,0,0:0:0:0:
360,40,15070,2,0,P|348:100|380:176,1,135
372,255,15918,2,0,P|380:211|373:167,1,90
272,208,16596,6,0,P|176:236|96:208,1,180
311,104,17952,2,0,P|348:128|373:166,1,90
256,291,18630,2,0,P|252:247|271:207,1,90
311,104,19308,5,0,0:0:0:0:
102,212,19986,1,0,0:0:0:0:
332,260,20663,1,0,0:0:0:0:
436,88,21172,2,0,B|448:120|436:148|436:148|440:156|440:156|428:188|436:220,1,135
332,260,22019,6,0,L|332:180,1,80.9999975280763
276,80,22357,2,0,P|240:96|192:100,1,80.9999975280763
168,192,22696,2,0,P|136:168|108:129,1,80.9999975280763
16,152,23035,1,0,0:0:0:0:
44,60,23205,1,0,0:0:0:0:
111,135,23374,6,0,P|100:200|20:248,1,161.999995056153
16,152,23883,1,0,0:0:0:0:
22,247,24052,2,0,P|20:288|24:328,1,80.9999975280763
164,344,24391,2,0,P|168:300|168:260,1,80.9999975280763
111,135,24716,6,0,P|188:124|287:119,1,161.999995056153
388,148,25239,1,0,0:0:0:0:
312,224,25408,2,0,P|268:228|220:216,1,80.9999975280763
408,172,25747,2,0,P|420:212|420:252,1,80.9999975280763
344,332,26086,5,0,0:0:0:0:
312,224,26256,1,0,0:0:0:0:
208,304,26425,2,0,L|112:308,1,80.9999975280763
72,200,26764,1,0,0:0:0:0:
132,96,26934,1,0,0:0:0:0:
232,148,27103,2,0,L|317:141,1,80.9999975280763
480,200,27442,5,0,0:0:0:0:
480,200,27612,1,0,0:0:0:0:
480,200,27781,2,0,P|432:196|380:196,1,80.9999975280763
304,224,28120,2,0,P|224:228|145:213,1,161.999995056153
120,108,28629,1,0,0:0:0:0:
132,232,28798,6,0,P|132:272|116:316,1,80.9999975280763
24,252,29137,2,0,P|12:208|16:168,1,80.9999975280763
120,108,29476,2,0,P|160:108|200:124,1,80.9999975280763
228,292,29816,1,0,0:0:0:0:
132,232,29986,1,0,0:0:0:0:
288,184,30155,6,0,P|336:232|348:324,1,161.999995056153
228,292,30663,1,0,0:0:0:0:
288,184,30833,1,0,0:0:0:0:
288,184,31002,1,0,0:0:0:0:
288,184,31172,2,0,L|284:96,1,80.9999975280763
212,208,31511,5,0,0:0:0:0:
108,212,31680,1,0,0:0:0:0:
0,216,31850,1,0,0:0:0:0:
24,328,32019,6,0,P|32:288|24:244,1,80.9999975280763
112,132,32357,2,0,L|108:212,1,80.9999975280763
152,312,32696,1,0,0:0:0:0:
152,312,32781,1,0,0:0:0:0:
152,312,32866,5,0,0:0:0:0:
292,156,33205,1,0,0:0:0:0:
304,164,33544,2,0,L|300:252,1,80.9999975280763
400,328,33883,2,0,P|440:332|488:324,1,80.9999975280763
304,340,34222,5,0,0:0:0:0:
304,340,34391,1,0,0:0:0:0:
436,236,34561,2,0,L|432:148,1,80.9999975280763
300,83,34900,2,0,L|304:164,1,80.9999975280763
208,48,35239,1,0,0:0:0:0:
132,188,35408,1,0,0:0:0:0:
132,188,35493,1,0,0:0:0:0:
132,188,35578,6,0,P|130:144|124:96,1,80.9999975280763
100,292,35917,1,0,0:0:0:0:
212,344,36086,2,0,P|224:248|228:176,1,161.999995056153
312,288,36595,1,0,0:0:0:0:
360,176,36764,6,0,P|360:136|356:96,2,80.9999975280763
312,288,37273,1,0,0:0:0:0:
372,176,37442,1,0,0:0:0:0:
436,304,37612,1,0,0:0:0:0:
312,288,37781,1,0,0:0:0:0:
192,264,37951,2,0,P|144:256|104:264,1,80.9999975280763
56,336,38290,6,0,P|76:268|52:172,1,161.999995056153
40,64,38798,1,0,0:0:0:0:
80,176,38968,2,0,P|124:180|164:172,1,80.9999975280763
296,60,39307,2,0,P|248:52|208:56,1,80.9999975280763
159,172,39646,6,0,P|240:173|321:167,1,161.999995056153
360,284,40154,2,0,P|420:244|444:152,1,161.999995056153
384,48,40662,1,0,0:0:0:0:
320,168,40832,2,0,P|272:176|224:168,1,80.9999975280763
164,88,41171,5,0,0:0:0:0:
236,192,41340,2,0,P|236:232|216:276,1,80.9999975280763
88,236,41679,2,0,P|72:192|72:148,1,80.9999975280763
239,111,42018,2,0,L|236:192,1,80.9999975280763
248,220,42273,1,0,0:0:0:0:
268,248,42357,6,0,L|268:328,1,80.9999975280763
368,188,42696,1,0,0:0:0:0:
352,288,42866,1,0,0:0:0:0:
464,152,43035,1,0,0:0:0:0:
472,248,43205,1,0,0:0:0:0:
400,104,43374,2,0,L|392:24,1,80.9999975280763
420,332,43713,6,0,P|364:368|284:332,1,161.999995056153
60,96,44391,2,0,P|132:76|212:112,2,161.999995056153
128,184,45239,2,0,L|128:268,1,80.9999975280763
452,116,45747,2,0,L|448:196,1,80.9999975280763
348,180,46086,2,0,L|344:260,1,80.9999975280763
236,328,46425,6,0,L|232:247,1,80.9999975280763
131,264,46764,2,0,L|128:184,1,80.9999975280763
312,272,47103,2,0,B|360:288|412:252|412:252|440:252|476:268,2,161.999995056153
348,180,47951,6,0,P|348:138|344:96,1,80.9999975280763
180,60,48290,1,0,0:0:0:0:
180,60,48374,1,0,0:0:0:0:
180,60,48459,2,0,P|168:104|172:156,1,80.9999975280763
180,272,48798,1,0,0:0:0:0:
252,184,48968,1,0,0:0:0:0:
440,276,49137,6,0,P|348:288|268:276,1,161.999995056153
44,36,50493,5,4,0:0:0:0:
260,368,51849,5,4,0:0:0:0:
468,36,53205,5,4,0:0:0:0:
196,152,53883,2,0,L|188:208,2,53.9999983520508
272,240,54222,2,0,L|280:304,2,53.9999983520508
184,296,54561,1,4,0:0:0:0:
272,144,55917,5,0,0:0:0:0:
272,144,56595,2,0,P|312:152|344:180,1,80.9999975280763
188,192,56934,2,0,P|174:153|183:111,1,80.9999975280763
272,240,57273,5,0,0:0:0:0:
360,56,57951,2,0,P|400:48|441:56,1,80.9999975280763
280,124,58290,2,0,P|240:132|192:120,1,80.9999975280763
400,160,58629,6,0,P|420:236|384:320,2,161.999995056153
112,168,59646,2,0,L|119:248,1,80.9999975280763
319,163,59985,6,0,L|400:160,1,80.9999975280763
264,244,60325,1,0,0:0:0:0:
264,244,60494,1,0,0:0:0:0:
196,60,60663,2,0,L|196:164,1,80.9999975280763
264,244,61002,1,0,0:0:0:0:
264,244,61172,1,0,0:0:0:0:
176,352,61341,5,0,0:0:0:0:
176,204,61511,1,0,0:0:0:0:
304,320,61680,1,0,0:0:0:0:
312,152,61850,1,0,0:0:0:0:
436,280,62019,2,0,L|436:364,1,80.9999975280763
448,96,62357,1,0,0:0:0:0:
448,96,62527,1,0,0:0:0:0:
268,72,64730,6,0,P|220:28|200:96,1,157.5
244,144,65408,6,0,L|444:140,1,198.000006042481,4|0,0:0|0:0,0:0:0:0:
304,256,65917,1,0,0:0:0:0:
392,316,66086,2,0,L|496:309,1,99.0000030212403
304,256,66425,1,0,0:0:0:0:
228,344,66595,6,0,P|176:344|128:336,1,99.0000030212403
80,220,66934,1,0,0:0:0:0:
104,116,67103,1,0,0:0:0:0:
188,236,67273,1,0,0:0:0:0:
80,220,67442,1,0,0:0:0:0:
104,116,67611,1,0,0:0:0:0:
188,236,67781,2,0,P|236:228|296:224,1,99.0000030212403
444,264,68120,6,0,L|420:372,1,99.0000030212403
380,180,68459,1,0,0:0:0:0:
320,308,68629,1,0,0:0:0:0:
248,188,68798,2,0,P|240:128|244:76,1,99.0000030212403
380,180,69137,1,0,0:0:0:0:
320,308,69307,1,0,0:0:0:0:
164,236,69476,6,0,P|112:232|48:240,1,99.0000030212403
245,283,69815,2,0,P|256:235|247:187,1,99.0000030212403
348,60,70154,2,0,P|339:108|349:156,1,99.0000030212403
460,296,70493,2,0,P|470:247|461:199,1,99.0000030212403
432,180,70747,1,0,0:0:0:0:
412,216,70832,6,0,B|356:232|356:232|216:216,1,198.000006042481
60,268,71341,1,0,0:0:0:0:
144,324,71510,2,0,B|179:313|179:313|248:316,1,99.0000030212403
428,364,71849,2,0,B|392:373|392:373|330:363,1,99.0000030212403
160,136,72188,6,0,B|216:120|216:120|356:136,1,198.000006042481
392,256,72696,1,0,0:0:0:0:
492,168,72866,2,0,L|512:52,1,99.0000030212403
352,48,73205,1,0,0:0:0:0:
416,148,73374,1,0,0:0:0:0:
392,256,73544,6,0,B|340:272|280:236|280:236|232:236|192:256,1,198.000006042481
80,344,74052,1,0,0:0:0:0:
176,236,74222,2,0,P|188:184|180:136,1,99.0000030212403
36,48,74561,2,0,P|29:96|41:144,1,99.0000030212403
276,232,74900,6,0,B|316:180|316:180|336:112|320:48,1,198.000006042481
116,92,75408,1,0,0:0:0:0:
79,242,75578,2,0,P|127:246|179:234,1,99.0000030212403
175,235,75832,1,0,0:0:0:0:
175,235,75917,1,0,0:0:0:0:
120,140,76086,1,0,0:0:0:0:
76,336,76256,6,0,P|180:328|280:328,1,198.000006042481
273,327,76764,1,0,0:0:0:0:
468,288,76934,1,0,0:0:0:0:
376,360,77103,1,0,0:0:0:0:
300,196,77273,1,0,0:0:0:0:
384,280,77442,1,0,0:0:0:0:
472,156,77612,6,0,P|372:160|323:165,1,148.50000453186
300,196,77951,1,0,0:0:0:0:
468,104,78120,2,0,P|412:104|364:108,1,99.0000030212403
300,196,78459,1,0,0:0:0:0:
220,56,78629,1,0,0:0:0:0:
176,156,78798,1,0,0:0:0:0:
136,260,78968,6,0,L|124:360,1,99.0000030212403
52,216,79307,1,0,0:0:0:0:
240,264,79476,2,0,L|256:364,1,99.0000030212403
176,156,79815,1,0,0:0:0:0:
300,196,79985,6,0,L|404:200,2,99.0000030212403
220,56,80493,1,0,0:0:0:0:
420,80,80663,2,0,L|308:88,1,99.0000030212403
77,152,81002,2,0,L|176:156,1,99.0000030212403
400,216,81341,2,0,L|293:224,1,99.0000030212403
40,320,81680,6,0,B|68:300|92:304|92:304|140:320|192:300,1,148.50000453186
208,284,82019,1,0,0:0:0:0:
300,196,82188,1,0,0:0:0:0:
416,328,82357,2,0,P|428:268|424:224,1,99.0000030212403
300,144,82696,1,0,0:0:0:0:
400,80,82866,1,0,0:0:0:0:
300,196,83035,6,0,P|224:208|144:192,1,148.50000453186
108,144,83374,2,0,P|120:184|116:240,1,99.0000030212403
40,320,83713,1,0,0:0:0:0:
16,200,83883,2,0,P|8:148|24:96,1,99.0000030212403
164,192,84222,1,0,0:0:0:0:
260,280,84391,5,0,0:0:0:0:
392,236,84561,1,0,0:0:0:0:
164,192,84730,1,0,0:0:0:0:
232,344,84900,1,0,0:0:0:0:
308,184,85069,2,0,L|304:72,1,99.0000030212403
448,68,85408,1,0,0:0:0:0:
484,236,85578,6,0,P|432:240|332:228,1,148.50000453186
308,184,85917,2,0,L|304:72,1,99.0000030212403
196,28,86256,1,0,0:0:0:0:
80,68,86425,2,0,L|88:168,1,99.0000030212403
96,192,86680,1,0,0:0:0:0:
100,217,86764,1,0,0:0:0:0:
105,242,86849,1,0,0:0:0:0:
110,267,86934,1,0,0:0:0:0:
115,293,87018,1,0,0:0:0:0:
128,336,87103,6,0,L|152:208,1,99.0000030212403
280,112,87442,1,0,0:0:0:0:
332,224,87612,2,0,P|276:232|228:224,1,99.0000030212403
304,332,87951,1,0,0:0:0:0:
304,332,88120,2,0,P|352:328|404:336,1,99.0000030212403
444,152,88459,6,0,L|430:299,1,148.50000453186
402,335,88798,1,0,0:0:0:0:
280,216,88968,1,0,0:0:0:0:
424,172,89137,1,0,0:0:0:0:
304,332,89307,1,0,0:0:0:0:
180,264,89476,2,0,P|172:208|184:160,1,99.0000030212403
324,52,89815,6,0,P|332:124|320:200,1,148.50000453186
280,216,90154,1,0,0:0:0:0:
112,104,90324,1,0,0:0:0:0:
240,104,90493,1,0,0:0:0:0:
280,216,90663,1,0,0:0:0:0:
112,104,90832,1,0,0:0:0:0:
240,104,91001,1,0,0:0:0:0:
192,300,91171,6,0,P|144:308|92:300,1,99.0000030212403
324,132,91510,2,0,P|372:124|424:132,1,99.0000030212403
140,200,91849,2,0,P|132:151|140:102,1,99.0000030212403
372,232,92188,2,0,P|379:280|371:329,1,99.0000030212403
324,344,92442,1,0,0:0:0:0:
288,320,92527,6,0,L|292:160,1,148.50000453186
324,132,92866,1,0,0:0:0:0:
164,80,93035,1,0,0:0:0:0:
76,236,93205,2,0,L|184:224,1,99.0000030212403
408,268,93544,2,0,L|300:260,1,99.0000030212403
300,140,93883,5,0,0:0:0:0:
224,292,94052,1,0,0:0:0:0:
140,168,94222,2,0,P|136:112|148:60,1,99.0000030212403
300,140,94561,1,0,0:0:0:0:
188,248,94730,2,0,P|140:259|92:248,1,99.0000030212403
240,76,95069,1,0,0:0:0:0:
400,288,95239,6,0,B|368:228|408:192|408:192|388:140|408:80,1,198.000006042481
512,80,95747,1,0,0:0:0:0:
448,240,95917,2,0,L|340:228,1,99.0000030212403
152,80,96256,2,0,P|164:108|164:180,1,99.0000030212403
256,328,96595,6,0,P|244:300|244:228,1,99.0000030212403
328,116,96934,1,0,0:0:0:0:
418,271,97103,2,0,L|320:268,1,99.0000030212403
280,232,97357,2,0,L|284:168,3,49.5000015106202
144,320,97781,1,0,0:0:0:0:
144,320,97951,6,0,P|136:268|136:164,1,148.50000453186
152,136,98290,2,0,P|154:80|152:32,1,99.0000030212403
104,212,98629,2,0,L|220:208,1,99.0000030212403
256,280,98968,2,0,L|360:276,1,99.0000030212403
344,128,99307,6,0,P|328:76|336:32,1,99.0000030212403
432,168,99646,2,0,P|394:207|352:222,1,99.0000030212403
420,72,99985,2,0,P|473:84|507:113,1,99.0000030212403
180,116,100324,2,0,P|218:85|266:75,1,99.0000030212403
264,304,100663,6,0,P|210:291|176:262,1,99.0000030212403
368,192,101002,2,0,L|476:192,1,99.0000030212403
288,192,101341,2,0,L|189:192,1,99.0000030212403
27,114,101680,1,0,0:0:0:0:
27,114,101764,1,0,0:0:0:0:
27,114,101849,2,0,L|44:168,1,49.5000015106202
99,247,102019,6,0,L|125:143,1,99.0000030212403
357,93,102357,2,0,L|369:201,1,99.0000030212403
205,355,102696,2,0,P|181:311|177:263,1,99.0000030212403
288,192,103035,2,0,P|308:232|304:300,1,99.0000030212403
200,180,103374,6,0,B|172:120|192:64|192:64|236:48|280:56,1,198.000006042481
384,190,103883,1,0,0:0:0:0:
384,190,104053,2,0,P|336:201|288:192,1,99.0000030212403
128,280,104391,2,0,P|175:268|224:278,1,99.0000030212403
384,352,104730,6,0,P|328:360|276:352,2,99.0000030212403
480,308,105239,1,0,0:0:0:0:
476,192,105408,2,0,L|468:92,1,99.0000030212403
332,108,105747,2,0,L|320:216,1,99.0000030212403
190,206,106086,6,0,L|180:108,1,99.0000030212403
43,93,106425,2,0,L|36:192,1,99.0000030212403
136,316,106764,1,0,0:0:0:0:
23,318,106934,1,0,0:0:0:0:
248,305,107103,1,0,0:0:0:0:
136,316,107273,1,0,0:0:0:0:
379,289,107442,6,0,P|343:249|283:301,1,148.50000453186
296,328,107781,2,0,B|336:340|336:340|320:172,1,198.000006042481
296,152,108205,1,0,0:0:0:0:
296,152,108290,2,0,L|232:160,1,49.5000015106202
152,128,108459,2,0,L|180:88,1,49.5000015106202
76,152,108629,2,0,L|88:216,1,49.5000015106202
160,296,108798,6,0,L|176:192,1,99.0000030212403
290,79,109137,2,0,L|298:179,1,99.0000030212403
349,340,109476,1,0,0:0:0:0:
449,261,109646,1,0,0:0:0:0:
330,200,109816,1,0,0:0:0:0:
319,360,109985,1,0,0:0:0:0:
205,274,110154,5,0,0:0:0:0:
260,149,110324,1,0,0:0:0:0:
157,342,110493,2,0,P|167:288|152:243,1,99.0000030212403
43,95,110832,2,0,P|33:149|48:194,1,99.0000030212403
330,200,111171,2,0,P|340:143|331:98,1,99.0000030212403
131,100,111510,6,0,L|95:294,1,198.000006042481
211,156,112019,1,0,0:0:0:0:
259,284,112188,2,0,P|304:290|360:279,1,99.0000030212403
478,170,112527,2,0,L|377:165,1,99.0000030212403
233,367,112866,6,0,L|331:361,1,99.0000030212403
415,130,113205,2,0,P|359:120|307:125,1,99.0000030212403
178,284,113544,2,0,L|232:367,1,99.0000030212403
283,109,113883,2,0,P|232:115|186:103,1,99.0000030212403
88,336,114222,6,0,L|115:127,1,198.000006042481
236,37,114730,1,0,0:0:0:0:
360,177,114900,2,0,P|366:232|349:282,1,99.0000030212403
283,109,115239,1,0,0:0:0:0:
157,208,115408,1,0,0:0:0:0:
294,349,115578,6,0,P|355:273|359:176,1,198.000006042481
216,217,116086,1,0,0:0:0:0:
353,273,116256,2,0,P|366:225|360:177,1,99.0000030212403
194,58,116595,2,0,P|181:105|187:154,1,99.0000030212403
235,335,116934,6,0,P|247:287|241:238,1,99.0000030212403
142,138,117273,2,0,L|136:246,1,99.0000030212403
194,58,117612,2,0,P|146:45|97:51,1,99.0000030212403
67,277,117951,2,0,L|172:282,1,99.0000030212403
377,193,118290,6,0,L|262:186,1,99.0000030212403
86,125,118629,2,0,L|193:129,1,99.0000030212403
475,199,118968,2,0,L|360:192,1,99.0000030212403
55,162,119307,2,0,L|162:166,1,99.0000030212403
444,288,119646,6,0,L|224:292,1,198.000006042481
128,256,120154,1,0,0:0:0:0:
224,164,120324,2,0,L|432:160,1,198.000006042481
472,68,120832,1,0,0:0:0:0:
352,124,121002,6,0,L|144:128,1,198.000006042481
