osu file format v7

[General]
AudioFilename: Yasuaki Fujita - Hard Man.mp3
AudioLeadIn: 1004
PreviewTime: 30471
Countdown: 1
SampleSet: Soft
StackLeniency: 0.7
Mode: 0
LetterboxInBreaks: 1

[Editor]
Bookmarks: 7439,14145,20851,27558,34264,40970,47676,54383,61089,67775,74481,81188,87894
DistanceSpacing: 0.699999988079071
BeatDivisor: 4
GridSize: 8

[Metadata]
Title:Hard Man
Artist:Yasuaki Fujita
Creator:KoromoAmae
Version:Not Very Hard Man
Source:Mega Man 3
Tags:mega man 8-bit

[Difficulty]
HPDrainRate:3
CircleSize:4
OverallDifficulty:3
SliderMultiplier:1.2
SliderTickRate:1

[Events]
//Background and Video events
0,0,"hardmanbg.jpg"
//Break Periods
//Storyboard Layer 0 (Background)
//Storyboard Layer 1 (Fail)
//Storyboard Layer 2 (Pass)
//Storyboard Layer 3 (Foreground)
//Storyboard Sound Samples
//Background Colour Transformations
3,100,163,162,255

[TimingPoints]
713,419.14076143905,4,2,0,60,1,0

[Colours]
Combo1 : 0,255,0
Combo2 : 44,194,211
Combo3 : 255,255,255
Combo4 : 0,0,255

[HitObjects]
48,336,713,2,0,B|160:336|160:232|32:232,1,210,0|2
40,48,2389,6,0,B|152:48|152:144|24:144,1,210,0|2
192,40,4066,5,0
360,40,4904,1,0
464,176,5742,2,0,B|344:176|344:264|488:264,1,210,0|4
296,352,7419,6,0,B|296:232|208:232|208:376,1,210,0|2
120,184,9095,6,0,B|0:184|0:272|144:272,1,210,0|2
200,96,10772,5,0
200,264,11610,1,0
352,192,12448,2,0,B|288:128|240:208,2,120,0|8|4
440,48,14125,6,0,B|304:48,2,120,0|8|0
440,216,15802,2,0,B|440:296|352:304,2,120,0|8|0
272,224,17478,6,0,B|272:352,2,120,0|8|0
144,224,19155,2,0,B|144:296|64:296,2,120,0|8|4
112,56,20831,6,0,B|112:128|32:128,2,120,0|8|0
280,56,22508,2,0,B|280:128|192:136,2,120,0|8|0
448,40,24184,6,0,B|312:40,2,120,0|8|0
384,96,25442,1,8
328,152,25861,2,0,B|464:152,2,120,0|8|4
200,40,27538,6,0,B|72:40|40:128|40:192,1,240,0|4
40,184,29214,6,0,B|40:312|128:344|192:344,1,240,0|4
256,192,30891,12,0,33825
320,272,34244,6,0,B|320:120|480:120,1,240,2|8
384,40,35920,2,0,B|384:192|224:192,1,240,2|4
168,40,37597,6,0,B|24:40,2,120,2|0|8
280,168,39273,2,0,B|416:168,2,120,2|0|4
112,192,40950,6,0,B|112:272|200:272,2,120,0|0|8
280,192,42627,2,0,B|280:272|192:272,2,120,2|0|4
352,40,44303,6,0,B|352:200|200:200,1,240,2|2
72,40,45980,6,0,B|72:200|224:200,1,240,2|4
296,344,47656,6,0,B|296:208|432:208,1,210,0|2
320,48,49333,6,0,B|320:192|192:192,1,210,0|2
80,48,51009,5,0
80,216,51848,1,0
192,344,52686,2,0,B|192:120,1,210,0|2
288,296,54363,6,0,B|288:192|408:192|408:312,1,210,0|8
216,296,56039,6,0,B|216:192|96:192|96:312,1,210,0|8
48,112,57716,5,0
200,40,58554,1,0
352,112,59392,2,0,B|216:112,2,120,0|8|4
376,280,61069,6,0,B|376:352|464:352,2,120,0|2|0
208,280,62745,2,0,B|208:352|120:352,2,120,0|2|0
64,192,64422,6,0,B|64:320,2,120,0|2|0
64,192,66098,2,0,B|192:192,2,120,0|2|0
144,48,67775,6,0,B|144:128|48:128,2,120,0|2|0
312,48,69452,2,0,B|312:128|408:128,2,120,0|2|0
256,208,71128,6,0,B|256:64,2,120,0|2|0
256,208,72805,2,0,B|256:336,2,120,0|2|0
320,56,74481,6,0,B|472:56|472:208,1,240,4|0
472,200,76158,2,0,B|472:352|320:352,1,240,4|0
256,192,77834,12,0,80768
136,192,81188,6,0,B|272:192,2,120,0|8|0
376,192,82864,2,0,B|248:192,2,120,0|8|0
256,72,84541,6,0,B|256:200,2,120,0|8|0
256,312,86217,2,0,B|256:176,2,120,0|8|0
88,344,87894,6,0,B|192:240,2,120,0|8|0
88,176,89570,2,0,B|184:272,2,120,0|8|0
176,32,91247,6,0,B|272:128,2,120,0|8|0
344,32,92923,2,0,B|256:120,2,120,0|8|4
