osu file format v9

[General]
AudioFilename: Megaman_3_-_03_-__Magnet_Man.mp3
AudioLeadIn: 3000
PreviewTime: 21868
Countdown: 1
SampleSet: Soft
StackLeniency: 0.7
Mode: 0
LetterboxInBreaks: 1

[Editor]
DistanceSpacing: 0.8
BeatDivisor: 4
GridSize: 8

[Metadata]
Title:Magnet Man
Artist:Yasuaki Fujita (Bun Bun)
Creator:Slowmotion
Version:Novice
Source:
Tags:Capcom

[Difficulty]
HPDrainRate:3
CircleSize:3
OverallDifficulty:3
ApproachRate:3
SliderMultiplier:0.999999999999999
SliderTickRate:1

[Events]
//Background and Video events
0,0,"Quickwall.png"
//Break Periods
2,8537,13560
2,35190,38548
2,46851,51875
2,66842,70199
//Storyboard Layer 0 (Background)
//Storyboard Layer 1 (Fail)
//Storyboard Layer 2 (Pass)
//Storyboard Layer 3 (Foreground)
//Storyboard Sound Samples
//Background Colour Transformations
3,100,163,162,255

[TimingPoints]
8,416.464218782536,4,2,0,50,1,0
26666,-100,4,2,0,50,0,0
35000,-100,4,1,0,50,0,0
40000,-100,4,2,0,50,0,0
66661,-100,4,1,0,50,0,0
69761,-100,4,2,0,50,0,0
74967,-100,4,2,0,30,0,0
76458,-100,4,2,0,15,0,0

[Colours]
Combo1 : 192,192,192
Combo2 : 255,55,0
Combo3 : 249,249,0

[HitObjects]
480,32,8,2,0,B|480:176|392:256|232:240|192:176,1,400,2|4
248,120,2090,2,0,B|248:32|120:48|144:136,1,175,0|2
200,200,3339,2,0,B|200:312|384:336|416:208,1,300
424,136,5005,1,8
264,136,5838,1,8
104,136,6671,1,8
104,136,7087,1,0
256,192,7400,12,4,8337
256,48,15000,6,0,B|136:104|152:240|264:312|376:224,1,400,0|0
408,72,17499,1,4
256,48,18332,2,0,B|376:104|360:240|248:312|136:224,1,400,0|0
400,192,21664,6,0,B|344:312|208:296|136:184|224:72,1,400,0|0
80,144,24162,1,8
120,296,24995,2,0,B|229:382|341:310|357:174|237:118,1,375,0|0
392,80,27494,1,8
232,88,28327,6,0,B|200:128|224:192,1,99.9999999999999,0|8
264,248,29160,2,0,B|303:279|358:258,1,99.9999999999999,0|8
440,280,29993,1,0
424,200,30409,1,8
376,136,30826,2,0,B|328:104|272:136,1,99.9999999999999,0|8
200,152,31659,1,0
128,184,32075,1,8
56,152,32492,1,0
128,120,32908,1,8
256,192,33325,12,4,34990
280,296,39988,6,0,B|312:256|288:192,1,99.9999999999999,0|8
248,136,40821,2,0,B|209:105|154:126,1,99.9999999999999,0|8
72,104,41654,1,0
88,184,42070,1,8
136,248,42487,2,0,B|184:280|240:248,1,99.9999999999999,0|8
312,232,43320,1,0
384,200,43736,1,8
456,232,44153,1,0
384,264,44569,1,8
256,192,44986,12,4,46651
112,192,53315,6,0,B|168:72|304:88|376:200|288:312,1,400,0|0
432,240,55814,1,8
392,88,56647,2,0,B|283:2|171:74|155:210|275:266,1,375,0|0
120,304,59145,1,8
280,296,59978,6,0,B|312:256|288:192,1,99.9999999999999,0|8
248,136,60811,2,0,B|209:105|154:126,1,99.9999999999999,0|8
72,104,61644,1,0
88,184,62061,1,8
136,248,62477,2,0,B|184:280|240:248,1,99.9999999999999,0|8
312,232,63310,1,0
384,200,63727,1,8
456,232,64143,1,0
384,264,64559,1,8
256,192,64976,12,4,66642
232,296,71639,6,0,B|200:256|224:192,1,99.9999999999999,0|8
264,136,72472,2,0,B|303:105|358:126,1,99.9999999999999,0|8
440,104,73305,1,0
424,184,73722,1,8
376,248,74138,2,0,B|328:280|272:248,1,99.9999999999999,0|8
200,232,74971,1,0
128,200,75388,1,8
56,232,75804,1,0
128,264,76220,1,8
256,192,76429,12,4,78303
