osu file format v6

[General]
AudioFilename: Yanzi Sun - Meng Bu Luo.mp3
AudioLeadIn: 0
PreviewTime: 102088
Countdown: 0
SampleSet: Normal
StackLeniency: 0.6
Mode: 0
LetterboxInBreaks: 1
StoryFireInFront: 0

[Editor]
DistanceSpacing: 1.10000002384186
BeatDivisor: 2
GridSize: 16

[Metadata]
Title:Meng Bu Luo (Dream Never End)
Artist:Yanzi Sun
Creator:Breeze
Version:Beginner
Source:Wan Mei De Yi Tian (A Perfect Day)
Tags:Stefanie Sng EeTze C-Pop

[Difficulty]
HPDrainRate:3
CircleSize:3
OverallDifficulty:3
SliderMultiplier:0.7
SliderTickRate:0.5

[Events]
//Background and Video events
0,0,"BG.jpg"
//Break Periods
2,46035,52645
2,70285,76145
2,94035,100895
2,150284,159645
//Storyboard Layer 0 (Background)
//Storyboard Layer 1 (Fail)
//Storyboard Layer 2 (Pass)
//Storyboard Layer 3 (Foreground)
//Storyboard Sound Samples
//Background Colour Transformations
3,100,145,32,38

[TimingPoints]
6085,500,4,2,0,71,1,0
29335,-100,4,2,0,81,0,0
53835,-100,4,2,1,89,0,0
70085,-100,4,2,1,89,0,1
70147,-100,4,2,1,89,0,0
102085,-100,4,2,0,29,0,0
103085,-100,4,2,0,90,0,1
103147,-100,4,2,0,90,0,0
111085,-100,4,2,0,90,0,1
111147,-100,4,2,0,90,0,0
119835,-100,4,1,0,51,0,0
160835,-100,4,1,0,59,0,0
166460,-100,4,1,0,22,0,0
166835,-100,4,1,0,59,0,0
168835,-100,4,2,0,100,0,0
169085,-100,4,2,0,100,0,1
169147,-100,4,2,0,100,0,0
185085,-100,4,2,0,100,0,1
185147,-100,4,2,0,100,0,0
192835,-100,4,1,0,59,0,0
203085,-100,4,1,0,59,0,1
203335,-100,4,1,0,50,0,0
203585,-100,4,1,0,39,0,0
203835,-100,4,1,0,30,0,0
204085,-100,4,1,0,21,0,0
204335,-100,4,1,0,11,0,0
204585,-100,4,1,0,0,0,0

[Colours]
Combo1 : 0,128,255
Combo2 : 255,255,255
Combo3 : 0,255,255
Combo4 : 255,0,0
Combo5 : 255,128,0

[HitObjects]
48,48,14085,1,0
128,48,14585,1,0
208,48,15085,2,0,B|256:48,1,35
320,48,15835,6,0,B|432:48,1,105
464,112,17085,2,0,B|464:160,1,35
352,192,18085,6,0,B|352:256,2,35,0|0|4
272,192,19085,6,0,B|208:192,2,35,0|0|4
272,272,20085,5,0
192,272,20585,1,0
112,272,21085,1,0
32,272,21585,6,0,B|32:192,1,70,0|4
32,128,22585,1,0
112,128,23085,2,0,B|176:128,1,35
224,128,23835,6,0,B|336:128,1,105,0|0
400,128,25085,2,0,B|448:128,1,35
352,208,26085,6,0,B|384:240,1,35
256,256,27085,6,0,B|272:288,1,35
160,288,28085,6,0,B|160:336,2,35
80,288,29085,1,0
32,224,29585,5,0
80,160,30085,1,2
128,96,30585,1,0
176,160,31085,1,2
256,160,31585,6,0,B|256:112,2,35,0|0|2
336,160,32585,2,0,B|336:112,2,35,0|0|2
416,160,33585,5,0
464,224,34085,1,2
416,288,34585,1,0
336,288,35085,1,2
256,288,35585,6,0,B|256:240,2,35,0|0|2
176,288,36585,2,0,B|176:224,2,35,0|0|2
96,288,37585,6,0,B|32:224,1,70,0|6
48,160,38585,2,0,B|48:64,1,70,0|2
128,80,39585,5,0
208,80,40085,1,2
288,80,40585,2,0,B|352:80,1,35
256,208,41335,12,0,42835
256,208,43335,12,0,44835
272,192,45335,6,0,B|224:192,2,35
448,304,54085,5,0
384,272,54585,1,2
320,304,55085,2,0,B|320:352,2,35,0|0|2
320,224,56085,1,0
256,272,56585,1,2
192,224,57085,2,0,B|192:176,2,35,0|0|2
128,256,58085,6,0,B|80:288,2,35,0|0|2
80,192,59085,6,0,B|16:192,2,35,0|0|2
128,128,60085,6,0,B|80:80,2,35,0|0|2
176,192,61085,1,0
256,192,61585,6,0,B|352:192,1,70,2|4
384,240,62585,1,2
432,304,63085,2,0,B|432:368,2,35,0|0|2
480,240,64085,1,0
432,176,64585,1,2
384,112,65085,2,0,B|416:80,2,35,0|0|2
320,64,66085,6,0,B|320:16,2,35,0|0|2
256,112,67085,6,0,B|208:64,2,35,0|0|2
192,160,68085,5,0
128,208,68585,1,2
64,256,69085,1,0
128,304,69585,1,2
192,256,70085,1,4
368,64,77585,6,0,B|400:32,2,35,0|0|8
288,64,78585,1,0
208,64,79085,1,8
128,64,79585,6,0,B|96:32,2,35,0|0|8
128,144,80585,2,0,B|64:144,2,35,0|0|8
128,224,81585,6,0,B|96:256,2,35,0|0|8
208,224,82585,1,0
288,224,83085,1,8
368,224,83585,6,0,B|368:176,2,35,0|0|8
368,304,84585,2,0,B|416:304,2,35,0|0|8
288,304,85585,5,0
208,304,86085,1,8
128,304,86585,1,0
128,224,87085,1,8
128,144,87585,6,0,B|128:96|192:96,1,70,0|8
240,96,88585,2,0,B|288:96,2,35,0|0|8
256,208,89335,12,0,90835
256,208,91335,12,0,92835
256,192,93335,5,0
256,192,93585,1,0
256,192,93835,1,0
64,128,102335,6,0,B|64:80,3,35,0|0|0|4
128,48,103585,1,8
192,96,104085,2,0,B|192:144,2,35,0|0|8
256,48,105085,6,0,B|352:48,1,70,0|8
384,96,106085,2,0,B|432:96,2,35,0|0|8
320,144,107085,5,0
320,144,107335,1,0
320,144,107585,1,8
256,192,108085,6,0,B|288:240,2,35,0|0|8
192,240,109085,6,0,B|192:288,2,35,0|0|8
112,240,110085,1,0
48,192,110585,6,0,B|48:112,1,70,8|4
112,80,111585,2,0,B|112:16,2,35,8|0|0
176,128,112585,1,8
240,80,113085,5,0
304,128,113585,2,0,B|304:192,2,35,8|0|0
368,80,114585,1,8
432,128,115085,6,0,B|480:128,2,35,0|0|8
432,208,116085,6,0,B|480:208,2,35,0|0|8
368,256,117085,5,0
368,256,117335,1,0
368,256,117585,1,8
304,304,118085,1,0
240,256,118585,1,8
96,64,120085,5,8
256,64,121085,1,8
368,64,121835,2,0,B|448:160|352:256,1,210
256,320,124085,5,8
160,192,125085,1,8
80,272,125835,2,0,B|16:192|96:96,1,175
224,48,128085,6,8,B|400:48,1,140
464,96,129835,2,0,B|464:320,1,210
304,272,132085,5,12
224,272,132585,1,0
256,208,133085,2,0,B|256:80,1,105,8|0
208,48,134335,2,0,B|259:0|312:57,1,105
432,128,136085,6,0,B|496:192,1,70
416,224,137085,2,0,B|416:320,1,70
336,272,138085,2,0,B|256:336,1,70
224,256,139085,2,0,B|128:256,1,70
176,176,140085,6,0,B|112:112,2,70
224,112,141585,2,0,B|224:16,2,70
272,176,143085,2,0,B|352:112,2,70
112,176,145085,5,0
192,304,146085,1,0
272,176,147085,1,0
352,304,148085,1,0
352,112,149335,2,0,B|416:112,3,35
448,272,161085,6,2,B|448:80,1,175
416,64,162585,1,2
384,96,162835,2,2,B|160:96,1,210
112,48,164835,6,2,B|0:160|128:272,1,245,2|0
192,288,167085,2,0,B|192:224,6,35
272,272,169085,5,4
336,320,169585,1,8
400,272,170085,2,0,B|448:272,2,35,8|0|8
400,192,171085,1,8
400,112,171585,1,8
336,64,172085,2,0,B|336:16,2,35,8|0|8
256,80,173085,6,0,B|224:48,2,35,8|0|8
208,144,174085,6,0,B|144:144,2,35,8|0|8
256,208,175085,6,0,B|208:256,2,35,8|0|8
320,160,176085,1,8
384,208,176585,2,0,B|384:304,1,70,8|12
320,320,177585,1,8
256,272,178085,2,0,B|208:272,2,35,8|0|8
256,192,179085,1,8
256,112,179585,1,8
192,64,180085,2,0,B|192:16,2,35,8|0|8
128,112,181085,6,0,B|80:64,2,35,8|0|8
80,176,182085,6,0,B|16:176,2,35,8|0|8
128,240,183085,6,0,B|80:288,2,35,8|0|8
176,176,184085,2,0,B|272:176,1,70,8|8
320,176,185085,5,12
384,224,185585,1,8
432,288,186085,2,0,B|480:288,2,35,8|0|8
384,352,187085,1,8
336,288,187585,1,8
256,288,188085,2,0,B|160:288,2,70,8|8|8
256,288,189335,1,0
256,288,189585,1,8
256,208,190085,5,8
256,208,190335,1,0
256,208,190585,1,8
256,128,191085,5,8
256,128,191335,1,0
256,128,191585,1,8
288,64,192085,2,8,B|256:32|224:64,1,70
144,64,193085,6,0,B|64:64,1,70
96,144,194085,2,0,B|32:208,1,70
112,240,195085,2,0,B|112:336,2,70
176,192,196585,2,0,B|176:96,2,70
256,176,198085,2,0,B|320:112,1,70
352,192,199085,2,0,B|448:192,1,70
400,272,200085,2,0,B|464:336,1,70
64,304,203085,6,2,B|0:176|112:176|64:32,1,245,2|0
