osu file format v12

[General]
AudioFilename: Shape My Story.mp3
AudioLeadIn: 1500
PreviewTime: 51703
Countdown: 0
SampleSet: Normal
StackLeniency: 0.3
Mode: 0
LetterboxInBreaks: 1

[Editor]
DistanceSpacing: 1.4
BeatDivisor: 4
GridSize: 8

[Metadata]
Title:Shape My Story (TV Size)
TitleUnicode:Shape My Story (TV Size)
Artist:Yano Anna
ArtistUnicode:やのあんな
Creator:No_Gu
Version:Normal
Source:Stella Jogakuin Koutouka C3-bu
Tags:ステラ女学院高等科C³部 kz livetune
BeatmapID:274927
BeatmapSetID:104405

[Difficulty]
HPDrainRate:4
CircleSize:4
OverallDifficulty:3
ApproachRate:5
SliderMultiplier:1.12
SliderTickRate:1

[Events]
//Background and Video events
Video,254,"video.avi"
0,0,"BG.jpg",0,0
//Break Periods
//Storyboard Layer 0 (Background)
//Storyboard Layer 1 (Fail)
//Storyboard Layer 2 (Pass)
//Storyboard Layer 3 (Foreground)
//Storyboard Sound Samples
//Background Colour Transformations
3,100,163,162,255

[TimingPoints]
592,370.37037037037,4,2,1,40,1,0
962,-100,4,2,1,45,0,0
1332,-100,4,2,1,50,0,0
1703,-100,4,2,1,55,0,0
2073,-100,4,2,1,60,0,0
2443,-100,4,2,1,65,0,0
2814,-100,4,2,1,70,0,0
3184,-100,4,2,1,5,0,0
3554,-100,4,1,1,70,0,0
3925,-100,4,2,1,70,0,0
4110,-100,4,1,1,70,0,0
5036,-100,4,2,1,70,0,0
5221,-100,4,1,1,70,0,0
6888,-100,4,2,1,70,0,0
7073,-100,4,1,1,70,0,0
7999,-100,4,2,1,70,0,0
8369,-100,4,1,1,70,0,0
11703,-100,4,1,1,50,0,0
12443,-100,4,1,1,70,0,0
12814,-100,4,2,1,20,0,0
12999,-100,4,1,1,70,0,0
13184,-100,4,2,1,20,0,0
13554,-100,4,1,1,70,0,0
15036,-100,4,1,1,70,0,0
15406,-100,4,1,1,70,0,0
15499,-100,4,2,1,70,0,0
15777,-100,4,1,1,70,0,0
15869,-100,4,2,1,70,0,0
16147,-100,4,1,1,70,0,0
16240,-100,4,2,1,70,0,0
16517,-100,4,1,1,70,0,0
16610,-100,4,2,1,70,0,0
16888,-100,4,1,1,70,0,0
16980,-100,4,2,1,70,0,0
17258,-100,4,1,1,70,0,0
17351,-100,4,2,1,70,0,0
17629,-100,4,1,1,70,0,0
17721,-100,4,2,1,70,0,0
17999,-100,4,1,1,70,0,0
18091,-100,4,2,1,70,0,0
18369,-100,4,1,1,70,0,0
18462,-100,4,2,1,70,0,0
18740,-100,4,1,1,70,0,0
18832,-100,4,2,1,70,0,0
19110,-100,4,1,1,70,0,0
19203,-100,4,2,1,70,0,0
19480,-100,4,1,1,70,0,0
19573,-100,4,2,1,70,0,0
19851,-100,4,1,1,70,0,0
19944,-100,4,2,1,70,0,0
20222,-100,4,1,1,70,0,0
20314,-100,4,2,1,70,0,0
20592,-100,4,1,1,70,0,0
20685,-100,4,2,1,70,0,0
20962,-100,4,1,1,70,0,0
21055,-100,4,2,1,70,0,0
21333,-100,4,1,1,70,0,0
21425,-100,4,2,1,70,0,0
21703,-100,4,1,1,70,0,0
21796,-100,4,2,1,70,0,0
22074,-100,4,1,1,70,0,0
22166,-100,4,2,1,70,0,0
22444,-100,4,1,1,70,0,0
22536,-100,4,2,1,70,0,0
22814,-100,4,1,1,70,0,0
22907,-100,4,2,1,70,0,0
23185,-100,4,1,1,70,0,0
23277,-100,4,2,1,70,0,0
23555,-100,4,1,1,70,0,0
23648,-100,4,2,1,70,0,0
23925,-100,4,1,1,70,0,0
24018,-100,4,2,1,70,0,0
24296,-100,4,1,1,70,0,0
24389,-100,4,2,1,70,0,0
24667,-100,4,1,1,70,0,0
24759,-100,4,2,1,70,0,0
25037,-100,4,1,1,70,0,0
25130,-100,4,2,1,70,0,0
25407,-100,4,1,1,70,0,0
25500,-100,4,2,1,70,0,0
25778,-100,4,1,1,70,0,0
25870,-100,4,2,1,70,0,0
26148,-100,4,1,1,70,0,0
26241,-100,4,2,1,70,0,0
26519,-100,4,1,1,70,0,0
26611,-100,4,2,1,70,0,0
26889,-100,4,1,1,70,0,0
26981,-100,4,2,1,70,0,0
27259,-100,4,1,1,70,0,0
27352,-100,4,2,1,70,0,0
27630,-100,4,1,1,70,0,0
27722,-100,4,2,1,70,0,0
28000,-100,4,1,1,70,0,0
28093,-100,4,2,1,70,0,0
28370,-100,4,1,1,70,0,0
28463,-100,4,2,1,70,0,0
28741,-100,4,1,1,70,0,0
28834,-100,4,2,1,70,0,0
29112,-100,4,1,1,70,0,0
29204,-100,4,2,1,70,0,0
29482,-100,4,1,1,70,0,0
29575,-100,4,2,1,70,0,0
29852,-100,4,1,1,70,0,0
29945,-100,4,2,1,70,0,0
30223,-100,4,1,1,70,0,0
30315,-100,4,2,1,70,0,0
30593,-100,4,1,1,70,0,0
30686,-100,4,2,1,70,0,0
30964,-100,4,1,1,70,0,0
31056,-100,4,2,1,70,0,0
31334,-100,4,1,1,70,0,0
31426,-100,4,2,1,70,0,0
31704,-100,4,1,1,70,0,0
31797,-100,4,2,1,70,0,0
32075,-100,4,1,1,70,0,0
32167,-100,4,2,1,70,0,0
32445,-100,4,1,1,70,0,0
32538,-100,4,2,1,70,0,0
32815,-100,4,1,1,70,0,0
32908,-100,4,2,1,70,0,0
33186,-100,4,1,1,70,0,0
33279,-100,4,2,1,70,0,0
33554,-100,4,1,1,70,0,0
33649,-100,4,2,1,70,0,0
33927,-100,4,1,1,70,0,0
34020,-100,4,2,1,70,0,0
34297,-100,4,1,1,70,0,0
34390,-100,4,2,1,70,0,0
34668,-100,4,1,1,70,0,0
34760,-100,4,2,1,70,0,0
35038,-100,4,1,1,70,0,0
35131,-100,4,2,1,70,0,0
35409,-100,4,1,1,70,0,0
35501,-100,4,2,1,70,0,0
35779,-100,4,1,1,70,0,0
35871,-100,4,2,1,70,0,0
36149,-100,4,1,1,70,0,0
36242,-100,4,2,1,70,0,0
36517,-100,4,1,1,70,0,0
36612,-100,4,2,1,70,0,0
36890,-100,4,1,1,70,0,0
36983,-100,4,2,1,70,0,0
37260,-100,4,1,1,70,0,0
37353,-100,4,2,1,70,0,0
37631,-100,4,1,1,70,0,0
37724,-100,4,2,1,70,0,0
38002,-100,4,1,1,70,0,0
38094,-100,4,2,1,70,0,0
38372,-100,4,1,1,70,0,0
38465,-100,4,2,1,70,0,0
38742,-100,4,1,1,70,0,0
38835,-100,4,2,1,70,0,0
39110,-100,4,2,1,60,0,0
47999,-100,4,1,1,60,0,0
52073,-100,4,2,1,50,0,0
52443,-100,4,1,1,70,0,1
52536,-100,4,2,1,70,0,1
52814,-100,4,1,1,70,0,1
52906,-100,4,2,1,70,0,1
53184,-100,4,1,1,70,0,1
53277,-100,4,2,1,70,0,1
53554,-100,4,1,1,70,0,1
53647,-100,4,2,1,70,0,1
53925,-100,4,1,1,70,0,1
54017,-100,4,2,1,70,0,1
54295,-100,4,1,1,70,0,1
54388,-100,4,2,1,70,0,1
54666,-100,4,1,1,70,0,1
54758,-100,4,2,1,70,0,1
55036,-100,4,1,1,70,0,1
55128,-100,4,2,1,70,0,1
55406,-100,4,1,1,70,0,1
55499,-100,4,2,1,70,0,1
55777,-100,4,1,1,70,0,1
55869,-100,4,2,1,70,0,1
56147,-100,4,1,1,70,0,1
56240,-100,4,2,1,70,0,1
56517,-100,4,1,1,70,0,1
56610,-100,4,2,1,70,0,1
56888,-100,4,1,1,70,0,1
56981,-100,4,2,1,70,0,1
57259,-100,4,1,1,70,0,1
57351,-100,4,2,1,70,0,1
57629,-100,4,1,1,70,0,1
57722,-100,4,2,1,70,0,1
57999,-100,4,1,1,70,0,1
58092,-100,4,2,1,70,0,1
58370,-100,4,1,1,70,0,1
58462,-100,4,2,1,70,0,1
58740,-100,4,1,1,70,0,1
58833,-100,4,2,1,70,0,1
59111,-100,4,1,1,70,0,1
59203,-100,4,2,1,70,0,1
59481,-100,4,1,1,70,0,1
59573,-100,4,2,1,70,0,1
59851,-100,4,1,1,70,0,1
59944,-100,4,2,1,70,0,1
60222,-100,4,1,1,70,0,1
60314,-100,4,2,1,70,0,1
60592,-100,4,1,1,70,0,1
60685,-100,4,2,1,70,0,1
60962,-100,4,1,1,70,0,1
61055,-100,4,2,1,70,0,1
61333,-100,4,1,1,70,0,1
61426,-100,4,2,1,70,0,1
61704,-100,4,1,1,70,0,1
61796,-100,4,2,1,70,0,1
62074,-100,4,1,1,70,0,1
62167,-100,4,2,1,70,0,1
62444,-100,4,1,1,70,0,1
62537,-100,4,2,1,70,0,1
62815,-100,4,1,1,70,0,1
62907,-100,4,2,1,70,0,1
63185,-100,4,1,1,70,0,1
63278,-100,4,2,1,70,0,1
63556,-100,4,1,1,70,0,1
63648,-100,4,2,1,70,0,1
63926,-100,4,1,1,70,0,1
64018,-100,4,2,1,70,0,1
64203,-100,4,2,1,70,0,0
64295,-100,4,1,1,70,0,1
64389,-100,4,2,1,70,0,1
64667,-100,4,1,1,70,0,1
64759,-100,4,2,1,70,0,1
65037,-100,4,1,1,70,0,1
65130,-100,4,2,1,70,0,1
65407,-100,4,1,1,70,0,1
65500,-100,4,2,1,70,0,1
65778,-100,4,1,1,70,0,1
65871,-100,4,2,1,70,0,1
66149,-100,4,1,1,70,0,1
66241,-100,4,2,1,70,0,1
66519,-100,4,1,1,70,0,1
66612,-100,4,2,1,70,0,1
66889,-100,4,1,1,70,0,1
66982,-100,4,2,1,70,0,1
67260,-100,4,1,1,70,0,1
67352,-100,4,2,1,70,0,1
67630,-100,4,1,1,70,0,1
67723,-100,4,2,1,70,0,1
68001,-100,4,1,1,70,0,1
68093,-100,4,2,1,70,0,1
68371,-100,4,1,1,70,0,1
68463,-100,4,2,1,70,0,1
68741,-100,4,1,1,70,0,1
68834,-100,4,2,1,70,0,1
69112,-100,4,1,1,70,0,1
69204,-100,4,2,1,70,0,1
69482,-100,4,1,1,70,0,1
69575,-100,4,2,1,70,0,1
69852,-100,4,1,1,70,0,1
69945,-100,4,2,1,70,0,1
70223,-100,4,1,1,70,0,1
74666,-100,4,2,1,50,0,0
76147,-100,4,1,1,70,0,1
76240,-100,4,1,1,60,0,0
76517,-100,4,2,1,60,0,0
76703,-100,4,1,1,60,0,0
79480,-100,4,2,1,60,0,0
79666,-100,4,1,1,60,0,0
82073,-100,4,1,1,60,0,0

[Colours]
Combo1 : 128,255,128
Combo2 : 255,128,128
Combo3 : 128,255,255
Combo4 : 255,255,128

[HitObjects]
256,192,592,12,2,2814,0:0:0:0:
32,96,3554,6,0,P|80:56|184:64,1,168,0|8,0:0|0:0,0:0:0:0:
152,216,4480,1,0,0:0:0:0:
224,176,4666,2,0,L|400:192,1,168,0|2,0:0|2:0,0:0:0:0:
456,144,5406,2,0,P|480:104|472:40,2,112,0|8|0,0:0|0:0|0:0,0:0:0:0:
408,296,6517,6,0,P|328:272|240:288,1,168,0|8,0:0|0:0,0:0:0:0:
112,360,7443,1,0,0:0:0:0:
160,296,7629,2,0,L|128:120,1,168,0|2,0:0|2:0,0:0:0:0:
256,40,8554,1,0,0:0:0:0:
312,96,8740,2,0,P|368:112|432:104,2,112,8|2|2,0:0|2:2|1:2,0:0:0:0:
256,240,9851,5,0,0:0:0:0:
200,96,10221,2,0,P|144:112|80:104,2,112
256,192,11332,12,4,13554,0:0:0:0:
256,192,13925,6,0,L|264:136,1,56
336,104,14295,2,0,L|344:48,1,56,0|0,0:0|0:0,0:0:0:0:
408,8,14666,1,0,0:0:0:0:
488,144,15036,1,8,0:0:0:0:
400,272,15406,6,0,P|328:296|240:264,1,168,4|2,0:2|0:0,0:0:0:0:
208,200,16147,2,0,L|224:80,1,112
168,32,16703,2,0,B|136:16|88:24,1,56,2|0,0:0|0:0,0:0:0:0:
40,40,17073,2,0,B|10:59|-6:105,1,56,2|0,0:0|0:0,0:0:0:0:
32,160,17443,1,2,0:0:0:0:
24,240,17629,2,0,L|192:256,1,168
264,224,18369,6,0,B|312:176|280:88|280:88|320:112|376:96,1,224,2|0,0:0|0:0,0:0:0:0:
448,232,19480,1,2,0:0:0:0:
392,288,19666,1,0,0:0:0:0:
312,296,19851,2,0,L|192:304,1,112
136,264,20406,1,2,0:0:0:0:
112,192,20591,1,0,0:0:0:0:
256,128,20962,1,0,0:0:0:0:
400,192,21332,6,0,P|440:128|416:40,1,168,2|2,0:0|0:0,0:0:0:0:
344,16,22073,2,0,L|232:24,2,112,0|0|2,0:0|0:0|0:0,0:0:0:0:
224,120,23184,2,0,L|336:112,2,112
152,160,24110,1,2,0:0:0:0:
128,232,24295,6,0,P|120:296|184:376,1,168,0|2,0:0|0:0,0:0:0:0:
256,344,25036,2,0,B|296:320|296:320|344:360|424:336,1,168
472,288,25777,2,0,L|456:168,1,112,2|0,0:0|0:0,0:0:0:0:
416,112,26332,1,2,0:0:0:0:
352,152,26517,2,0,L|366:263,1,112,0|0,0:0|0:0,0:0:0:0:
240,352,27258,6,0,P|160:352|96:288,1,168
88,216,27999,1,2,0:0:0:0:
112,144,28184,2,0,L|96:80,1,56
168,48,28554,2,0,L|181:102,1,56,0|2,0:0|0:0,0:0:0:0:
328,168,29110,2,0,P|384:160|416:112,2,112,0|2|0,0:0|0:0|0:0,0:0:0:0:
208,264,30221,6,0,L|232:384,1,112,2|0,0:0|0:0,0:0:0:0:
304,344,30777,1,2,0:0:0:0:
384,360,30962,2,0,P|456:344|464:248,1,168,0|0,0:0|0:0,0:0:0:0:
480,184,31703,2,0,P|408:200|400:296,1,168,2|0,0:0|0:0,0:0:0:0:
312,264,32443,2,0,P|288:256|248:256,1,56
200,208,32814,2,0,P|176:216|136:216,1,56
88,160,33184,6,0,P|128:224|112:312,1,168,2|2,0:0|0:0,0:0:0:0:
48,360,33925,2,0,P|104:360|160:384,1,112
304,336,34666,2,0,P|248:336|192:312,2,112,2|0|0,0:0|0:0|0:0,0:0:0:0:
368,296,35591,1,0,0:0:0:0:
392,224,35777,1,0,0:0:0:0:
288,112,36147,6,0,B|232:128|232:192|232:192|208:176|168:184,1,168,2|0,0:0|0:0,0:0:0:0:
192,256,36888,2,0,P|256:264|304:224,1,112,2|0,0:0|0:0,0:0:0:0:
384,112,37629,2,0,L|376:224,2,112
320,64,38554,1,0,0:0:0:0:
240,72,38740,1,0,0:0:0:0:
120,176,39110,6,0,P|112:240|192:320,1,168,4|8,1:2|0:0,0:0:0:0:
320,256,40036,1,0,1:0:0:0:
264,200,40221,2,0,L|272:88,1,112,0|2,1:0|0:0,0:0:0:0:
128,16,40962,2,0,L|120:128,1,112,0|8,1:0|0:0,0:0:0:0:
40,264,41703,1,0,1:0:0:0:
192,288,42073,6,0,P|296:288|328:224,1,168,0|8,1:0|0:0,0:0:0:0:
320,88,42999,1,0,1:0:0:0:
248,112,43184,2,0,L|240:232,1,112,0|0,1:0|0:0,0:0:0:0:
176,80,43925,2,0,L|179:24,2,56,0|0|8,0:0|1:0|0:0,0:0:0:0:
72,200,44666,1,2,0:0:0:0:
224,240,45036,6,0,P|312:240|368:176,1,168,4|8,1:2|0:0,0:0:0:0:
248,80,45962,1,0,1:0:0:0:
136,192,46332,2,0,L|152:320,2,112,4|0|0,1:2|1:0|1:0,0:0:0:0:
32,312,47443,2,0,L|40:248,1,56,0|8,1:0|0:0,0:0:0:0:
56,104,47999,6,0,L|-8:112,2,56,12|0|0,0:2|0:0|0:0,0:0:0:0:
120,56,48554,2,0,L|184:64,2,56,12|0|0,0:2|0:0|0:0,0:0:0:0:
136,136,49110,2,0,P|136:168|128:200,1,56,8|4,0:0|0:2,0:0:0:0:
256,192,49480,12,2,50591,2:0:0:0:
256,192,50962,6,0,L|200:184,3,56,4|4|4|4,0:2|0:2|0:2|0:2,0:0:0:0:
24,24,52073,1,4,0:3:0:0:
88,168,52443,6,0,P|96:232|72:280,1,112,4|8,0:2|0:0,0:0:0:0:
8,312,52999,1,2,0:0:0:0:
72,352,53184,2,0,L|192:352,1,112,0|8,0:0|0:0,0:0:0:0:
256,320,53740,1,2,0:0:0:0:
328,352,53925,2,0,L|440:352,1,112,0|8,0:0|0:0,0:0:0:0:
504,312,54480,1,2,0:0:0:0:
434,273,54666,2,0,P|416:232|424:168,1,112,0|8,0:0|0:0,0:0:0:0:
368,32,55406,6,0,P|336:16|248:32,1,112,0|8,0:0|0:0,0:0:0:0:
208,80,55962,1,2,0:0:0:0:
232,152,56147,2,0,P|200:168|112:152,1,112,0|8,0:0|0:0,0:0:0:0:
32,40,56888,2,0,L|1:147,1,112,0|8,0:0|0:0,0:0:0:0:
72,288,57629,2,0,L|56:234,2,56,0|2|8,0:0|0:0|0:0,0:0:0:0:
224,336,58369,5,0,0:0:0:0:
316,209,58740,1,8,0:0:0:0:
224,82,59110,1,0,0:0:0:0:
74,130,59480,1,8,0:0:0:0:
74,287,59851,2,0,L|192:280,1,112,0|8,0:0|0:0,0:0:0:0:
296,168,60591,2,0,L|184:174,1,112,0|8,0:0|0:0,0:0:0:0:
112,144,61147,1,2,0:0:0:0:
80,72,61332,6,0,L|88:16,2,56,0|2|8,0:0|0:0|0:0,0:0:0:0:
88,232,62073,2,0,B|64:296|104:344|104:344,1,112,0|8,0:0|0:0,0:0:0:0:
168,304,62629,1,2,0:0:0:0:
232,344,62814,2,0,P|304:352|344:336,1,112,0|8,0:0|0:0,0:0:0:0:
400,288,63369,1,2,0:0:0:0:
400,208,63554,2,0,L|392:88,1,112,0|8,0:0|0:0,0:0:0:0:
256,24,64295,6,0,P|200:16|152:48,1,112,4|8,0:2|0:0,0:0:0:0:
72,176,65036,2,0,P|128:184|176:152,1,112,0|8,0:0|0:0,0:0:0:0:
248,168,65591,1,2,0:0:0:0:
304,224,65777,2,0,L|296:336,1,112,0|8,0:0|0:0,0:0:0:0:
456,320,66517,2,0,L|464:208,1,112,0|8,0:0|0:0,0:0:0:0:
360,88,67258,5,4,0:2:0:0:
208,112,67629,1,8,0:0:0:0:
88,216,67999,1,4,0:2:0:0:
240,192,68370,1,8,0:0:0:0:
384,248,68740,5,4,0:2:0:0:
232,272,69111,1,8,0:0:0:0:
112,376,69481,1,4,0:2:0:0:
264,352,69852,1,8,0:0:0:0:
256,192,70221,12,0,72814,0:0:0:0:
80,312,73184,6,0,P|152:304|200:312,1,112,4|0,0:2|0:0,0:0:0:0:
320,216,73925,2,0,P|356:220|380:216,1,56
408,144,74295,2,0,P|429:114|438:92,1,56
120,64,76147,6,0,P|136:144|88:224,1,168,4|8,0:0|0:0,0:0:0:0:
248,184,77073,1,0,0:0:0:0:
192,240,77258,2,0,L|208:352,1,112,0|0,0:0|2:0,0:0:0:0:
136,376,77814,2,0,L|128:320,1,56,2|0,2:0|0:0,0:0:0:0:
176,168,78369,2,0,P|240:144|296:160,1,112,8|0,0:0|0:0,0:0:0:0:
336,296,79110,6,0,P|240:332|156:308,1,168,0|8,0:0|0:0,0:0:0:0:
32,368,80036,1,0,0:0:0:0:
96,320,80221,2,0,L|88:208,1,112,0|0,0:0|2:0,0:0:0:0:
176,336,80962,2,0,L|172:280,2,56,2|0|8,2:0|0:0|0:0,0:0:0:0:
400,120,82073,5,4,1:2:0:0:
248,88,82443,1,0,0:0:0:0:
216,240,82814,1,0,0:0:0:0:
368,280,83184,1,0,0:0:0:0:
256,168,83554,2,0,P|200:160|144:192,1,112
176,336,84295,2,0,P|232:344|288:312,1,112
408,224,85036,5,4,0:2:0:0:
256,48,85591,1,4,0:2:0:0:
104,224,86147,1,4,0:0:0:0:
