osu file format v12

[General]
AudioFilename: Shape My Story.mp3
AudioLeadIn: 1500
PreviewTime: 51703
Countdown: 0
SampleSet: Normal
StackLeniency: 0.3
Mode: 0
LetterboxInBreaks: 1

[Editor]
DistanceSpacing: 1.1
BeatDivisor: 4
GridSize: 8

[Metadata]
Title:Shape My Story (TV Size)
TitleUnicode:Shape My Story (TV Size)
Artist:Yano Anna
ArtistUnicode:やのあんな
Creator:No_Gu
Version:Hard
Source:Stella Jogakuin Koutouka C3-bu
Tags:ステラ女学院高等科C³部 kz livetune
BeatmapID:275160
BeatmapSetID:104405

[Difficulty]
HPDrainRate:5
CircleSize:4
OverallDifficulty:6
ApproachRate:8
SliderMultiplier:1.44
SliderTickRate:1

[Events]
//Background and Video events
Video,254,"video.avi"
0,0,"BG.jpg",0,0
//Break Periods
//Storyboard Layer 0 (Background)
//Storyboard Layer 1 (Fail)
//Storyboard Layer 2 (Pass)
//Storyboard Layer 3 (Foreground)
//Storyboard Sound Samples
//Background Colour Transformations
3,100,163,162,255

[TimingPoints]
592,370.37037037037,4,2,1,40,1,0
962,-100,4,2,1,45,0,0
1332,-100,4,2,1,50,0,0
1703,-100,4,2,1,55,0,0
2073,-100,4,2,1,60,0,0
2443,-100,4,2,1,65,0,0
2814,-100,4,2,1,70,0,0
3184,-100,4,2,1,5,0,0
3554,-125,4,1,1,70,0,0
6888,-125,4,2,1,70,0,0
7073,-125,4,1,1,70,0,0
11703,-100,4,1,1,50,0,0
12443,-125,4,1,1,70,0,0
12814,-125,4,2,1,20,0,0
12999,-125,4,1,1,70,0,0
13184,-125,4,2,1,20,0,0
13554,-125,4,1,1,70,0,0
15036,-62.5,4,1,1,70,0,0
15406,-100,4,1,1,70,0,0
15499,-100,4,2,1,70,0,0
15777,-100,4,1,1,70,0,0
15869,-100,4,2,1,70,0,0
16147,-100,4,1,1,70,0,0
16240,-100,4,2,1,70,0,0
16517,-100,4,1,1,70,0,0
16610,-100,4,2,1,70,0,0
16888,-100,4,1,1,70,0,0
16980,-100,4,2,1,70,0,0
17258,-100,4,1,1,70,0,0
17351,-100,4,2,1,70,0,0
17629,-100,4,1,1,70,0,0
17721,-100,4,2,1,70,0,0
17999,-100,4,1,1,70,0,0
18091,-100,4,2,1,70,0,0
18369,-100,4,1,1,70,0,0
18462,-100,4,2,1,70,0,0
18740,-100,4,1,1,70,0,0
18832,-100,4,2,1,70,0,0
19110,-100,4,1,1,70,0,0
19203,-100,4,2,1,70,0,0
19480,-100,4,1,1,70,0,0
19573,-100,4,2,1,70,0,0
19851,-100,4,1,1,70,0,0
19944,-100,4,2,1,70,0,0
20222,-100,4,1,1,70,0,0
20314,-100,4,2,1,70,0,0
20592,-100,4,1,1,70,0,0
20685,-100,4,2,1,70,0,0
20962,-100,4,1,1,70,0,0
21055,-100,4,2,1,70,0,0
21333,-100,4,1,1,70,0,0
21425,-100,4,2,1,70,0,0
21703,-100,4,1,1,70,0,0
21796,-100,4,2,1,70,0,0
22074,-100,4,1,1,70,0,0
22166,-100,4,2,1,70,0,0
22444,-100,4,1,1,70,0,0
22536,-100,4,2,1,70,0,0
22814,-100,4,1,1,70,0,0
22907,-100,4,2,1,70,0,0
23185,-100,4,1,1,70,0,0
23277,-100,4,2,1,70,0,0
23555,-100,4,1,1,70,0,0
23648,-100,4,2,1,70,0,0
23925,-100,4,1,1,70,0,0
24018,-100,4,2,1,70,0,0
24296,-100,4,1,1,70,0,0
24389,-100,4,2,1,70,0,0
24667,-100,4,1,1,70,0,0
24759,-100,4,2,1,70,0,0
25037,-100,4,1,1,70,0,0
25130,-100,4,2,1,70,0,0
25407,-100,4,1,1,70,0,0
25500,-100,4,2,1,70,0,0
25778,-100,4,1,1,70,0,0
25870,-100,4,2,1,70,0,0
26148,-100,4,1,1,70,0,0
26241,-100,4,2,1,70,0,0
26519,-100,4,1,1,70,0,0
26611,-100,4,2,1,70,0,0
26889,-100,4,1,1,70,0,0
26981,-100,4,2,1,70,0,0
27259,-100,4,1,1,70,0,0
27352,-100,4,2,1,70,0,0
27630,-100,4,1,1,70,0,0
27722,-100,4,2,1,70,0,0
28000,-100,4,1,1,70,0,0
28093,-100,4,2,1,70,0,0
28370,-100,4,1,1,70,0,0
28463,-100,4,2,1,70,0,0
28741,-100,4,1,1,70,0,0
28834,-100,4,2,1,70,0,0
29112,-100,4,1,1,70,0,0
29204,-100,4,2,1,70,0,0
29482,-100,4,1,1,70,0,0
29575,-100,4,2,1,70,0,0
29852,-100,4,1,1,70,0,0
29945,-100,4,2,1,70,0,0
30223,-100,4,1,1,70,0,0
30315,-100,4,2,1,70,0,0
30593,-100,4,1,1,70,0,0
30686,-100,4,2,1,70,0,0
30964,-100,4,1,1,70,0,0
31056,-100,4,2,1,70,0,0
31334,-100,4,1,1,70,0,0
31426,-100,4,2,1,70,0,0
31704,-100,4,1,1,70,0,0
31797,-100,4,2,1,70,0,0
32075,-100,4,1,1,70,0,0
32167,-100,4,2,1,70,0,0
32445,-100,4,1,1,70,0,0
32538,-100,4,2,1,70,0,0
32815,-100,4,1,1,70,0,0
32908,-100,4,2,1,70,0,0
33186,-100,4,1,1,70,0,0
33279,-100,4,2,1,70,0,0
33557,-100,4,1,1,70,0,0
33649,-100,4,2,1,70,0,0
33927,-100,4,1,1,70,0,0
34020,-100,4,2,1,70,0,0
34297,-100,4,1,1,70,0,0
34390,-100,4,2,1,70,0,0
34668,-100,4,1,1,70,0,0
34760,-100,4,2,1,70,0,0
35038,-100,4,1,1,70,0,0
35131,-100,4,2,1,70,0,0
35409,-100,4,1,1,70,0,0
35501,-100,4,2,1,70,0,0
35779,-100,4,1,1,70,0,0
35871,-100,4,2,1,70,0,0
36149,-100,4,1,1,70,0,0
36242,-100,4,2,1,70,0,0
36520,-100,4,1,1,70,0,0
36612,-100,4,2,1,70,0,0
36890,-100,4,1,1,70,0,0
36983,-100,4,2,1,70,0,0
37260,-100,4,1,1,70,0,0
37353,-100,4,2,1,70,0,0
37631,-100,4,1,1,70,0,0
37724,-100,4,2,1,70,0,0
38002,-100,4,1,1,70,0,0
38094,-100,4,2,1,70,0,0
38372,-100,4,1,1,70,0,0
38465,-100,4,2,1,70,0,0
38742,-100,4,1,1,70,0,0
38835,-100,4,2,1,70,0,0
39110,-125,4,2,1,60,0,0
47999,-100,4,2,1,60,0,0
52073,-100,4,2,1,50,0,0
52443,-100,4,1,1,70,0,1
52536,-100,4,2,1,70,0,1
52814,-100,4,1,1,70,0,1
52906,-100,4,2,1,70,0,1
53184,-100,4,1,1,70,0,1
53277,-100,4,2,1,70,0,1
53554,-100,4,1,1,70,0,1
53647,-100,4,2,1,70,0,1
53925,-100,4,1,1,70,0,1
54017,-100,4,2,1,70,0,1
54295,-100,4,1,1,70,0,1
54388,-100,4,2,1,70,0,1
54666,-100,4,1,1,70,0,1
54758,-100,4,2,1,70,0,1
55036,-100,4,1,1,70,0,1
55128,-100,4,2,1,70,0,1
55406,-100,4,1,1,70,0,1
55499,-100,4,2,1,70,0,1
55777,-100,4,1,1,70,0,1
55869,-100,4,2,1,70,0,1
56147,-100,4,1,1,70,0,1
56240,-100,4,2,1,70,0,1
56517,-100,4,1,1,70,0,1
56610,-100,4,2,1,70,0,1
56888,-100,4,1,1,70,0,1
56981,-100,4,2,1,70,0,1
57259,-100,4,1,1,70,0,1
57351,-100,4,2,1,70,0,1
57629,-100,4,1,1,70,0,1
57722,-100,4,2,1,70,0,1
57999,-100,4,1,1,70,0,1
58092,-100,4,2,1,70,0,1
58370,-100,4,1,1,70,0,1
58462,-100,4,2,1,70,0,1
58740,-100,4,1,1,70,0,1
58833,-100,4,2,1,70,0,1
59111,-100,4,1,1,70,0,1
59203,-100,4,2,1,70,0,1
59481,-100,4,1,1,70,0,1
59573,-100,4,2,1,70,0,1
59851,-100,4,1,1,70,0,1
59944,-100,4,2,1,70,0,1
60222,-100,4,1,1,70,0,1
60314,-100,4,2,1,70,0,1
60592,-100,4,1,1,70,0,1
60685,-100,4,2,1,70,0,1
60962,-100,4,1,1,70,0,1
61055,-100,4,2,1,70,0,1
61333,-100,4,1,1,70,0,1
61426,-100,4,2,1,70,0,1
61704,-100,4,1,1,70,0,1
61796,-100,4,2,1,70,0,1
62074,-100,4,1,1,70,0,1
62167,-100,4,2,1,70,0,1
62444,-100,4,1,1,70,0,1
62537,-100,4,2,1,70,0,1
62815,-100,4,1,1,70,0,1
62907,-100,4,2,1,70,0,1
63185,-100,4,1,1,70,0,1
63278,-100,4,2,1,70,0,1
63556,-100,4,1,1,70,0,1
63648,-100,4,2,1,70,0,1
63926,-100,4,1,1,70,0,1
64018,-100,4,2,1,70,0,1
64203,-100,4,2,1,70,0,0
64295,-100,4,1,1,70,0,1
64389,-100,4,2,1,70,0,1
64667,-100,4,1,1,70,0,1
64759,-100,4,2,1,70,0,1
65037,-100,4,1,1,70,0,1
65130,-100,4,2,1,70,0,1
65407,-100,4,1,1,70,0,1
65500,-100,4,2,1,70,0,1
65778,-100,4,1,1,70,0,1
65871,-100,4,2,1,70,0,1
66149,-100,4,1,1,70,0,1
66241,-100,4,2,1,70,0,1
66519,-100,4,1,1,70,0,1
66612,-100,4,2,1,70,0,1
66889,-100,4,1,1,70,0,1
66982,-100,4,2,1,70,0,1
67260,-100,4,1,1,70,0,1
67352,-100,4,2,1,70,0,1
67630,-100,4,1,1,70,0,1
67723,-100,4,2,1,70,0,1
68001,-100,4,1,1,70,0,1
68093,-100,4,2,1,70,0,1
68371,-100,4,1,1,70,0,1
68463,-100,4,2,1,70,0,1
68741,-100,4,1,1,70,0,1
68834,-100,4,2,1,70,0,1
69112,-100,4,1,1,70,0,1
69204,-100,4,2,1,70,0,1
69482,-100,4,1,1,70,0,1
69575,-100,4,2,1,70,0,1
69852,-100,4,1,1,70,0,1
69945,-100,4,2,1,70,0,1
70223,-100,4,1,1,70,0,1
74666,-125,4,2,1,50,0,0
76147,-125,4,1,1,70,0,1
76240,-125,4,2,1,60,0,0
76703,-125,4,1,1,60,0,0
80406,-125,4,2,1,60,0,0
81147,-125,4,1,1,60,0,0
82073,-100,4,1,1,60,0,0

[Colours]
Combo1 : 128,255,128
Combo2 : 255,128,128
Combo3 : 128,255,255
Combo4 : 255,255,128

[HitObjects]
64,64,592,2,0,P|96:56|136:56,1,72,2|2,0:0|0:0,0:0:0:0:
180,150,962,2,0,P|161:184|152:216,1,72,2|2,0:0|0:0,0:0:0:0:
360,216,1332,2,0,P|350:184|331:150,1,72,2|2,0:0|0:0,0:0:0:0:
377,55,1702,2,0,P|416:56|448:64,1,72,2|2,0:0|0:0,0:0:0:0:
504,144,2073,5,2,0:0:0:0:
504,240,2258,1,2,0:0:0:0:
448,320,2443,2,0,P|416:328|377:328,1,72,2|2,0:0|0:0,0:0:0:0:
224,192,2814,2,0,B|264:224|304:200|304:200|344:208|336:256|336:256|288:280|280:328|304:376,1,288,2|4,0:0|0:0,0:0:0:0:
40,256,4110,5,8,0:0:0:0:
40,256,4480,1,0,0:0:0:0:
112,208,4666,2,0,P|128:160|112:96,2,115.2,0|2|0,0:0|2:0|0:0,0:0:0:0:
120,296,5591,2,0,L|184:288,1,57.6,2|8,2:0|0:0,0:0:0:0:
320,192,6147,1,0,0:0:0:0:
320,192,6517,6,0,P|352:112|328:32,1,172.8,2|8,0:0|0:0,0:0:0:0:
80,152,7443,1,0,0:0:0:0:
144,96,7629,2,0,L|264:104,2,115.2,0|2|2,0:0|2:0|2:0,0:0:0:0:
80,152,8554,1,0,0:0:0:0:
128,224,8740,2,0,P|128:296|88:328,1,115.2,8|2,0:0|2:0,0:0:0:0:
176,296,9295,1,2,2:0:0:0:
176,296,9388,1,2,2:0:0:0:
176,296,9480,6,0,L|296:312,1,115.2,2|0,0:0|0:0,0:0:0:0:
360,272,10036,1,8,2:0:0:0:
424,336,10221,2,0,P|448:280|432:216,1,115.2
360,160,10777,1,0,2:0:0:0:
320,64,10962,6,0,L|328:-8,1,57.6,0|2,0:0|2:0,0:0:0:0:
232,112,11332,2,0,L|224:40,1,57.6,0|2,0:0|2:0,0:0:0:0:
176,176,11703,2,0,L|172:212,3,36,0|0|8|0,0:0|0:0|0:0|0:0,0:0:0:0:
144,248,12073,2,0,L|148:284,3,36,0|0|8|0,0:0|0:0|0:0|0:0,0:0:0:0:
120,320,12443,6,0,B|112:360|112:360|24:376|0:296,2,172.8,4|4|4,0:2|0:2|0:0,0:0:0:0:
288,176,13925,2,0,P|328:168|352:176,1,57.6
416,128,14295,2,0,P|456:136|480:128,1,57.6
504,240,14666,2,0,P|448:232|376:240,1,115.2,0|8,0:0|0:0,0:0:0:0:
96,328,15406,6,0,P|136:256|120:192,1,144,4|0,0:2|0:0,0:0:0:0:
48,168,15962,1,2,0:0:0:0:
112,120,16147,2,0,L|256:112,1,144
328,64,16703,6,0,P|344:32|344:-8,1,72,2|0,0:0|0:0,0:0:0:0:
336,152,17073,2,0,P|355:181|390:201,1,72,2|0,0:0|0:0,0:0:0:0:
456,256,17443,2,0,L|448:336,1,72,2|0,0:0|0:0,0:0:0:0:
360,352,17814,2,0,L|367:280,1,72,2|0,0:0|0:0,0:0:0:0:
288,232,18184,1,2,0:0:0:0:
208,272,18369,6,0,P|136:288|64:256,1,144,2|0,0:0|0:0,0:0:0:0:
40,184,18925,1,2,0:0:0:0:
128,192,19110,2,0,B|128:144|128:144|144:104|144:104|144:48,2,144,0|0|2,0:0|0:0|0:0,0:0:0:0:
216,160,20036,6,0,P|264:160|296:176,1,72,2|0,0:0|0:0,0:0:0:0:
352,232,20406,2,0,P|376:273|378:309,1,72,2|0,0:0|0:0,0:0:0:0:
320,360,20777,2,0,L|248:352,1,72,2|0,0:0|0:0,0:0:0:0:
176,288,21147,1,0,0:0:0:0:
232,216,21332,6,0,P|240:144|216:72,1,144,2|0,0:0|0:0,0:0:0:0:
152,24,21888,1,2,0:0:0:0:
144,104,22073,2,0,L|0:104,1,144
40,192,22629,6,0,L|32:272,1,72,2|0,0:0|0:0,0:0:0:0:
112,312,22999,2,0,L|119:240,1,72,2|0,0:0|0:0,0:0:0:0:
192,200,23369,2,0,P|224:192|272:200,1,72,2|0,0:0|0:0,0:0:0:0:
280,304,23740,2,0,P|248:312|200:304,1,72,2|0,0:0|0:0,0:0:0:0:
344,240,24110,1,0,0:0:0:0:
448,320,24295,6,0,P|392:368|304:368,1,144,2|0,0:0|0:0,0:0:0:0:
280,304,24851,1,2,0:0:0:0:
208,352,25036,2,0,P|152:304|64:304,1,144
0,328,25591,1,0,0:0:0:0:
16,240,25777,6,0,L|0:88,1,144,2|0,0:0|0:0,0:0:0:0:
240,48,26517,2,0,L|256:200,1,144
320,256,27073,1,2,0:0:0:0:
392,216,27258,6,0,P|456:208|520:256,1,144
392,304,27814,2,0,L|312:288,1,72,2|0,0:0|0:0,0:0:0:0:
264,360,28184,2,0,L|334:374,1,72,0|2,0:0|0:0,0:0:0:0:
392,304,28554,1,0,0:0:0:0:
392,216,28740,6,0,L|368:64,1,144,2|0,0:0|0:0,0:0:0:0:
168,48,29480,2,0,L|190:190,1,144,2|0,0:0|0:0,0:0:0:0:
128,248,30036,1,2,0:0:0:0:
280,240,30221,6,0,L|257:97,1,144
304,24,30777,2,0,P|336:8|384:8,1,72,2|0,0:0|0:0,0:0:0:0:
472,56,31147,1,0,0:0:0:0:
440,160,31332,2,0,P|376:192|280:192,1,144,0|2,0:0|0:0,0:0:0:0:
232,136,31888,5,0,0:0:0:0:
168,200,32073,2,0,L|192:360,2,144
232,136,32999,1,2,0:0:0:0:
208,48,33184,5,2,0:0:0:0:
208,48,33554,1,0,0:0:0:0:
328,144,33740,2,0,P|360:144|400:128,1,72,2|0,0:0|0:0,0:0:0:0:
440,56,34110,1,0,0:0:0:0:
448,208,34295,2,0,P|373:236|309:236,1,144,0|2,0:0|0:0,0:0:0:0:
240,176,34851,5,0,0:0:0:0:
176,240,35036,2,0,B|168:296|168:296|184:344|236:336,1,144,0|2,0:0|0:0,0:0:0:0:
304,240,35591,1,0,0:0:0:0:
160,160,35777,2,0,P|120:160|88:176,1,72,2|0,0:0|0:0,0:0:0:0:
48,248,36147,6,0,L|56:104,1,144,2|0,0:0|0:0,0:0:0:0:
120,48,36703,1,2,0:0:0:0:
192,96,36888,2,0,P|256:120|328:96,1,144
392,48,37443,1,2,0:0:0:0:
456,104,37629,6,0,L|464:248,1,144
256,360,38369,2,0,L|256:280,2,72
64,56,39110,6,0,P|136:48|208:112,1,172.8,4|8,1:2|0:0,0:0:0:0:
200,304,40036,1,0,1:0:0:0:
128,248,40221,2,0,L|112:128,1,115.2,0|2,1:0|0:0,0:0:0:0:
320,96,40962,2,0,L|335:210,2,115.2,0|8|0,1:0|0:0|1:0,0:0:0:0:
152,24,42073,6,0,P|64:32|16:112,1,172.8,0|8,1:0|0:0,0:0:0:0:
40,256,42999,1,0,1:0:0:0:
112,216,43184,2,0,P|128:152|112:104,1,115.2,0|2,1:0|0:0,0:0:0:0:
112,296,43925,2,0,L|232:288,2,115.2,0|8|2,0:0|0:0|0:0,0:0:0:0:
304,232,45036,6,0,P|336:184|328:112,1,115.2,4|2,1:2|0:0,0:0:0:0:
208,48,45591,2,0,P|206:103|238:151,2,115.2,8|0|4,0:0|1:0|1:2,0:0:0:0:
208,240,46703,2,0,L|88:224,2,115.2,0|0|0,1:0|1:0|1:0,0:0:0:0:
288,360,47629,1,8,0:0:0:0:
288,360,47999,6,0,L|296:288,1,72,12|0,1:2|1:0,0:0:0:0:
312,200,48369,1,0,1:0:0:0:
408,328,48554,2,0,L|384:259,1,72,12|0,1:2|1:0,0:0:0:0:
362,172,48924,1,0,1:0:0:0:
496,248,49110,2,0,L|445:195,1,72,8|4,1:0|1:2,0:0:0:0:
388,126,49480,6,0,P|400:40|456:16,1,144,2|8,0:0|0:0,0:0:0:0:
312,40,50036,1,0,0:0:0:0:
176,8,50221,2,0,L|32:24,1,144,2|0,0:0|0:0,0:0:0:0:
80,360,50962,5,4,1:2:0:0:
104,280,51147,1,4,1:2:0:0:
128,200,51332,1,4,1:2:0:0:
152,120,51517,1,4,1:2:0:0:
176,40,52073,5,4,0:3:0:0:
176,40,52443,6,0,P|240:24|320:40,1,144,4|8,0:2|0:0,0:0:0:0:
408,32,52999,1,2,0:0:0:0:
376,120,53184,2,0,B|368:168|368:168|384:208|384:208|376:264,1,144,0|8,0:0|0:0,0:0:0:0:
312,312,53740,1,2,0:0:0:0:
232,288,53925,6,0,L|152:296,1,72,0|2,0:0|0:0,0:0:0:0:
96,184,54295,2,0,L|167:176,1,72,8|2,0:0|0:0,0:0:0:0:
240,104,54666,2,0,B|256:64|240:16|240:16|264:40|264:64,1,144,0|8,0:0|0:0,0:0:0:0:
256,184,55221,1,2,0:0:0:0:
160,240,55406,6,0,P|128:240|88:232,1,72,0|2,0:0|0:0,0:0:0:0:
24,176,55777,1,8,0:0:0:0:
32,328,55962,2,0,P|64:328|104:320,1,72,2|0,0:0|0:0,0:0:0:0:
160,240,56332,1,2,0:0:0:0:
256,184,56517,2,0,P|320:176|392:208,1,144,8|0,0:0|0:0,0:0:0:0:
424,288,57073,5,2,0:0:0:0:
480,224,57258,2,0,L|472:152,1,72,8|2,0:0|0:0,0:0:0:0:
392,24,57629,2,0,L|384:96,1,72,0|2,0:0|0:0,0:0:0:0:
296,32,57999,2,0,L|288:104,1,72,8|2,0:0|0:0,0:0:0:0:
200,40,58369,6,0,L|184:184,1,144,2|8,0:0|0:0,0:0:0:0:
328,352,59110,2,0,L|312:208,1,144,0|8,0:0|0:0,0:0:0:0:
80,240,59851,2,0,L|224:256,1,144,2|8,0:0|0:0,0:0:0:0:
400,112,60592,2,0,L|256:128,1,144,0|8,0:0|0:0,0:0:0:0:
176,120,61147,1,2,0:0:0:0:
112,72,61332,6,0,P|104:32|112:0,1,72,0|2,0:0|0:0,0:0:0:0:
104,152,61703,2,0,P|128:224|112:288,1,144,8|0,0:0|0:0,0:0:0:0:
40,336,62258,1,2,0:0:0:0:
112,368,62443,2,0,B|160:368|160:368|208:352|208:352|256:352,1,144,8|0,0:0|0:0,0:0:0:0:
328,320,62999,5,2,0:0:0:0:
368,248,63184,2,0,L|352:176,1,72,8|0,0:0|0:0,0:0:0:0:
256,120,63554,2,0,L|248:84,3,36,0|0|8|0,0:0|0:0|0:0|0:0,0:0:0:0:
216,56,63925,2,0,L|208:20,3,36,0|0|8|0,0:0|0:0|0:0|0:0,0:0:0:0:
168,0,64295,6,0,P|88:16|56:64,1,144,4|8,0:2|0:0,0:0:0:0:
128,120,64851,1,2,0:0:0:0:
48,160,65036,2,0,L|48:304,1,144,0|8,0:0|0:0,0:0:0:0:
120,352,65591,1,2,0:0:0:0:
200,328,65777,6,0,P|224:328|272:360,1,72,0|2,0:0|0:0,0:0:0:0:
336,240,66147,2,0,P|348:260|344:318,1,72,8|2,0:0|0:0,0:0:0:0:
488,248,66517,2,0,P|456:168|472:104,1,144,0|8,0:0|0:0,0:0:0:0:
440,32,67073,1,2,0:0:0:0:
360,72,67258,6,0,L|208:56,1,144,4|8,0:2|0:0,0:0:0:0:
136,16,67814,1,2,0:0:0:0:
136,112,67999,2,0,L|120:264,1,144,4|8,0:2|0:0,0:0:0:0:
80,336,68555,1,2,0:0:0:0:
176,328,68740,6,0,L|328:344,1,144,4|8,0:2|0:0,0:0:0:0:
400,384,69296,1,2,0:0:0:0:
400,288,69481,2,0,L|416:136,1,144,4|8,0:2|0:0,0:0:0:0:
456,64,70037,1,2,0:0:0:0:
328,128,70221,6,0,P|288:128|256:112,2,72,12|0|0,0:2|1:0|0:0,0:0:0:0:
208,224,70777,2,0,P|188:189|185:153,2,72,8|0|0,0:0|0:0|0:0,0:0:0:0:
56,200,71332,2,0,P|75:165|105:145,1,72,8|0,0:0|0:0,0:0:0:0:
272,120,71703,6,0,L|344:128,2,72,8|0|0,0:0|0:0|0:0,0:0:0:0:
200,224,72258,2,0,L|229:290,2,72,8|0|0,0:0|0:0|0:0,0:0:0:0:
72,208,72814,2,0,L|29:266,1,72,8|0,0:0|0:0,0:0:0:0:
128,136,73184,6,0,P|144:72|112:0,2,144,4|0|0,0:2|0:0|0:0,0:0:0:0:
160,224,74110,2,0,L|240:216,2,72
72,208,74666,6,0,P|56:264|80:320,1,115.2,2|0,0:0|0:0,0:0:0:0:
160,304,75221,1,2,0:0:0:0:
224,360,75406,2,0,P|280:344|344:352,1,115.2,0|2,0:0|0:0,0:0:0:0:
416,80,76147,6,0,P|328:64|272:120,1,172.8,4|8,0:0|0:0,0:0:0:0:
320,320,77073,1,0,0:0:0:0:
376,264,77258,2,0,L|360:144,2,115.2,0|0|0,0:0|2:0|0:0,0:0:0:0:
216,344,78369,2,0,P|152:336|120:296,1,115.2,8|0,0:0|0:0,0:0:0:0:
152,224,78925,1,2,2:0:0:0:
120,152,79110,6,0,L|128:32,1,115.2,0|2,0:0|2:0,0:0:0:0:
216,24,79666,2,0,L|208:138,1,115.2,8|0,0:0|0:0,0:0:0:0:
264,200,80221,2,0,P|376:224|456:80,1,288
384,40,81332,2,0,L|256:48,2,115.2,8|2|0,0:0|2:0|0:0,0:0:0:0:
384,40,82443,5,0,0:0:0:0:
464,96,82629,1,8,0:0:0:0:
472,192,82814,1,0,0:0:0:0:
472,192,83184,1,0,0:0:0:0:
384,344,83554,1,0,0:0:0:0:
384,344,83925,1,0,0:0:0:0:
296,192,84295,6,0,L|144:192,2,144,0|0|4,0:0|0:0|0:2,0:0:0:0:
432,104,85591,1,4,0:2:0:0:
288,40,86147,1,4,0:0:0:0:
