osu file format v12

[General]
AudioFilename: Shape My Story.mp3
AudioLeadIn: 1500
PreviewTime: 51703
Countdown: 0
SampleSet: Normal
StackLeniency: 0.3
Mode: 1
LetterboxInBreaks: 1
WidescreenStoryboard: 1

[Editor]
DistanceSpacing: 1.1
BeatDivisor: 4
GridSize: 32

[Metadata]
Title:Shape My Story (TV Size)
TitleUnicode:Shape My Story (TV Size)
Artist:Yano Anna
ArtistUnicode:やのあんな
Creator:KinomiCandy
Version:Muzukashii
Source:Stella Jogakuin Koutouka C3-bu
Tags:ステラ女学院高等科C³部 kz livetune
BeatmapID:284566
BeatmapSetID:108945

[Difficulty]
HPDrainRate:4
CircleSize:4
OverallDifficulty:3
ApproachRate:5
SliderMultiplier:1.4
SliderTickRate:1

[Events]
//Background and Video events
0,0,"BG.jpg",0,0
//Break Periods
//Storyboard Layer 0 (Background)
//Storyboard Layer 1 (Fail)
//Storyboard Layer 2 (Pass)
//Storyboard Layer 3 (Foreground)
//Storyboard Sound Samples
//Background Colour Transformations
3,100,163,162,255

[TimingPoints]
592,370.37037037037,4,1,0,70,1,0
50962,-90.9090909090909,4,1,0,70,0,0
51147,-83.3333333333333,4,1,0,70,0,0
51332,-71.4285714285714,4,1,0,70,0,0
52443,-100,4,1,0,70,0,1
74666,-100,4,1,0,70,0,0
76147,-100,4,1,0,70,0,1
76240,-100,4,1,0,70,0,0

[Colours]
Combo1 : 128,255,128
Combo2 : 255,128,128
Combo3 : 128,255,255
Combo4 : 255,255,128

[HitObjects]
256,192,592,1,8,0:0:0:0:
256,192,777,1,8,0:0:0:0:
256,192,962,1,8,0:0:0:0:
256,192,1147,1,8,0:0:0:0:
256,192,1332,1,8,0:0:0:0:
256,192,1517,1,8,0:0:0:0:
256,192,1703,1,8,0:0:0:0:
256,192,1888,1,8,0:0:0:0:
256,192,2073,1,8,0:0:0:0:
256,192,2258,1,8,0:0:0:0:
256,192,2443,1,8,0:0:0:0:
256,192,2629,1,8,0:0:0:0:
256,192,2814,1,8,0:0:0:0:
256,192,3554,1,0,0:0:0:0:
256,192,4110,1,8,0:0:0:0:
256,192,4480,1,0,0:0:0:0:
256,192,4666,1,0,0:0:0:0:
256,192,5406,1,0,0:0:0:0:
256,192,5777,1,8,0:0:0:0:
256,192,6147,1,0,0:0:0:0:
256,192,6517,1,0,0:0:0:0:
256,192,7073,1,8,0:0:0:0:
256,192,7443,1,0,0:0:0:0:
256,192,7629,1,0,0:0:0:0:
256,192,8369,1,0,0:0:0:0:
256,192,8740,1,8,0:0:0:0:
256,192,9480,1,0,0:0:0:0:
256,192,9851,1,0,0:0:0:0:
256,192,10036,1,8,0:0:0:0:
256,192,10221,1,0,0:0:0:0:
256,192,10591,1,8,0:0:0:0:
256,192,10962,1,0,0:0:0:0:
256,192,11147,1,0,0:0:0:0:
256,192,11332,1,8,0:0:0:0:
256,192,11703,1,0,0:0:0:0:
256,192,11888,1,8,0:0:0:0:
256,192,11981,1,8,0:0:0:0:
256,192,12073,1,8,0:0:0:0:
256,192,12443,1,4,0:0:0:0:
256,192,12999,1,4,0:0:0:0:
256,192,13554,1,4,0:0:0:0:
256,192,13925,1,0,0:0:0:0:
256,192,14110,1,0,0:0:0:0:
256,192,14295,1,0,0:0:0:0:
256,192,14480,1,0,0:0:0:0:
256,192,14666,1,0,0:0:0:0:
256,192,15036,1,8,0:0:0:0:
256,192,15406,1,4,0:0:0:0:
256,192,15777,1,0,0:0:0:0:
256,192,16147,1,0,0:0:0:0:
256,192,16517,1,0,0:0:0:0:
256,192,16703,1,8,0:0:0:0:
256,192,16888,1,0,0:0:0:0:
256,192,17258,1,0,0:0:0:0:
256,192,17629,1,0,0:0:0:0:
256,192,17999,1,0,0:0:0:0:
256,192,18184,1,8,0:0:0:0:
256,192,18369,1,0,0:0:0:0:
256,192,18740,1,0,0:0:0:0:
256,192,19110,1,0,0:0:0:0:
256,192,19480,1,0,0:0:0:0:
256,192,19666,1,8,0:0:0:0:
256,192,19851,1,0,0:0:0:0:
256,192,20221,1,0,0:0:0:0:
256,192,20591,1,0,0:0:0:0:
256,192,20777,1,0,0:0:0:0:
256,192,20962,1,8,0:0:0:0:
256,192,21147,1,8,0:0:0:0:
256,192,21332,1,0,0:0:0:0:
256,192,21703,1,0,0:0:0:0:
256,192,22073,1,0,0:0:0:0:
256,192,22443,1,0,0:0:0:0:
256,192,22629,1,8,0:0:0:0:
256,192,22814,1,0,0:0:0:0:
256,192,23184,1,0,0:0:0:0:
256,192,23554,1,0,0:0:0:0:
256,192,23925,1,0,0:0:0:0:
256,192,24110,1,8,0:0:0:0:
256,192,24295,1,0,0:0:0:0:
256,192,24666,1,0,0:0:0:0:
256,192,25036,1,0,0:0:0:0:
256,192,25406,1,0,0:0:0:0:
256,192,25777,1,0,0:0:0:0:
256,192,25962,1,8,0:0:0:0:
256,192,26147,1,0,0:0:0:0:
256,192,26517,1,0,0:0:0:0:
256,192,26888,1,0,0:0:0:0:
256,192,27073,1,0,0:0:0:0:
256,192,27258,1,8,0:0:0:0:
256,192,27629,1,0,0:0:0:0:
256,192,27814,1,0,0:0:0:0:
256,192,28184,1,0,0:0:0:0:
256,192,28369,1,8,0:0:0:0:
256,192,28740,1,0,0:0:0:0:
256,192,29110,1,8,0:0:0:0:
256,192,29295,1,8,0:0:0:0:
256,192,29666,1,0,0:0:0:0:
256,192,29851,1,8,0:0:0:0:
256,192,30221,1,0,0:0:0:0:
256,192,30591,1,8,0:0:0:0:
256,192,30777,1,0,0:0:0:0:
256,192,31332,1,8,0:0:0:0:
256,192,31703,1,0,0:0:0:0:
256,192,32073,1,0,0:0:0:0:
256,192,32443,1,8,0:0:0:0:
256,192,32629,1,8,0:0:0:0:
256,192,32721,1,8,0:0:0:0:
256,192,32814,1,8,0:0:0:0:
256,192,33184,1,0,0:0:0:0:
256,192,33554,1,8,0:0:0:0:
256,192,33740,1,0,0:0:0:0:
256,192,34295,1,8,0:0:0:0:
256,192,34666,1,0,0:0:0:0:
256,192,35036,1,8,0:0:0:0:
256,192,35406,1,8,0:0:0:0:
256,192,35591,1,8,0:0:0:0:
256,192,35777,1,0,0:0:0:0:
256,192,36147,1,0,0:0:0:0:
256,192,36517,1,8,0:0:0:0:
256,192,36703,1,0,0:0:0:0:
256,192,37073,1,0,0:0:0:0:
256,192,37443,1,0,0:0:0:0:
256,192,37629,1,8,0:0:0:0:
256,192,37999,1,8,0:0:0:0:
256,192,38369,1,8,0:0:0:0:
256,192,38554,1,8,0:0:0:0:
256,192,38647,1,8,0:0:0:0:
256,192,38740,1,8,0:0:0:0:
256,192,39110,1,4,0:0:0:0:
256,192,39666,1,8,0:0:0:0:
256,192,40036,1,0,0:0:0:0:
256,192,40221,1,0,0:0:0:0:
256,192,40962,1,0,0:0:0:0:
256,192,41332,1,8,0:0:0:0:
256,192,41703,1,0,0:0:0:0:
256,192,42073,1,0,0:0:0:0:
256,192,42629,1,8,0:0:0:0:
256,192,42999,1,0,0:0:0:0:
256,192,43184,1,0,0:0:0:0:
256,192,43925,1,0,0:0:0:0:
256,192,44295,1,8,0:0:0:0:
256,192,45036,1,4,0:0:0:0:
256,192,45591,1,8,0:0:0:0:
256,192,45962,1,0,0:0:0:0:
256,192,46332,1,4,0:0:0:0:
256,192,46703,1,0,0:0:0:0:
256,192,47073,1,0,0:0:0:0:
256,192,47443,1,0,0:0:0:0:
256,192,47629,1,8,0:0:0:0:
256,192,47999,1,4,0:0:0:0:
256,192,48554,1,4,0:0:0:0:
256,192,49295,1,4,0:0:0:0:
256,192,49666,1,8,0:0:0:0:
256,192,49851,1,8,0:0:0:0:
256,192,50221,1,0,0:0:0:0:
256,192,50406,1,8,0:0:0:0:
256,192,50499,1,8,0:0:0:0:
256,192,50591,1,8,0:0:0:0:
256,192,50962,1,4,0:0:0:0:
256,192,51147,1,4,0:0:0:0:
256,192,51332,1,4,0:0:0:0:
256,192,51517,1,4,0:0:0:0:
256,192,52073,1,8,0:0:0:0:
256,192,52443,1,4,0:0:0:0:
256,192,52814,1,0,0:0:0:0:
256,192,52999,1,8,0:0:0:0:
256,192,53184,1,0,0:0:0:0:
256,192,53554,1,0,0:0:0:0:
256,192,53740,1,8,0:0:0:0:
256,192,53925,1,0,0:0:0:0:
256,192,54110,1,0,0:0:0:0:
256,192,54203,1,0,0:0:0:0:
256,192,54295,1,0,0:0:0:0:
256,192,54480,1,8,0:0:0:0:
256,192,54666,1,0,0:0:0:0:
256,192,55036,1,8,0:0:0:0:
256,192,55406,1,0,0:0:0:0:
256,192,55777,1,8,0:0:0:0:
256,192,55962,1,8,0:0:0:0:
256,192,56147,1,0,0:0:0:0:
256,192,56517,1,8,0:0:0:0:
256,192,56888,1,0,0:0:0:0:
256,192,57073,1,8,0:0:0:0:
256,192,57166,1,8,0:0:0:0:
256,192,57258,1,8,0:0:0:0:
256,192,57443,1,8,0:0:0:0:
256,192,57629,1,0,0:0:0:0:
256,192,57999,1,8,0:0:0:0:
256,192,58369,1,0,0:0:0:0:
256,192,58740,1,8,0:0:0:0:
256,192,58925,1,8,0:0:0:0:
256,192,59110,1,0,0:0:0:0:
256,192,59480,1,8,0:0:0:0:
256,192,59851,1,0,0:0:0:0:
256,192,60221,1,0,0:0:0:0:
256,192,60406,1,8,0:0:0:0:
256,192,60591,1,0,0:0:0:0:
256,192,60962,1,0,0:0:0:0:
256,192,61147,1,8,0:0:0:0:
256,192,61332,1,0,0:0:0:0:
256,192,61703,1,0,0:0:0:0:
256,192,61888,1,0,0:0:0:0:
256,192,62073,1,8,0:0:0:0:
256,192,62258,1,8,0:0:0:0:
256,192,62443,1,0,0:0:0:0:
256,192,62814,1,8,0:0:0:0:
256,192,63184,1,0,0:0:0:0:
256,192,63369,1,0,0:0:0:0:
256,192,63554,1,8,0:0:0:0:
256,192,63740,1,8,0:0:0:0:
256,192,63832,1,8,0:0:0:0:
256,192,63925,1,8,0:0:0:0:
256,192,64295,1,4,0:0:0:0:
256,192,64666,1,8,0:0:0:0:
256,192,64851,1,0,0:0:0:0:
256,192,65036,1,0,0:0:0:0:
256,192,65406,1,8,0:0:0:0:
256,192,65591,1,8,0:0:0:0:
256,192,65777,1,0,0:0:0:0:
256,192,66147,1,8,0:0:0:0:
256,192,66517,1,0,0:0:0:0:
256,192,66703,1,8,0:0:0:0:
256,192,66795,1,8,0:0:0:0:
256,192,66888,1,8,0:0:0:0:
256,192,67258,1,4,0:0:0:0:
256,192,67629,1,0,0:0:0:0:
256,192,67999,1,4,0:0:0:0:
256,192,68369,1,0,0:0:0:0:
256,192,68740,1,4,0:0:0:0:
256,192,69110,1,0,0:0:0:0:
256,192,69480,1,4,0:0:0:0:
256,192,69851,1,0,0:0:0:0:
256,192,70221,1,8,0:0:0:0:
256,192,70406,1,0,0:0:0:0:
256,192,70591,1,0,0:0:0:0:
256,192,70777,1,8,0:0:0:0:
256,192,71147,1,0,0:0:0:0:
256,192,71332,1,8,0:0:0:0:
256,192,71703,1,8,0:0:0:0:
256,192,71888,1,0,0:0:0:0:
256,192,72258,1,8,0:0:0:0:
256,192,72629,1,0,0:0:0:0:
256,192,72814,1,8,0:0:0:0:
256,192,73184,1,0,0:0:0:0:
256,192,73554,1,0,0:0:0:0:
256,192,73925,1,0,0:0:0:0:
256,192,74110,1,0,0:0:0:0:
256,192,74295,1,0,0:0:0:0:
256,192,74480,1,0,0:0:0:0:
256,192,74666,1,8,0:0:0:0:
256,192,74851,1,8,0:0:0:0:
256,192,75221,1,8,0:0:0:0:
256,192,75591,1,8,0:0:0:0:
256,192,75777,1,8,0:0:0:0:
256,192,76147,1,0,0:0:0:0:
256,192,76703,1,8,0:0:0:0:
256,192,77073,1,0,0:0:0:0:
256,192,77259,1,0,0:0:0:0:
256,192,77999,1,0,0:0:0:0:
256,192,78370,1,8,0:0:0:0:
256,192,78740,1,0,0:0:0:0:
256,192,79110,1,0,0:0:0:0:
256,192,79666,1,8,0:0:0:0:
256,192,80036,1,0,0:0:0:0:
256,192,80222,1,0,0:0:0:0:
256,192,80962,1,0,0:0:0:0:
256,192,81333,1,8,0:0:0:0:
256,192,82073,1,0,0:0:0:0:
256,192,82444,1,0,0:0:0:0:
256,192,82629,1,8,0:0:0:0:
256,192,82814,1,0,0:0:0:0:
256,192,83184,1,8,0:0:0:0:
256,192,83555,1,0,0:0:0:0:
256,192,83740,1,0,0:0:0:0:
256,192,83925,1,8,0:0:0:0:
256,192,84296,1,0,0:0:0:0:
256,192,84481,1,8,0:0:0:0:
256,192,84574,1,8,0:0:0:0:
256,192,84666,1,8,0:0:0:0:
256,192,85036,1,4,0:0:0:0:
256,192,85592,1,4,0:0:0:0:
256,192,86147,1,12,0:0:0:0:
