osu file format v10

[General]
AudioFilename: DBTTGBA.mp3
AudioLeadIn: 2000
PreviewTime: 39838
Countdown: 0
SampleSet: Normal
StackLeniency: 0.7
Mode: 0
LetterboxInBreaks: 0

[Editor]
DistanceSpacing: 0.8
BeatDivisor: 2
GridSize: 4

[Metadata]
Title:Transformation Theme
TitleUnicode:
Artist:Yannis Brown
ArtistUnicode:
Creator:Arnold0
Version:Normal
Source:Dragon Ball GT
Tags:GBA Game Boy Advance Nintendo DB Goku Pan Trunk
BeatmapID:154391
BeatmapSetID:49001

[Difficulty]
HPDrainRate:3
CircleSize:3
OverallDifficulty:3
ApproachRate:4
SliderMultiplier:1.4
SliderTickRate:2

[Events]
//Background and Video events
0,0,"BG.jpg"
//Break Periods
//Storyboard Layer 0 (Background)
//Storyboard Layer 1 (Fail)
//Storyboard Layer 2 (Pass)
//Storyboard Layer 3 (Foreground)
//Storyboard Sound Samples
//Background Colour Transformations
3,100,192,192,192

[TimingPoints]
66,568.181818181818,4,1,1,85,1,0
6315,-100,4,1,0,85,0,0
6884,-100,4,1,1,85,0,0
19952,-100,4,1,0,85,0,0
20520,-100,4,1,1,85,0,0
40975,-100,4,1,1,85,0,1
56884,-100,4,1,1,85,0,0
65406,-100,4,1,0,85,0,0
65975,-100,4,1,1,85,0,0
100065,-100,4,1,1,85,0,1
115975,-100,4,1,1,85,0,0

[Colours]
Combo1 : 116,139,123
Combo2 : 128,255,0
Combo3 : 0,185,185
Combo4 : 128,0,92
Combo5 : 248,146,7

[HitObjects]
88,136,66,2,4,B|96:48|176:48,1,140,4|8,0:0|0:0,0:0:0
232,48,918,1,0,0:0:0
344,48,1486,2,0,B|416:56|424:96,1,70,0|2,0:0|0:0,0:0:0
408,184,2338,6,0,B|344:152|304:240|256:168,1,140,4|8,0:0|0:0,0:0:0
216,192,3190,1,0,0:0:0
104,192,3759,2,0,B|48:192|48:112,1,70,0|2,0:0|0:0,0:0:0
56,40,4611,6,0,B|144:108|288:88,1,210,4|0,0:0|0:0,0:0:0
368,88,6031,2,0,B|368:168,1,70,0|8,0:0|0:0,0:0:0
372,272,6884,6,0,B|336:380|188:368,1,210,0|8,0:0|0:0,0:0:0
104,320,8304,2,0,B|152:264,1,70,0|8,0:0|0:0,0:0:0
44,228,9156,6,0,B|92:172,1,70,0|8,0:0|0:0,0:0:0
148,268,10009,1,0,0:0:0
252,228,10577,2,0,B|204:172,1,70,0|8,0:0|0:0,0:0:0
240,68,11429,6,0,B|328:68,1,70,0|8,0:0|0:0,0:0:0
392,144,12281,1,0,0:0:0
308,220,12850,2,0,B|232:276,1,70,0|8,0:0|0:0,0:0:0
196,264,13418,1,0,0:0:0
140,264,13702,6,0,B|156:192|208:140,1,140,4|8,0:0|0:0,0:0:0
256,120,14554,1,0,0:0:0
368,120,15122,2,0,B|416:120|416:168,1,70,0|2,0:0|0:0,0:0:0
384,268,15975,6,0,B|296:268|264:212,1,140,4|8,0:0|0:0,0:0:0
240,160,16827,1,0,0:0:0
240,48,17395,2,0,B|184:48|168:96,1,70,0|2,0:0|0:0,0:0:0
144,180,18247,6,0,B|208:276|324:276,1,210,4|0,0:0|0:0,0:0:0
324,164,19668,2,0,B|268:108,1,70,0|8,0:0|0:0,0:0:0
208,24,20520,6,0,B|152:80,1,70,0|8,0:0|0:0,0:0:0
80,152,21372,1,0,0:0:0
160,232,21940,2,0,B|216:288,1,70,0|8,0:0|0:0,0:0:0
320,256,22793,6,0,B|392:256,1,70,0|8,0:0|0:0,0:0:0
392,144,23645,1,0,0:0:0
392,32,24213,1,0,0:0:0
280,32,24781,6,0,B|232:-8|184:80|152:32,1,140,0|8,0:0|0:0,0:0:0
80,120,25918,1,0,0:0:0
80,232,26486,2,0,B|80:280|128:280,1,70,0|0,0:0|0:0,0:0:0
176,288,27054,1,2,2:0:0
232,280,27338,6,0,B|280:280|280:232,1,70,4|8,0:0|0:0,0:0:0
336,144,28190,1,0,0:0:0
248,72,28759,1,0,0:0:0
136,72,29327,6,0,B|48:72|48:160,1,140,0|8,0:0|0:0,0:0:0
48,268,30463,1,0,0:0:0
132,340,31031,2,0,B|220:340,1,70,0|0,0:0|0:0,0:0:0
316,340,31884,6,4,B|400:328|400:232,1,140,4|8,0:0|0:0,0:0:0
400,184,32736,1,0,0:0:0
396,72,33304,2,0,B|332:32,1,70,0|2,0:0|0:0,0:0:0
224,36,34156,6,0,B|136:20|124:112,1,140,4|8,0:0|0:0,0:0:0
124,164,35009,1,0,0:0:0
128,276,35577,2,0,B|144:312|184:308,1,70,0|2,0:0|0:0,0:0:0
296,308,36429,6,0,B|368:308,1,70,4|8,0:0|0:0,0:0:0
432,220,37281,1,0,0:0:0
352,140,37850,2,0,B|352:92|304:92,1,70,0|8,0:0|0:0,0:0:0
216,148,38702,6,0,B|216:220,1,70,0|8,0:0|0:0,0:0:0
104,216,39554,1,0,0:0:0
148,320,40122,2,0,B|232:320,1,70,0|8,0:0|0:0,0:0:0
332,320,40975,6,0,B|468:320|468:192,2,210
300,212,43247,2,4,B|220:212|236:356|164:356,1,210,4|0,0:0|0:0,0:0:0
76,212,44952,1,8,0:0:0
256,192,45520,12,0,47793,0:0:0
128,192,48929,6,0,B|128:64|264:64,1,210,0|0,0:0|0:0,0:0:0
316,64,50065,2,0,B|444:64|444:200,1,210,0|0,0:0|0:0,0:0:0
436,308,51486,1,0,0:0:0
436,308,51770,1,8,0:0:0
376,212,52338,6,0,B|256:228|176:272,1,210,4|0,0:0|0:0,0:0:0
88,128,54043,2,0,B|128:160|192:104|224:128,1,140,8|4,0:0|0:0,0:0:0
256,192,55179,12,4,56884,0:0:0
56,64,58588,5,0,0:0:0
168,64,59156,2,4,B|248:64|248:160,1,140,4|8,0:0|0:0,0:0:0
296,184,60009,1,0,0:0:0
408,184,60577,2,0,B|408:240|368:264,1,70,0|2,0:0|0:0,0:0:0
276,264,61429,6,0,B|180:272|172:176,1,140,4|8,0:0|0:0,0:0:0
172,136,62281,1,0,0:0:0
284,132,62850,2,0,B|288:88|332:76,1,70,0|2,0:0|0:0,0:0:0
428,76,63702,6,0,B|428:148,1,70,4|8,0:0|0:0,0:0:0
424,256,64554,1,0,0:0:0
312,256,65122,2,0,B|268:320,1,70,0|8,0:0|0:0,0:0:0
160,304,65975,6,0,B|224:240,1,70,0|8,0:0|0:0,0:0:0
288,176,66827,1,0,0:0:0
368,96,67395,2,0,B|432:160,1,70,0|8,0:0|0:0,0:0:0
336,224,68247,6,0,B|280:168,1,70,0|8,0:0|0:0,0:0:0
220,84,69100,1,0,0:0:0
112,112,69668,2,0,B|56:112|56:192,1,70,0|8,0:0|0:0,0:0:0
64,264,70520,6,0,B|64:304|112:304,1,70,0|8,0:0|0:0,0:0:0
224,304,71372,1,0,0:0:0
336,304,71940,2,0,B|384:240,1,70,0|8,0:0|0:0,0:0:0
376,192,72509,1,0,0:0:0
376,136,72793,6,0,B|288:136|288:48,1,140,4|8,0:0|0:0,0:0:0
232,48,73645,1,0,0:0:0
120,48,74213,2,0,B|112:80|140:96|112:136,1,70,0|2,0:0|0:0,0:0:0
32,144,75065,6,0,B|32:232|144:232,1,140,4|8,0:0|0:0,0:0:0
176,232,75918,1,0,0:0:0
288,232,76486,2,0,B|352:164,1,70,0|2,0:0|0:0,0:0:0
416,104,77338,6,0,B|416:56|368:56,1,70,4|8,0:0|0:0,0:0:0
264,56,78190,1,0,0:0:0
152,56,78759,2,0,B|104:56|104:104,1,70,0|8,0:0|0:0,0:0:0
120,208,79611,6,0,B|160:264,1,70,0|8,0:0|0:0,0:0:0
272,264,80463,1,0,0:0:0
384,264,81031,2,0,B|424:208,1,70,0|8,0:0|0:0,0:0:0
424,96,81884,6,0,B|424:48|384:48,1,70,0|8,0:0|0:0,0:0:0
280,80,82736,1,0,0:0:0
176,120,83304,1,0,0:0:0
176,232,83872,6,0,B|176:312|272:312,1,140,0|8,0:0|0:0,0:0:0
384,308,85009,1,0,0:0:0
380,196,85577,2,0,B|316:148,1,70,0|0,0:0|0:0,0:0:0
240,80,86429,6,0,B|192:68|176:116,1,70,4|8,0:0|0:0,0:0:0
180,216,87281,1,0,0:0:0
264,292,87850,1,0,0:0:0
376,292,88418,6,0,B|472:292|472:204,1,140,0|8,0:0|0:0,0:0:0
368,168,89554,1,0,0:0:0
288,88,90122,2,0,B|288:48|224:48,1,70,0|0,0:0|0:0,0:0:0
184,48,90690,1,2,0:0:0
128,48,90975,6,0,B|48:48|48:152,1,140,4|8,0:0|0:0,0:0:0
48,200,91827,1,0,0:0:0
48,312,92395,2,0,B|48:360|112:360,1,70,0|2,0:0|0:0,0:0:0
204,360,93247,6,0,B|292:360|292:264,1,140,0|8,0:0|0:0,0:0:0
288,216,94100,1,0,0:0:0
308,104,94668,2,0,B|352:104|352:60,1,70,0|2,0:0|0:0,0:0:0
240,64,95520,6,0,B|176:32|88:96|24:64,1,210,4|0,0:0|0:0,0:0:0
52,180,96940,2,0,B|20:188|20:268,1,70,0|8,0:0|0:0,0:0:0
132,240,97793,6,0,B|196:208,1,70,0|8,0:0|0:0,0:0:0
296,164,98645,1,0,0:0:0
296,108,98929,2,0,B|444:80|456:224,1,210
452,256,100065,6,4,B|377:356|249:308,1,210,4|0,0:0|0:0,0:0:0
156,300,101486,2,0,B|104:240,1,70,0|8,0:0|0:0,0:0:0
112,136,102338,6,4,B|216:64|336:144,1,210,4|0,0:0|0:0,0:0:0
456,208,104043,1,8,0:0:0
256,192,104611,12,0,106884,0:0:0
132,224,108020,2,4,B|212:148|212:32,1,210
288,36,109156,2,4,B|288:148|400:236,1,210
268,220,110577,1,0,0:0:0
212,220,110861,1,8,0:0:0
108,176,111429,6,4,B|92:296|204:344,1,210
324,236,113134,2,4,B|372:180|324:108,1,140,8|4,0:0|0:0,0:0:0
256,192,114270,12,4,115975,0:0:0
