osu file format v10

[General]
AudioFilename: DBTTGBA.mp3
AudioLeadIn: 2000
PreviewTime: 39838
Countdown: 0
SampleSet: Normal
StackLeniency: 0.3
Mode: 0
LetterboxInBreaks: 0

[Editor]
DistanceSpacing: 1
BeatDivisor: 4
GridSize: 4

[Metadata]
Title:Transformation Theme
TitleUnicode:
Artist:Yannis Brown
ArtistUnicode:
Creator:Arnold0
Version:Insane
Source:Dragon Ball GT
Tags:GBA Game Boy Advance Nintendo DB Goku Pan Trunk
BeatmapID:151288
BeatmapSetID:49001

[Difficulty]
HPDrainRate:7
CircleSize:4
OverallDifficulty:7
ApproachRate:8
SliderMultiplier:2.8
SliderTickRate:2

[Events]
//Background and Video events
0,0,"BG.jpg"
//Break Periods
//Storyboard Layer 0 (Background)
//Storyboard Layer 1 (Fail)
//Storyboard Layer 2 (Pass)
//Storyboard Layer 3 (Foreground)
//Storyboard Sound Samples
//Background Colour Transformations
3,100,192,192,192

[TimingPoints]
66,568.181818181818,4,1,1,80,1,0
40975,-100,4,1,1,80,0,1
56884,-100,4,1,1,80,0,0
100065,-100,4,1,1,80,0,1
115975,-100,4,1,1,80,0,0

[Colours]
Combo1 : 116,139,123
Combo2 : 128,255,0
Combo3 : 0,185,185
Combo4 : 128,0,92
Combo5 : 248,146,7

[HitObjects]
64,200,66,1,4,0:0:0
104,136,208,1,0,0:0:0
152,80,350,1,0,0:0:0
216,48,492,1,0,0:0:0
288,32,634,1,8,0:0:0
252,168,918,2,0,B|328:168,1,70
424,64,1344,1,0,0:0:0
464,128,1486,1,0,0:0:0
464,200,1628,1,0,0:0:0
448,272,1770,2,0,B|312:304,1,139.999995231629,2|0,0:0|0:0,0:0:0
144,344,2338,5,4,0:0:0
96,288,2480,1,0,0:0:0
144,232,2622,1,0,0:0:0
96,176,2764,1,0,0:0:0
144,120,2906,1,8,0:0:0
232,232,3190,2,0,B|312:232,1,70
424,136,3617,1,0,0:0:0
472,192,3759,1,0,0:0:0
472,264,3901,1,0,0:0:0
432,320,4043,2,0,B|272:320,1,139.999995231629,2|0,0:0|0:0,0:0:0
136,320,4611,5,4,0:0:0
56,200,4895,1,8,0:0:0
136,80,5179,1,0,0:0:0
216,200,5463,2,0,B|232:112|348:60|448:100,1,280
456,264,6315,1,8,0:0:0
216,200,6884,5,0,0:0:0
272,248,7026,1,0,0:0:0
328,200,7168,2,0,B|424:176|408:56,1,140,8|0,0:0|0:0,0:0:0
272,100,7736,1,0,0:0:0
56,280,8304,1,0,0:0:0
56,140,8588,2,0,B|184:200,1,140,8|0,0:0|0:0,0:0:0
308,264,9156,5,0,0:0:0
356,212,9298,1,0,0:0:0
312,156,9440,2,0,B|304:64|212:76,1,140,8|0,0:0|0:0,0:0:0
120,164,10009,1,0,0:0:0
400,156,10577,1,0,0:0:0
400,296,10861,2,0,B|484:284|488:200,1,140,8|0,0:0|0:0,0:0:0
488,72,11429,5,0,0:0:0
436,28,11571,1,0,0:0:0
368,28,11713,2,0,B|288:-8|228:72,1,140,8|0,0:0|0:0,0:0:0
104,80,12281,1,0,0:0:0
376,152,12850,1,0,0:0:0
284,260,13134,1,8,0:0:0
200,152,13418,1,0,0:0:0
312,64,13702,5,4,0:0:0
376,104,13844,1,0,0:0:0
312,144,13986,1,0,0:0:0
376,184,14128,1,0,0:0:0
312,224,14270,1,8,0:0:0
200,152,14554,2,0,B|104:152,1,70
112,272,14980,1,0,0:0:0
52,308,15122,1,0,0:0:0
112,344,15264,1,0,0:0:0
176,308,15406,2,0,B|336:260,1,139.999995231629,2|0,0:0|0:0,0:0:0
468,304,15975,5,4,0:0:0
392,304,16117,1,0,0:0:0
428,240,16259,1,0,0:0:0
392,176,16401,1,0,0:0:0
468,176,16543,1,8,0:0:0
336,240,16827,2,0,B|264:240,1,70
128,296,17253,1,0,0:0:0
80,240,17395,1,0,0:0:0
128,184,17537,1,0,0:0:0
80,128,17679,2,0,B|208:64,1,139.999995231629,2|0,0:0|0:0,0:0:0
368,136,18247,5,4,0:0:0
224,136,18531,1,8,0:0:0
296,264,18815,1,0,0:0:0
420,308,19100,2,0,B|352:380|232:380|168:312,1,280
124,184,19952,1,8,0:0:0
360,40,20520,5,0,0:0:0
408,88,20662,1,0,0:0:0
360,136,20804,2,0,B|296:192|228:136,1,140,8|0,0:0|0:0,0:0:0
72,88,21372,1,0,0:0:0
280,280,21940,1,0,0:0:0
140,304,22225,1,8,0:0:0
96,32,22793,5,0,0:0:0
96,32,22935,1,0,0:0:0
96,32,23077,2,0,B|172:152,1,140,8|0,0:0|0:0,0:0:0
240,288,23645,1,0,0:0:0
424,72,24213,2,0,B|492:192|304:248|288:124,1,280,0|0,0:0|0:0,0:0:0
228,84,24923,5,0,0:0:0
168,124,25065,1,0,0:0:0
168,196,25208,1,0,0:0:0
228,236,25350,1,8,0:0:0
236,372,25634,6,0,B|328:372|384:372,1,140,0|0,0:0|0:0,0:0:0
408,92,26486,1,0,0:0:0
468,216,26770,1,0,0:0:0
396,204,26912,2,0,B|228:180,1,140
184,168,27338,1,0,0:0:0
128,120,27480,1,0,0:0:0
184,72,27622,2,0,B|224:8|320:36,1,140,8|0,0:0|0:0,0:0:0
456,120,28190,5,0,0:0:0
168,120,28759,1,0,0:0:0
400,288,29327,1,0,0:0:0
328,288,29469,1,0,0:0:0
360,224,29611,1,0,0:0:0
288,224,29753,1,0,0:0:0
256,288,29895,2,0,B|184:324|132:256,1,140,8|0,0:0|0:0,0:0:0
72,64,30463,5,0,0:0:0
360,64,31031,1,0,0:0:0
240,136,31315,2,0,B|156:116|116:192,1,140,0|0,0:0|0:0,0:0:0
40,344,31884,5,4,0:0:0
88,288,32026,1,0,0:0:0
160,288,32168,1,0,0:0:0
232,288,32310,1,0,0:0:0
280,232,32452,1,8,0:0:0
368,120,32736,2,0,B|280:72,1,70
168,40,33162,1,0,0:0:0
128,96,33304,1,0,0:0:0
168,152,33446,1,0,0:0:0
208,96,33588,2,0,B|296:100|324:168,1,140,2|0,0:0|0:0,0:0:0
424,288,34156,5,4,0:0:0
352,288,34298,1,0,0:0:0
280,288,34440,1,0,0:0:0
316,224,34583,1,0,0:0:0
388,224,34725,1,8,0:0:0
360,88,35009,2,0,B|288:64,1,70
152,40,35435,1,0,0:0:0
152,112,35577,1,0,0:0:0
88,80,35719,1,0,0:0:0
88,152,35861,2,0,B|36:216|100:280,1,140,2|0,0:0|0:0,0:0:0
312,336,36429,5,4,0:0:0
216,232,36713,1,8,0:0:0
360,232,36997,1,0,0:0:0
456,336,37281,2,0,B|556:264|556:152|440:108,1,280
336,36,38134,1,8,0:0:0
192,188,38702,5,0,0:0:0
128,152,38844,1,0,0:0:0
128,228,38986,1,8,0:0:0
264,188,39270,1,0,0:0:0
416,192,39554,1,0,0:0:0
416,56,39838,1,0,0:0:0
280,96,40122,1,0,0:0:0
216,120,40264,1,0,0:0:0
152,148,40406,2,0,B|60:132|36:204,1,140,8|0,0:0|0:0,0:0:0
156,316,40975,6,0,B|212:380|348:380|412:312,1,280,4|0,0:0|0:0,0:0:0
456,164,41827,2,0,B|440:24|240:24,1,280,4|0,0:0|0:0,0:0:0
320,140,42679,1,8,0:0:0
48,80,43247,6,0,B|-36:216|56:344,1,280,4|0,0:0|0:0,0:0:0
196,340,44100,2,0,B|272:396|396:396|464:344,1,280,4|0,0:0|0:0,0:0:0
348,264,44952,2,0,B|280:248|280:168|320:152|360:136|360:48|300:32,1,280,12|0,0:0|0:0,0:0:0
152,36,45804,5,8,0:0:0
152,176,46088,1,0,0:0:0
272,100,46372,1,0,0:0:0
440,176,46940,1,0,0:0:0
436,36,47225,1,8,0:0:0
280,296,47793,5,0,0:0:0
208,296,47935,1,0,0:0:0
244,232,48077,1,8,0:0:0
376,232,48361,1,0,0:0:0
376,96,48645,1,0,0:0:0
240,96,48929,5,0,0:0:0
204,232,49213,1,0,0:0:0
272,232,49355,1,0,0:0:0
240,168,49497,1,8,0:0:0
384,148,49781,1,0,0:0:0
452,268,50065,6,0,B|412:388|200:344,1,280,4|0,0:0|0:0,0:0:0
40,328,50918,2,0,B|92:188|272:216,1,280,4|0,0:0|0:0,0:0:0
432,220,51770,1,8,0:0:0
220,36,52338,6,0,B|112:16|20:88|20:180,1,280,4|0,0:0|0:0,0:0:0
156,176,53190,2,0,B|256:124|324:220|444:140,1,280,4|0,0:0|0:0,0:0:0
432,292,54043,2,0,B|332:240|264:336|144:256,1,280,12|0,0:0|0:0,0:0:0
256,192,55179,12,4,56884,0:0:0
360,120,58588,5,0,0:0:0
328,184,58730,1,0,0:0:0
288,120,58872,1,0,0:0:0
256,184,59014,1,0,0:0:0
296,248,59156,5,4,0:0:0
224,248,59298,1,0,0:0:0
184,184,59440,1,0,0:0:0
144,120,59583,1,0,0:0:0
216,120,59725,1,8,0:0:0
344,48,60009,2,0,B|364:128,1,70
456,220,60435,1,0,0:0:0
396,256,60577,1,0,0:0:0
456,292,60719,1,0,0:0:0
396,328,60861,2,0,B|256:328,1,140,2|0,0:0|0:0,0:0:0
116,328,61429,5,4,0:0:0
60,288,61571,1,0,0:0:0
116,248,61713,1,0,0:0:0
60,208,61855,1,0,0:0:0
116,168,61997,1,8,0:0:0
120,28,62281,2,0,B|188:28,1,70
332,28,62708,1,0,0:0:0
276,68,62850,1,0,0:0:0
332,108,62992,1,0,0:0:0
404,108,63134,2,0,B|404:252,1,139.999995231629,2|0,0:0|0:0,0:0:0
284,320,63702,5,4,0:0:0
224,192,63986,1,8,0:0:0
168,64,64270,1,0,0:0:0
308,64,64554,2,0,B|404:96|448:220|384:296,1,280
252,332,65406,1,8,0:0:0
196,64,65975,5,0,0:0:0
160,128,66117,1,0,0:0:0
236,128,66259,2,0,B|264:212|192:256,1,140,8|0,0:0|0:0,0:0:0
48,352,66827,1,0,0:0:0
120,72,67395,1,0,0:0:0
240,152,67679,2,0,B|304:100|400:136,1,140,8|0,0:0|0:0,0:0:0
468,236,68247,5,0,0:0:0
488,304,68389,1,0,0:0:0
416,284,68531,2,0,B|360:252|264:256,1,140,8|0,0:0|0:0,0:0:0
128,256,69100,1,0,0:0:0
376,112,69668,1,0,0:0:0
376,252,69952,2,0,B|296:240|248:188,1,140,8|0,0:0|0:0,0:0:0
204,56,70520,5,0,0:0:0
152,104,70662,1,0,0:0:0
164,176,70804,2,0,B|168:264|248:280,1,140,8|0,0:0|0:0,0:0:0
424,296,71372,1,0,0:0:0
144,216,71940,1,0,0:0:0
248,112,72225,1,8,0:0:0
392,112,72509,1,0,0:0:0
392,256,72793,5,4,0:0:0
352,192,72935,1,0,0:0:0
316,132,73077,1,0,0:0:0
280,192,73219,1,0,0:0:0
248,256,73361,1,8,0:0:0
120,192,73645,2,0,B|224:152,1,70
316,132,74071,1,0,0:0:0
372,176,74213,1,0,0:0:0
440,176,74355,1,0,0:0:0
496,132,74497,2,0,B|368:60,1,139.999995231629,10|0,0:0|0:0,0:0:0
216,48,75065,5,4,0:0:0
168,104,75208,1,0,0:0:0
216,160,75350,1,0,0:0:0
168,216,75492,1,0,0:0:0
216,272,75634,1,8,0:0:0
304,160,75918,2,0,B|304:80,1,70
480,32,76344,1,0,0:0:0
424,72,76486,1,0,0:0:0
424,144,76628,1,0,0:0:0
372,192,76770,2,0,B|220:192,1,139.999995231629,10|0,0:0|0:0,0:0:0
80,192,77338,5,4,0:0:0
176,88,77622,1,8,0:0:0
280,192,77906,1,0,0:0:0
372,84,78190,2,0,B|460:144|460:264|388:328,1,280
240,336,79043,1,8,0:0:0
104,104,79611,5,0,0:0:0
152,160,79753,1,0,0:0:0
200,104,79895,2,0,B|244:32|356:64,1,140,8|0,0:0|0:0,0:0:0
416,296,80463,1,0,0:0:0
128,296,81031,1,0,0:0:0
232,200,81315,1,8,0:0:0
472,40,81884,5,0,0:0:0
416,88,82026,1,0,0:0:0
360,40,82168,2,0,B|180:40,1,140,8|0,0:0|0:0,0:0:0
72,40,82736,1,0,0:0:0
312,184,83304,2,0,B|60:324,1,280
16,268,84014,5,0,0:0:0
16,200,84156,1,0,0:0:0
68,152,84298,1,0,0:0:0
120,200,84440,1,8,0:0:0
248,200,84725,1,0,0:0:0
188,328,85009,1,0,0:0:0
352,72,85577,5,0,0:0:0
208,72,85861,1,8,0:0:0
208,144,86003,2,0,B|120:264,1,139.999995231629
56,260,86429,1,0,0:0:0
56,328,86571,1,0,0:0:0
124,328,86713,2,0,B|228:348|256:240,1,140,8|0,0:0|0:0,0:0:0
312,124,87281,1,0,0:0:0
88,292,87850,2,0,B|148:352|292:252|364:324,1,280
400,248,88560,5,0,0:0:0
432,184,88702,1,0,0:0:0
400,120,88844,1,0,0:0:0
360,56,88986,1,8,0:0:0
224,112,89270,1,0,0:0:0
224,264,89554,1,0,0:0:0
48,120,90122,1,0,0:0:0
48,256,90406,1,0,0:0:0
172,192,90690,1,0,0:0:0
328,192,90975,5,4,0:0:0
328,120,91117,1,0,0:0:0
264,152,91259,1,0,0:0:0
264,224,91401,1,0,0:0:0
328,264,91543,1,8,0:0:0
200,192,91827,2,0,B|132:192,1,70
48,352,92253,1,0,0:0:0
84,288,92395,1,0,0:0:0
120,352,92537,1,0,0:0:0
152,288,92679,2,0,B|216:344|288:276,1,140,2|0,0:0|0:0,0:0:0
424,192,93247,5,0,0:0:0
424,120,93389,1,0,0:0:0
364,156,93531,1,0,0:0:0
304,120,93673,1,0,0:0:0
304,192,93815,1,8,0:0:0
168,160,94100,2,0,B|240:160,1,70
364,88,94526,1,0,0:0:0
424,120,94668,1,0,0:0:0
424,192,94810,1,0,0:0:0
364,232,94952,2,0,B|300:320|208:256,1,140,2|0,0:0|0:0,0:0:0
160,72,95520,5,4,0:0:0
160,216,95804,1,8,0:0:0
304,216,96088,1,0,0:0:0
304,72,96372,2,0,B|416:92|480:188|456:272,1,280
324,272,97225,1,8,0:0:0
48,192,97793,5,0,0:0:0
112,152,97935,1,0,0:0:0
112,228,98077,2,0,B|168:284|244:224,1,140,8|0,0:0|0:0,0:0:0
400,192,98645,1,0,0:0:0
304,88,98929,1,0,0:0:0
204,180,99213,1,0,0:0:0
248,236,99355,1,0,0:0:0
180,260,99497,2,0,B|116:220|132:116,1,139.999995231628,12|0,0:0|0:0,0:0:0
228,40,100065,6,0,B|340:12|444:60|480:120,1,280,4|0,0:0|0:0,0:0:0
484,260,100918,2,0,B|448:352|328:376|240:348,1,280,4|0,0:0|0:0,0:0:0
224,212,101770,1,0,0:0:0
448,44,102338,6,0,B|324:-24|164:40,1,280,4|0,0:0|0:0,0:0:0
28,40,103190,2,0,B|-52:172|40:324,1,280,4|0,0:0|0:0,0:0:0
176,312,104043,2,0,B|296:184|32:128|248:40,1,279.999990463257,12|0,0:0|0:0,0:0:0
332,68,104895,5,8,0:0:0
196,68,105179,1,0,0:0:0
268,188,105463,1,0,0:0:0
500,188,106031,1,0,0:0:0
364,188,106315,1,8,0:0:0
96,312,106884,5,0,0:0:0
96,240,107026,1,0,0:0:0
156,276,107168,1,8,0:0:0
256,184,107452,1,0,0:0:0
152,88,107736,1,0,0:0:0
288,88,108020,5,0,0:0:0
324,224,108304,1,0,0:0:0
252,224,108446,1,0,0:0:0
288,284,108588,1,0,0:0:0
148,308,108872,1,0,0:0:0
68,192,109156,6,0,B|56:96|140:12|248:16,1,280,4|0,0:0|0:0,0:0:0
388,12,110009,2,0,B|480:40|480:200|392:256,1,280,4|0,0:0|0:0,0:0:0
332,128,110861,1,8,0:0:0
72,56,111429,6,0,B|-68:164|56:344,1,280,4|0,0:0|0:0,0:0:0
172,324,112281,2,0,B|232:380|380:372|436:276,1,280,4|0,0:0|0:0,0:0:0
424,152,113134,2,0,B|376:72|216:248|168:152,1,279.999990463257,12|4,0:0|0:0,0:0:0
256,192,114270,12,4,115975,0:0:0
