osu file format v10

[General]
AudioFilename: DBTTGBA.mp3
AudioLeadIn: 2000
PreviewTime: 39838
Countdown: 0
SampleSet: Normal
StackLeniency: 0.7
Mode: 0
LetterboxInBreaks: 0

[Editor]
DistanceSpacing: 1
BeatDivisor: 4
GridSize: 4

[Metadata]
Title:Transformation Theme
TitleUnicode:
Artist:Yannis Brown
ArtistUnicode:
Creator:Arnold0
Version:Hard
Source:Dragon Ball GT
Tags:GBA Game Boy Advance Nintendo DB Goku Pan Trunk
BeatmapID:151287
BeatmapSetID:49001

[Difficulty]
HPDrainRate:5
CircleSize:4
OverallDifficulty:6
ApproachRate:7
SliderMultiplier:1.8
SliderTickRate:2

[Events]
//Background and Video events
0,0,"BG.jpg"
//Break Periods
//Storyboard Layer 0 (Background)
//Storyboard Layer 1 (Fail)
//Storyboard Layer 2 (Pass)
//Storyboard Layer 3 (Foreground)
//Storyboard Sound Samples
//Background Colour Transformations
3,100,192,192,192

[TimingPoints]
66,568.181818181818,4,1,1,80,1,0
40975,-100,4,1,1,80,0,1
56884,-100,4,1,1,80,0,0
100065,-100,4,1,1,80,0,1
115975,-100,4,1,1,80,0,0

[Colours]
Combo1 : 116,139,123
Combo2 : 128,255,0
Combo3 : 0,185,185
Combo4 : 128,0,92
Combo5 : 248,146,7

[HitObjects]
168,120,66,2,0,B|168:80|208:80,4,45,4|0|0|0|8,0:0|0:0|0:0|0:0|0:0,0:0:0
256,144,918,1,0,0:0:0
256,144,1060,1,0,0:0:0
344,116,1344,2,0,B|344:76|304:76,3,45,0|0|0|2,0:0|0:0|0:0|0:0,0:0:0
396,188,2054,1,0,0:0:0
344,260,2338,6,0,B|344:300|304:300,4,45,4|0|0|0|8,0:0|0:0|0:0|0:0|0:0,0:0:0
256,240,3190,1,0,0:0:0
256,240,3333,1,0,0:0:0
168,260,3617,2,0,B|168:300|208:300,3,45,0|0|0|2,0:0|0:0|0:0|0:0,0:0:0
84,260,4327,1,0,0:0:0
36,184,4611,6,0,B|140:56|196:208|308:96,1,270,4|0,0:0|0:0,0:0:0
464,124,6031,1,0,0:0:0
464,212,6315,1,8,0:0:0
288,176,6884,5,0,0:0:0
288,176,7026,1,0,0:0:0
288,176,7168,2,0,B|180:176,1,90,8|0,0:0|0:0,0:0:0
108,176,7736,1,0,0:0:0
108,360,8304,2,0,B|32:376|32:288,1,90,0|8,0:0|0:0,0:0:0
112,276,8872,1,0,0:0:0
188,228,9156,5,0,0:0:0
188,228,9298,1,0,0:0:0
188,228,9440,1,8,0:0:0
256,168,9725,2,0,B|328:240,1,90
488,296,10577,2,0,B|472:352|384:352,1,90,0|8,0:0|0:0,0:0:0
336,324,11145,1,0,0:0:0
392,256,11429,5,0,0:0:0
392,256,11571,1,0,0:0:0
392,256,11713,2,0,B|392:76,1,180,8|0,0:0|0:0,0:0:0
212,76,12850,2,0,B|148:76|132:124,1,90,0|8,0:0|0:0,0:0:0
208,168,13418,1,0,0:0:0
288,208,13702,6,0,B|328:256,4,45,4|0|0|0|8,0:0|0:0|0:0|0:0|0:0,0:0:0
208,168,14554,1,0,0:0:0
208,168,14696,1,0,0:0:0
128,128,14980,2,0,B|80:64,3,45,0|0|0|2,0:0|0:0|0:0|0:0,0:0:0
72,200,15690,1,0,0:0:0
112,280,15975,6,0,B|72:336,4,45,4|0|0|0|8,0:0|0:0|0:0|0:0|0:0,0:0:0
200,280,16827,1,0,0:0:0
200,280,16969,1,0,0:0:0
288,280,17253,2,0,B|320:232,3,45,0|0|0|2,0:0|0:0|0:0|0:0,0:0:0
392,200,17963,1,0,0:0:0
356,116,18247,6,0,B|228:20|172:172|76:92,1,270,4|0,0:0|0:0,0:0:0
212,248,19668,1,0,0:0:0
300,248,19952,1,8,0:0:0
188,108,20520,5,0,0:0:0
188,108,20662,1,0,0:0:0
188,108,20804,2,0,B|188:196,2,90,8|0|0,0:0|0:0|0:0,0:0:0
368,108,21940,2,0,B|428:92|456:172,1,90,0|8,0:0|0:0,0:0:0
380,312,22793,5,0,0:0:0
380,312,22935,1,0,0:0:0
380,312,23077,1,8,0:0:0
216,240,23645,1,0,0:0:0
280,72,24213,2,0,B|192:72,1,90
100,72,24781,6,0,B|40:60|24:140,2,90
192,224,25918,1,0,0:0:0
160,48,26486,2,0,B|108:36|100:64|48:48,1,90
48,232,27338,6,0,B|104:272,2,45,0|0|8,0:0|0:0|0:0,0:0:0
232,232,28190,1,0,0:0:0
124,88,28759,2,0,B|224:72,1,90
304,64,29327,6,0,B|372:136,2,90
376,232,30463,1,0,0:0:0
200,232,31031,2,0,B|176:196|224:172|192:136,1,90
260,80,31600,1,0,0:0:0
340,36,31884,6,0,B|388:76,4,45,4|0|0|0|8,0:0|0:0|0:0|0:0|0:0,0:0:0
292,112,32736,1,0,0:0:0
292,112,32878,1,0,0:0:0
372,156,33162,2,0,B|324:204,3,45,0|0|0|2,0:0|0:0|0:0|0:0,0:0:0
250,191,33872,1,0,0:0:0
160,191,34156,6,0,B|111:239,4,45,4|0|0|0|8,0:0|0:0|0:0|0:0|0:0,0:0:0
234,241,35009,1,0,0:0:0
234,240,35151,1,0,0:0:0
300,301,35435,2,0,B|340:261,3,45,0|0|0|2,0:0|0:0|0:0|0:0,0:0:0
400,208,36145,1,0,0:0:0
396,116,36429,6,0,B|276:236|268:84|132:204,1,270,4|0,0:0|0:0,0:0:0
108,12,37850,1,0,0:0:0
64,92,38134,1,8,0:0:0
192,220,38702,5,0,0:0:0
192,220,38844,1,0,0:0:0
192,220,38986,1,8,0:0:0
352,304,39554,1,0,0:0:0
408,232,39838,2,0,B|408:120|296:120,1,180,0|8,0:0|0:0,0:0:0
320,208,40690,1,0,0:0:0
256,272,40975,6,0,B|248:388|120:372,1,180,4|0,0:0|0:0,0:0:0
46,372,41827,2,0,B|-32:294|53:185,1,180,4|0,0:0|0:0,0:0:0
118,170,42679,1,0,0:0:0
1,33,43247,6,4,B|73:137|169:-39|241:65,1,270
240,244,44668,1,0,0:0:0
164,292,44952,2,0,B|84:196|172:92,1,180,12|0,0:0|0:0,0:0:0
228,88,45804,6,0,B|293:135|357:58|440:99,1,180,8|0,0:0|0:0,0:0:0
388,268,46940,1,0,0:0:0
296,268,47225,1,8,0:0:0
140,180,47793,5,0,0:0:0
140,180,47935,1,0,0:0:0
140,180,48077,1,8,0:0:0
96,100,48361,1,0,0:0:0
176,56,48645,1,0,0:0:0
264,48,48929,6,4,B|392:20|472:96,1,180,4|0,0:0|0:0,0:0:0
484,148,49781,1,0,0:0:0
408,192,50065,6,0,B|280:220|200:144,1,180,4|0,0:0|0:0,0:0:0
160,120,50918,2,0,B|48:104|8:204,1,180,4|0,0:0|0:0,0:0:0
12,284,51770,1,0,0:0:0
184,340,52338,6,0,B|244:276|264:440|348:328,1,180,4|0,0:0|0:0,0:0:0
408,292,53190,2,0,B|504:268|512:136,1,180,4|0,0:0|0:0,0:0:0
508,68,54043,2,0,B|436:4|388:140|324:68,1,180,12|4,0:0|0:0,0:0:0
256,192,55179,12,4,56884,0:0:0
108,204,58588,6,0,B|108:132|180:84,1,135,4|0,0:0|0:0,0:0:0
216,88,59156,2,0,B|216:20,4,45,4|0|0|0|8,0:0|0:0|0:0|0:0|0:0,0:0:0
272,160,60009,1,0,0:0:0
272,160,60151,1,0,0:0:0
336,224,60435,2,0,B|336:296,3,45,0|0|0|2,0:0|0:0|0:0|0:0,0:0:0
248,272,61145,1,0,0:0:0
164,320,61429,6,0,B|164:384,4,45,4|0|0|0|8,0:0|0:0|0:0|0:0|0:0,0:0:0
256,336,62281,1,0,0:0:0
256,336,62423,1,0,0:0:0
344,360,62708,2,0,B|344:304,3,45,0|0|0|2,0:0|0:0|0:0|0:0,0:0:0
256,336,63418,1,0,0:0:0
172,304,63702,6,0,B|52:192|180:64,1,270,4|0,0:0|0:0,0:0:0
352,92,65122,1,0,0:0:0
356,180,65406,1,8,0:0:0
156,184,65975,5,0,0:0:0
156,184,66117,1,0,0:0:0
156,184,66259,2,0,B|104:276,1,90,8|0,0:0|0:0,0:0:0
72,344,66827,1,0,0:0:0
248,296,67395,2,0,B|320:272|240:240|320:216,1,90,0|8,0:0|0:0,0:0:0
212,186,67963,1,0,0:0:0
144,128,68247,5,0,0:0:0
144,128,68389,1,0,0:0:0
144,128,68531,2,0,B|216:64,1,90,8|0,0:0|0:0,0:0:0
264,140,69100,1,0,0:0:0
444,136,69668,2,0,B|428:184|380:192,1,90,0|8,0:0|0:0,0:0:0
296,216,70236,1,0,0:0:0
212,244,70520,5,0,0:0:0
212,244,70662,1,0,0:0:0
212,244,70804,2,0,B|112:220,1,90,8|0,0:0|0:0,0:0:0
40,252,71372,1,0,0:0:0
200,328,71940,2,0,B|244:356|284:328,2,90,0|8|0,0:0|0:0|0:0,0:0:0
240,248,72793,6,0,B|288:248|288:200,4,45,4|0|0|0|8,0:0|0:0|0:0|0:0|0:0,0:0:0
176,184,73645,1,0,0:0:0
176,184,73787,1,0,0:0:0
112,248,74071,2,0,B|64:248|64:200,3,45,0|0|0|2,0:0|0:0|0:0|0:0,0:0:0
180,304,74781,1,0,0:0:0
248,248,75065,6,0,B|224:208,4,45,4|0|0|0|8,0:0|0:0|0:0|0:0|0:0,0:0:0
336,248,75918,1,0,0:0:0
336,248,76060,1,0,0:0:0
424,248,76344,2,0,B|448:208,3,45,0|0|0|2,0:0|0:0|0:0|0:0,0:0:0
368,164,77054,1,0,0:0:0
280,140,77338,6,0,B|152:140|152:44|32:44,1,270,4|0,0:0|0:0,0:0:0
96,212,78759,1,0,0:0:0
184,212,79043,1,8,0:0:0
272,212,79327,1,0,0:0:0
376,108,79611,5,0,0:0:0
376,108,79753,1,0,0:0:0
376,108,79895,2,0,B|388:212,1,90,8|0,0:0|0:0,0:0:0
392,288,80463,1,0,0:0:0
260,168,81031,2,0,B|212:140|212:84,1,90,0|8,0:0|0:0,0:0:0
304,88,81600,1,0,0:0:0
392,88,81884,5,0,0:0:0
392,88,82026,1,0,0:0:0
392,88,82168,2,0,B|340:180,1,90,8|0,0:0|0:0,0:0:0
256,168,82736,1,0,0:0:0
388,292,83304,2,0,B|292:292,1,90
212,264,83872,6,0,B|208:208|136:208,2,90
388,220,85009,1,0,0:0:0
468,60,85577,2,0,B|420:100|420:4|372:60,1,90
212,48,86429,5,4,0:0:0
212,48,86571,1,0,0:0:0
212,48,86713,1,8,0:0:0
284,212,87281,1,0,0:0:0
408,80,87850,1,0,0:0:0
208,80,88418,6,0,B|168:80|168:152,2,90
48,152,89554,1,0,0:0:0
72,328,90122,2,0,B|120:356|160:328,1,90
244,316,90690,1,0,0:0:0
320,264,90975,6,0,B|348:298,4,45,4|4|0|0|8,0:0|0:0|0:0|0:0|0:0,0:0:0
232,264,91827,1,0,0:0:0
232,264,91969,1,0,0:0:0
144,264,92253,2,0,B|115:298,3,45,0|0|0|2,0:0|0:0|0:0|0:0,0:0:0
84,212,92963,1,0,0:0:0
88,120,93247,6,0,B|88:72|136:72,4,45,0|0|0|0|8,0:0|0:0|0:0|0:0|0:0,0:0:0
176,120,94100,1,0,0:0:0
176,120,94242,1,0,0:0:0
264,120,94526,2,0,B|264:168|224:168,3,45,0|0|0|2,0:0|0:0|0:0|0:0,0:0:0
248,252,95236,1,0,0:0:0
312,316,95520,6,0,B|312:188|472:188|472:76,1,270,4|0,0:0|0:0,0:0:0
288,120,96940,2,0,B|240:152|200:120,1,90,0|8,0:0|0:0,0:0:0
32,80,97793,6,0,B|32:40|80:40,2,45,0|0|8,0:0|0:0|0:0,0:0:0
204,128,98645,1,0,0:0:0
296,104,98929,2,0,B|316:220|192:224,1,180,0|8,0:0|0:0,0:0:0
196,312,99781,1,0,0:0:0
284,312,100065,6,4,B|392:300|392:176,1,180,4|0,0:0|0:0,0:0:0
480,188,100918,2,0,B|464:116|404:80|316:132,1,180,4|0,0:0|0:0,0:0:0
292,192,101770,1,0,0:0:0
276,372,102338,6,4,B|212:280|100:388|28:312,1,270
100,144,103759,1,0,0:0:0
156,76,104043,2,0,B|292:36|328:152,1,180,12|0,0:0|0:0,0:0:0
324,208,104895,6,0,B|252:272|156:208,1,180,8|0,0:0|0:0,0:0:0
252,56,106031,1,0,0:0:0
304,128,106315,1,8,0:0:0
212,284,106884,6,0,B|260:284|260:260,2,45,0|0|8,0:0|0:0|0:0,0:0:0
128,256,107452,1,0,0:0:0
88,176,107736,1,0,0:0:0
60,92,108020,6,4,B|148:32|248:100,1,180,4|0,0:0|0:0,0:0:0
316,88,108872,1,0,0:0:0
316,176,109156,6,4,B|244:204|220:152|136:184,1,180
84,112,110009,2,0,B|32:152|32:244|136:280,1,180,4|0,0:0|0:0,0:0:0
176,308,110861,1,0,0:0:0
356,312,111429,6,4,B|376:208|264:160,1,180
188,156,112281,2,0,B|108:80|184:0,1,180,4|0,0:0|0:0,0:0:0
268,16,113134,2,0,B|380:16|404:112,1,180,12|4,0:0|0:0,0:0:0
256,192,114270,12,4,115975,0:0:0
