osu file format v9

[General]
AudioFilename: November Sky.mp3
AudioLeadIn: 0
PreviewTime: 52195
Countdown: 0
SampleSet: Soft
StackLeniency: 0.7
Mode: 0
LetterboxInBreaks: 0

[Editor]
Bookmarks: 83,4586,12306,17453
DistanceSpacing: 1
BeatDivisor: 4
GridSize: 4

[Metadata]
Title:November Sky
Artist:Yanni
Creator:kazumikos
Version:Expert
Source:
Tags:Shulin Yiannis Hrysomallis If I Could Tell You

[Difficulty]
HPDrainRate:7
CircleSize:4
OverallDifficulty:7
ApproachRate:8
SliderMultiplier:2.4
SliderTickRate:1

[Events]
//Background and Video events
0,0,"BG1.jpg"
//Break Periods
2,81968,96265
//Storyboard Layer 0 (Background)
//Storyboard Layer 1 (Fail)
//Storyboard Layer 2 (Pass)
//Storyboard Layer 3 (Foreground)
//Storyboard Sound Samples
//Background Colour Transformations
3,100,255,255,255

[TimingPoints]
7138,643.362642075917,4,2,1,40,1,0
43648,-100,4,2,1,10,0,0
43970,-100,4,2,1,40,0,0
52334,-100,4,2,2,40,0,0
53460,-100,4,2,2,40,0,1
53620,-100,4,2,1,40,0,1
81607,-100,4,2,1,40,0,0
81768,-100,4,2,1,60,0,1
81928,-100,4,2,1,40,0,0
132111,-100,4,2,2,40,0,0
133237,-100,4,2,2,40,0,1
133397,-100,4,2,1,40,0,1
161384,-100,4,2,1,40,0,0
161545,-100,4,2,1,60,0,1
161705,-100,4,2,1,60,0,0

[Colours]
Combo1 : 153,194,208
Combo2 : 255,255,255
Combo3 : 190,158,216
Combo4 : 79,62,102
Combo5 : 138,57,69

[HitObjects]
332,288,17431,1,8
332,288,17753,1,0
392,220,17914,2,0,B|348:176|256:196|244:268,1,180
332,68,18718,2,0,B|332:132|296:184,1,120,8|0
246,258,19201,1,0
332,288,19361,2,0,B|388:312|452:312,1,120
246,258,20005,6,0,B|184:240|136:192,1,120,8|0
256,236,20487,2,0,B|288:288|288:356,1,120
264,216,20970,1,0
68,76,21291,1,8
304,108,21613,6,0,B|272:108|244:120,1,60,0|0
224,328,22096,1,0
224,328,22257,1,0
368,176,22578,2,0,B|408:124|384:64,1,120,8|0
304,108,23061,6,0,B|264:160|288:220,1,120
184,140,23543,2,0,B|200:168|228:184,1,60
96,212,23865,2,0,B|216:224,1,120,8|0
184,140,24347,6,0,B|144:92|144:28,1,120
272,104,24830,1,0
412,292,25152,2,0,B|440:224|344:212|388:112,2,180,8|0|0
412,292,26438,1,8
284,184,26760,6,0,B|244:236,1,60
400,64,27243,2,0,B|452:36,1,60
248,232,27725,2,0,B|288:280|364:280,1,120,8|0
300,100,28208,6,0,B|272:188|200:256,1,180
300,100,29012,1,8
52,116,29334,1,0
136,132,29494,1,0
52,116,29655,1,0
192,308,29977,1,0
376,172,30299,6,0,B|312:172|268:224,1,120,8|0
324,96,30781,2,0,B|384:60|460:96|464:168,1,180
247,47,31585,2,0,B|216:104|256:164,1,120,8|0
324,96,32068,1,0
324,96,32389,1,0
252,160,32550,1,0
252,160,32872,6,0,B|196:184|136:184,1,120,8|0
180,268,33355,2,0,B|260:260|316:224|316:224|368:240,1,180
252,160,34159,2,0,B|196:140|156:92,1,120,8|0
256,80,34641,2,0,B|320:88|368:128,1,120
416,208,35124,1,0
416,52,35445,6,0,B|376:168,1,120,8|0
296,120,35928,2,0,B|240:92|176:84,1,120
208,172,36411,1,0
416,52,36732,2,0,B|456:132|444:228,1,180,8|0
444,227,37536,1,0
444,227,37697,1,0
208,172,38019,5,8
416,52,38341,1,0
344,100,38501,1,0
380,180,38662,2,0,B|404:236|404:304,1,120
344,100,39306,2,0,B|272:52|172:52,2,180,8|0|0
132,208,40592,6,0,B|72:208|28:156,1,120,8|0
64,272,41075,1,0
176,272,41236,2,0,B|216:248|220:188|188:156,1,120
428,128,41879,2,0,B|400:184|344:212,1,120,8|0
432,240,42362,2,0,B|332:304,1,120
344,211,42844,1,0
180,64,43166,6,0,B|104:84|80:180|128:252|224:272|284:228|296:144,1,360,8|0
206,146,44292,1,0
268,84,44453,2,0,B|340:72|376:136,1,120,8|0
444,80,44935,6,0,B|408:132|400:204,1,120
488,152,45418,1,0
320,288,45739,2,0,B|236:332|132:316,1,180,8|0
80,112,46543,1,0
140,168,46704,1,0
140,168,47026,2,0,B|184:216|264:228|264:228|288:260,1,180,8|0
288,260,47830,5,0
376,156,47991,1,0
376,156,48313,2,0,B|312:156|304:72|224:72,1,180,8|0
224,72,49278,1,0
104,272,49599,2,0,B|204:248|228:148,2,180,8|0|0
104,272,50725,1,0
124,184,50886,6,0,B|188:204|216:268|176:332,1,180,8|0
204,108,51690,1,0
204,108,51851,2,0,B|240:228,1,120,0|8
440,100,52495,5,2
384,160,52655,1,2
172,256,52977,1,2
252,232,53138,1,2
440,100,53460,6,0,B|396:52|304:80|304:148,1,180,4|0
172,256,54264,2,0,B|156:288|128:300,2,60
200,172,54746,2,0,B|256:144|316:144,1,120,12|0
400,180,55229,6,0,B|428:236|428:300,1,120
328,252,55711,1,0
400,180,55872,1,0
332,108,56033,2,0,B|384:64|468:84|492:148,2,180,12|0|0
260,176,57159,1,0
224,268,57320,6,0,B|232:208|212:144,1,120,12|0
76,32,57802,2,0,B|92:100|160:124,1,120
236,80,58285,1,0
150,120,58446,1,0
260,176,58607,2,0,B|344:220|372:320,1,180,12|0
236,80,59411,5,0
172,216,59572,1,0
260,176,59732,1,0
148,120,59893,2,0,B|96:88|28:88,1,120,12|0
88,176,60376,2,0,B|208:148,1,120
300,76,60858,6,0,B|340:124|324:192,2,120,0|12|0
408,140,61662,2,0,B|416:208|384:268,1,120
280,304,62145,1,0
389,256,62306,1,0
280,304,62467,6,0,B|156:328,1,120,12|0
320,224,62949,2,0,B|196:248,1,120
248,128,63432,1,0
320,224,63593,1,0
376,120,63753,5,12
376,120,64236,2,0,B|344:172|276:196,1,120
176,256,64718,2,0,B|200:228|232:216,1,60
244,60,65040,2,0,B|196:104|184:176,1,120,12|0
259,333,65523,2,0,B|259:269|219:213,1,120
152,128,66005,1,0
244,60,66166,1,0
352,80,66327,6,0,B|408:100|408:100|464:124|436:208|392:200,1,180,12|0
256,332,67131,2,0,B|188:344,1,60
264,248,67453,1,0
208,156,67614,2,0,B|176:104|128:68,1,120,12|0
44,136,68096,2,0,B|76:188|124:224,1,120
208,156,68579,1,0
312,136,68739,2,0,B|344:136|376:152,1,60,0|10
370,149,69222,5,0
370,149,69383,1,2
370,149,69705,1,0
288,96,69865,1,2
208,156,70026,1,0
112,120,70187,1,10
112,120,70509,5,0
112,120,70670,1,2
112,120,70991,1,0
224,152,71152,1,2
224,268,71313,1,0
336,268,71474,6,0,B|376:212|352:152,1,120,10|0
444,84,71956,2,0,B|464:144|456:212,1,120,0|0
352,154,72439,1,0
64,64,72760,6,0,B|92:124|128:172,1,120,10|0
96,280,73243,1,0
124,167,73565,1,0
96,280,73726,1,0
316,84,74047,6,0,B|360:40|432:40,1,120,10|0
420,152,74530,1,0
420,152,74851,2,0,B|440:208,1,60
180,328,75334,5,10
180,328,75656,1,0
232,224,75816,2,0,B|232:160|196:112,1,120
196,112,76299,1,0
448,260,76621,5,10
448,260,76942,1,0
484,152,77103,1,0
484,152,77425,1,0
396,84,77586,1,0
156,268,77907,5,10
156,268,78229,1,0
268,208,78390,2,0,B|284:276|228:312,1,120
232,136,78872,2,0,B|172:184|200:252,2,120,0|10|0
152,56,79677,6,0,B|144:180,1,120
144,175,80159,1,0
432,72,80481,1,10
356,284,80803,1,0
356,284,80963,1,0
144,176,81285,1,0
144,176,81446,1,0
432,72,81768,5,2
72,220,97208,6,0,B|72:284|40:336,1,120,8|0
112,280,97691,2,0,B|176:220|280:220,1,180
72,220,98495,1,8
208,64,98817,2,0,B|216:96|248:116,1,60
312,172,99138,2,0,B|352:120|432:120,1,120
272,340,99782,6,0,B|244:216,1,120,8|0
312,320,100264,2,0,B|312:260|368:220,1,120
245,222,100747,1,0
464,160,101068,5,8
272,340,101551,1,0
32,256,102033,1,0
245,222,102355,2,0,B|308:212|348:160,1,120,8|0
380,80,102838,6,0,B|444:104|456:192|396:240,1,180
256,88,103642,2,0,B|292:144|348:164,1,120,8|0
180,156,104124,2,0,B|296:188,1,120
280,280,104607,1,0
68,200,104929,6,0,B|88:156|88:156|128:68|188:76,2,180,8|0|0
268,52,106215,2,0,B|280:120|220:156,1,120,8|0
324,240,106698,2,0,B|324:136|224:96,1,180
448,204,107502,2,0,B|408:248|356:280,1,120,8|0
268,248,107985,6,0,B|200:192|148:104,1,180
104,328,108789,1,8
104,328,109110,2,0,B|128:304|128:272,1,60
60,216,109432,2,0,B|84:156|132:112,1,120
360,164,110076,6,0,B|308:192|244:192,1,120,8|0
412,244,110558,2,0,B|284:260,1,120
452,160,111041,2,0,B|468:100|444:40,2,120,0|8|0
412,244,111845,2,0,B|396:304|420:364,2,120
360,164,112649,1,8
97,196,112971,5,0
176,236,113131,2,0,B|212:172|152:100|96:112,1,180
176,320,113936,2,0,B|116:328|60:256|100:192,2,180,8|0|0
40,132,115222,1,8
272,228,115544,6,0,B|304:248|316:276,1,60
360,176,115866,2,0,B|320:228|320:292,1,120
404,112,116509,2,0,B|340:48|236:36,1,180,8|0
243,37,117313,1,0
243,37,117474,1,0
244,260,117796,5,8
56,148,118118,2,0,B|96:152|120:176,2,60
268,112,118761,1,0
168,288,119083,2,0,B|220:328|284:312,1,120,8|0
328,236,119565,2,0,B|252:172|152:200,1,180
336,152,120369,6,0,B|388:264,1,120,8|0
320,328,120852,1,0
328,236,121013,1,0
348,32,121334,1,0
444,212,121656,2,0,B|388:236|328:236,1,120,8|0
320,328,122139,2,0,B|320:268|280:212,1,120
282,215,122621,1,0
160,24,122943,6,0,B|60:24|4:116,2,180,8|0|0
160,24,124230,1,8
256,256,124712,1,0
256,256,125034,1,0
256,256,125195,2,0,B|284:312|360:328,1,120,0|8
224,156,125838,2,0,B|160:180,1,60
408,220,126320,2,0,B|344:216,1,60
460,28,126803,5,8
168,176,127285,1,0
448,336,127768,1,0
412,84,128090,5,8
168,176,128572,1,0
376,328,129055,1,0
372,140,129376,5,8
168,176,129859,1,0
304,324,130341,1,0
324,188,130663,2,0,B|356:124|412:104,1,120,8|0
300,144,131146,6,0,B|236:144|176:116,1,120
316,60,131628,1,0
316,60,131789,1,0
316,60,131950,1,8
217,269,132272,5,2
140,312,132432,1,2
239,103,132754,1,2
316,60,132915,1,2
217,269,133237,6,0,B|128:300|48:240,2,180,4|0|0
188,192,134362,1,0
104,204,134523,2,0,B|60:316,1,120,12|0
24,124,135006,2,0,B|48:240,1,120
92,76,135488,1,0
316,344,135810,6,0,B|352:284|316:224,1,120,12|0
408,152,136293,2,0,B|408:216|376:276,1,120
316,344,136775,1,2
248,268,136936,1,2
148,288,137097,1,14
392,52,137579,5,0
248,268,137901,1,0
148,288,138062,2,0,B|104:244|120:176,1,120,0|12
119,177,138866,1,0
424,248,139349,5,0
376,168,139509,1,0
456,128,139670,1,12
288,324,139992,1,0
288,324,140153,2,0,B|304:200,1,120
303,204,140635,1,0
80,228,140957,6,0,B|120:276|180:296,1,120,12|0
80,196,141439,2,0,B|32:304,1,120
80,168,141922,2,0,B|104:144|144:144,2,60,2|2|14
320,92,142565,5,0
400,128,142726,2,0,B|400:200|336:236,1,120
452,208,143209,1,0
400,128,143370,1,0
472,68,143530,1,12
472,68,144013,1,0
260,300,144495,6,0,B|236:320|204:328,1,60
232,232,144817,2,0,B|232:172|172:120,1,120,12|0
140,208,145300,2,0,B|140:268|200:320,1,120
112,272,145782,2,0,B|84:256|48:256,1,60
140,208,146104,6,0,B|220:192|192:108|284:92,2,180,12|0|2
228,252,147230,1,2
228,252,147391,2,0,B|288:252|344:220,1,120,14|0
340,124,147873,6,0,B|296:80|232:64,1,120
112,60,148356,2,0,B|148:52|184:56,1,60
212,160,148677,2,0,B|188:216|128:264,1,120,10|0
256,296,149160,1,2
256,296,149481,5,0
336,232,149642,1,2
376,144,149803,1,0
396,48,149964,1,10
396,48,150286,1,0
472,112,150447,2,0,B|500:168|476:228,1,120,2|0
404,316,150929,1,2
336,232,151090,1,0
248,304,151251,5,10
248,304,151572,1,0
248,304,151733,1,0
352,96,152055,1,0
352,96,152216,1,0
60,160,152537,6,0,B|40:232|104:268,1,120,10|0
92,88,153020,2,0,B|149:124|129:192,1,120
20,64,153503,1,0
244,276,153824,5,10
476,200,154146,1,0
384,264,154307,1,0
144,236,154628,1,0
244,276,154789,1,0
476,200,155111,6,0,B|436:148|372:152,1,120,10|0
384,264,155593,1,0
384,264,155915,1,0
384,264,156076,1,0
104,128,156398,5,10
104,128,156719,1,0
92,240,156880,1,0
92,240,157202,1,0
180,316,157363,1,0
416,184,157684,5,10
416,184,158006,2,0,B|356:200,1,60
180,316,158489,2,0,B|240:344,1,60
328,100,158971,6,0,B|304:44|204:40|180:104,1,180,10|0
181,100,159775,1,0
181,100,159936,1,0
316,296,160258,2,0,B|344:224|224:220|256:136,2,180,10|0|0
254,141,161545,5,2
