osu file format v9

[General]
AudioFilename: November Sky.mp3
AudioLeadIn: 0
PreviewTime: 52195
Countdown: 0
SampleSet: Soft
StackLeniency: 0.7
Mode: 0
LetterboxInBreaks: 0

[Editor]
Bookmarks: 83,4586,12306,17453
DistanceSpacing: 1.5
BeatDivisor: 4
GridSize: 4

[Metadata]
Title:November Sky
Artist:Yanni
Creator:kazumikos
Version:Advanced
Source:
Tags:Shulin Yiannis Hrysomallis If I Could Tell You

[Difficulty]
HPDrainRate:6
CircleSize:4
OverallDifficulty:6
ApproachRate:7
SliderMultiplier:1.9
SliderTickRate:1

[Events]
//Background and Video events
0,0,"BG2.jpg"
//Break Periods
2,81967,96265
//Storyboard Layer 0 (Background)
//Storyboard Layer 1 (Fail)
//Storyboard Layer 2 (Pass)
//Storyboard Layer 3 (Foreground)
//Storyboard Sound Samples
//Background Colour Transformations
3,100,255,255,255

[TimingPoints]
7138,643.362642075917,4,2,1,40,1,0
52334,-100,4,2,2,40,0,0
53460,-100,4,2,2,40,0,1
53620,-100,4,2,1,40,0,1
81607,-100,4,2,1,40,0,0
81768,-100,4,2,1,60,0,1
81928,-100,4,2,1,40,0,0
132111,-100,4,2,2,40,0,0
133237,-100,4,2,2,40,0,1
133397,-100,4,2,1,40,0,1
161384,-100,4,2,1,40,0,0
161545,-100,4,2,1,60,0,1
161705,-100,4,2,1,60,0,0

[Colours]
Combo1 : 103,139,158
Combo2 : 255,255,255
Combo3 : 241,204,244
Combo4 : 221,128,188
Combo5 : 163,91,172

[HitObjects]
376,156,17431,2,0,B|372:204|332:240,1,95,8|0
276,280,17914,2,0,B|216:228|132:256,1,142.5
144,252,18718,1,8
172,112,19040,2,0,B|184:56,2,47.5
144,252,19683,1,0
260,336,20005,6,0,B|336:336|396:280,2,142.5,8|0|0
268,196,21291,2,0,B|280:152|328:116,1,95,8|0
384,84,21774,6,0,B|352:44|292:44,1,95,0|0
324,120,22257,1,0
156,36,22578,1,8
200,224,22900,5,0
256,268,23061,2,0,B|312:312|396:312,1,142.5
432,176,23865,2,0,B|376:132|292:132,1,142.5,8|0
432,176,24669,2,0,B|484:160,1,47.5
344,84,25152,6,0,B|300:64|248:64,1,95,8|0
312,164,25634,2,0,B|277:130|225:110,1,95
260,232,26117,2,0,B|248:188|200:160,2,95,0|8|0
220,292,26921,2,0,B|160:336|72:336,1,142.5
260,232,27725,2,0,B|308:232|352:248,1,95,8|0
356,320,28208,6,0,B|376:256|376:180,1,142.5
368,36,29012,2,0,B|336:72|332:128,1,95,8|0
376,180,29494,1,0
332,121,29655,2,0,B|272:44,1,95
116,184,30299,6,0,B|148:116|220:84,2,142.5,8|0|0
136,24,31585,1,8
240,148,31907,2,0,B|272:188,1,47.5
412,184,32389,2,0,B|460:184,1,47.5
268,184,32872,2,0,B|219:199|191:251,1,95,8|0
124,240,33355,6,0,B|88:196|136:152|92:96,1,142.5
97,103,34159,1,8
320,68,34641,1,0
444,232,35124,1,0
372,128,35445,2,0,B|324:152|316:200,1,95,8|0
320,68,35928,6,0,B|272:148,1,95
372,128,36411,1,0
176,168,36732,2,0,B|108:196|64:256,1,142.5,8|0
244,232,37536,1,0
244,232,37697,1,0
132,84,38019,5,8
324,76,38341,2,0,B|356:76|384:88,1,47.5
280,136,38662,2,0,B|232:136|180:116,1,95
372,208,39306,2,0,B|372:132|320:72,2,142.5,8|0|0
212,312,40592,5,8
220,124,40914,2,0,B|196:140|188:164,1,47.5
256,184,41236,2,0,B|308:184|352:156,1,95
212,312,41879,2,0,B|168:260|140:184,2,142.5,8|0|0
328,128,43166,6,0,B|364:92|432:100|456:140,2,142.5,8|0|0
360,316,44453,2,0,B|408:256|384:172,1,142.5,8|0
386,181,45257,1,0
386,181,45418,1,0
172,92,45739,6,0,B|200:184,1,95,8|0
120,132,46222,2,0,B|72:216,1,95
140,240,46704,1,0
24,96,47026,2,0,B|44:48|96:28|144:48,1,142.5,8|0
142,47,47830,1,0
142,47,47991,1,0
140,240,48313,6,0,B|192:240|232:208,1,95,8|0
276,156,48795,2,0,B|276:228|252:300,1,142.5
452,196,49599,2,0,B|380:196|316:248,2,142.5,8|0|0
408,140,50725,1,0
360,88,50886,6,0,B|328:64|328:64|276:80|224:80,1,142.5,8|0
60,60,51690,1,0
60,60,51851,2,0,B|108:76|160:76,2,95,0|8|2
60,60,52655,1,2
216,192,52977,2,0,B|256:220,1,47.5,2|2
432,100,53460,6,0,B|392:72|328:100|320:152,2,142.5,4|0|0
392,160,54585,1,0
352,220,54746,2,0,B|392:248|456:220|464:168,1,142.5,12|0
272,84,55551,6,0,B|220:64,2,47.5
236,144,56033,2,0,B|200:200|164:176|124:228,2,142.5,12|0|0
272,84,57159,1,0
224,36,57320,1,12
404,208,57802,5,0
240,300,58124,1,0
172,320,58285,1,0
132,260,58446,1,0
176,204,58607,1,12
332,128,59089,6,0,B|312:204|236:232,1,142.5
176,204,59732,1,0
232,160,59893,2,0,B|272:136|272:72,1,95,12|0
228,20,60376,2,0,B|192:56|192:108,1,95
232,160,60858,1,0
72,312,61180,6,0,B|140:336|212:336,1,142.5,12|0
396,208,62145,2,0,B|424:208|452:216,1,47.5
328,204,62467,2,0,B|280:200|232:172,1,95,12|0
344,132,62949,2,0,B|296:128|252:96,1,95
212,40,63432,6,0,B|184:60|184:92,1,47.5
112,40,63753,2,0,B|152:100|152:176,1,142.5,12|0
416,76,64718,1,0
472,32,64879,1,0
416,76,65040,2,0,B|376:212,1,142.5,12|0
204,320,65844,1,0
268,288,66005,2,0,B|320:264,1,47.5
368,312,66327,6,0,B|328:256|328:176,2,142.5,12|0|0
436,212,67453,2,0,B|412:232|404:252,1,47.5,0|12
380,44,67935,2,0,B|396:64|396:88,1,47.5
220,232,68418,2,0,B|268:232,2,47.5
156,260,68900,6,0,B|116:232|96:172,1,95,10|0
172,92,69383,2,0,B|152:140|152:196,1,95,2|0
28,168,69865,2,0,B|52:128|104:104,1,95,2|10
296,80,70509,1,0
296,80,70670,2,0,B|320:128|360:156,1,95,2|0
424,140,71152,6,0,B|464:116,2,47.5,0|0|10
316,296,71795,1,0
316,296,71956,1,0
120,320,72278,1,0
120,320,72439,1,0
256,120,72760,6,0,B|348:164,1,95,10|0
316,72,73243,2,0,B|408:116,1,95,0|0
376,24,73726,1,0
476,240,74047,6,0,B|476:292|444:332,1,95,10|0
446,328,74530,1,0
336,188,74851,1,0
336,188,75012,1,0
80,184,75334,6,0,B|80:136|112:92,1,95,2|0
188,44,75816,2,0,B|200:88|192:140,1,95
109,95,76299,1,0
260,284,76621,5,10
260,284,76942,1,0
340,228,77103,1,0
340,228,77425,1,0
280,152,77586,1,0
64,300,77907,5,10
116,120,78229,2,0,B|132:68,1,47.5
168,268,78712,2,0,B|216:268,1,47.5
400,92,79194,6,0,B|340:48|264:64,2,142.5,10|0|0
232,128,80481,1,10
448,296,80963,1,0
232,128,81446,2,0,B|200:164|200:220,1,95,0|2
156,152,97208,5,8
156,152,97530,1,0
204,100,97691,2,0,B|256:48|336:48,1,142.5
332,48,98495,1,8
412,196,98817,6,0,B|412:224|400:248,1,47.5
464,304,99138,2,0,B|424:276|364:276,1,95
196,284,99782,2,0,B|160:252|140:208,1,95,8|0
260,260,100264,2,0,B|296:292|316:336,1,95
196,284,100747,1,0
320,116,101068,6,0,B|252:144|216:212,2,142.5,8|0|0
164,88,102355,2,0,B|72:116,1,95,8|0
60,188,102838,6,0,B|52:268|96:336,1,142.5
192,224,103642,2,0,B|200:144|156:76,1,142.5,8|0
162,86,104446,1,0
162,86,104607,1,0
364,24,104929,5,8
192,224,105411,1,0
456,200,105894,1,0
364,24,106215,2,0,B|288:48|268:120,2,142.5,8|0|0
456,200,107502,6,0,B|408:184|376:144,1,95,8|0
328,96,107985,2,0,B|272:44|188:48,1,142.5
197,47,108789,1,8
197,47,109110,1,0
152,100,109271,1,0
220,116,109432,2,0,B|264:128|292:176,1,95
156,256,110076,6,0,B|204:248|244:220,1,95,8|0
264,304,110558,2,0,B|284:160,1,142.5
468,140,111362,1,8
264,304,111845,1,0
28,184,112327,1,0
204,224,112649,6,0,B|356:256,2,142.5,8|0|0
360,176,113936,2,0,B|412:196|420:244,1,95,8|0
484,96,114418,2,0,B|444:128|436:184,1,95
280,172,114901,2,0,B|184:164,1,95,0|8
356,296,115544,6,0,B|308:264,1,47.5
296,76,116027,1,0
296,76,116187,2,0,B|344:96|376:136,1,95,0|8
160,296,116992,5,0
160,296,117313,1,0
160,296,117474,1,0
72,128,117796,2,0,B|92:176|132:208,1,95,8|0
192,232,118278,1,0
160,296,118439,1,0
296,160,118761,1,0
416,308,119083,2,0,B|456:304|472:240|432:208|396:216,2,142.5,8|0|0
432,148,120369,6,0,B|380:132|342:170,1,95,8|0
400,216,120852,1,0
380,284,121013,2,0,B|336:312|280:312,1,95
192,140,121656,2,0,B|192:216|232:276,2,142.5,8|0|0
392,104,122943,6,0,B|296:104,1,95,8|0
364,164,123425,2,0,B|216:200,1,142.5
392,104,124230,1,8
216,320,124712,6,0,B|204:272|160:240,1,95
108,196,125195,2,0,B|108:148|144:108,1,95,0|8
268,264,125838,1,0
268,264,125999,2,0,B|336:300|408:284,1,142.5
320,96,126803,6,0,B|284:24|196:24,2,142.5,8|0|0
140,128,128090,2,0,B|176:200|264:200,2,142.5,8|0|0
320,96,129376,2,0,B|320:172|276:240,2,142.5,8|0|0
140,128,130663,1,8
240,284,130985,5,0
240,284,131146,2,0,B|272:324|328:336,1,95
388,316,131628,2,0,B|424:280|444:232,1,95,0|8
356,76,132272,5,2
356,76,132432,1,2
176,52,132754,1,2
176,52,132915,1,2
264,216,133237,6,0,B|280:72,2,142.5,4|0|0
280,284,134362,2,0,B|292:328,1,47.5,0|12
408,148,135006,6,0,B|408:100|360:68,1,95
300,36,135488,1,0
192,236,135810,6,0,B|144:296|56:296,2,142.5,12|0|2
128,204,136936,1,2
56,200,137097,2,0,B|72:120|144:88,1,142.5,14|0
138,90,137901,1,0
138,90,138062,1,0
344,180,138383,6,0,B|388:208|388:264,1,95,12|0
384,120,138866,2,0,B|336:92|292:128,1,95
416,184,139349,2,0,B|464:212,2,47.5,0|0|12
160,328,140153,6,0,B|212:328|260:308,1,95
320,284,140635,1,0
140,224,140957,2,0,B|204:188|284:188,2,142.5,12|0|2
140,224,142083,1,2
140,224,142244,1,14
440,288,142726,6,0,B|464:248|448:192,1,95
408,88,143209,2,0,B|428:144,1,47.5
360,188,143530,2,0,B|296:240|308:328,2,142.5,12|0|0
348,120,144656,1,0
348,120,144817,2,0,B|256:76,1,95,12|0
196,56,145300,5,0
160,232,145621,2,0,B|152:264|152:292,2,47.5
172,164,146104,2,0,B|136:100|72:56,1,142.5,12|0
160,232,147069,2,0,B|180:256|208:272,1,47.5,2|2
172,164,147391,6,0,B|224:112|308:84,1,142.5,14|0
292,89,148195,1,0
292,89,148356,1,0
424,248,148677,1,10
232,324,148999,1,0
232,324,149160,1,2
352,180,149481,6,0,B|332:196|304:200,1,47.5,0|2
240,208,149803,1,0
168,200,149964,2,0,B|120:192|68:192,1,95,10|0
100,124,150447,2,0,B|128:88|144:40,1,95,2|0
208,72,150929,2,0,B|248:96,2,47.5,0|0|10
428,72,151572,5,0
428,72,151733,1,0
400,264,152055,1,0
400,264,152216,1,0
156,332,152537,6,0,B|204:332|248:308,1,95,10|0
188,244,153020,2,0,B|232:268|288:268,1,95
304,176,153503,1,0
76,264,153824,6,0,B|56:220|56:172,1,95,10|0
80,76,154307,1,0
80,76,154628,1,0
80,76,154789,1,0
324,96,155111,5,10
324,96,155433,1,0
408,160,155593,1,0
408,160,155915,1,0
392,264,156076,1,0
224,60,156398,5,10
224,60,156719,2,0,B|168:76,1,47.5
160,272,157202,2,0,B|216:256,1,47.5
368,72,157684,2,0,B|272:104,1,95,10|0
220,192,158167,2,0,B|316:160,1,95
368,72,158649,1,0
224,272,158971,6,0,B|172:228|140:156,2,142.5,10|0|0
124,88,160258,2,0,B|80:144|56:220,2,142.5,10|0|0
376,192,161545,5,2
