osu file format v9

[General]
AudioFilename: little hippo and crow.mp3
AudioLeadIn: 1000
PreviewTime: -1
Countdown: 0
SampleSet: Soft
StackLeniency: 0.2
Mode: 0
LetterboxInBreaks: 0
SkinPreference:little hippo
EpilepsyWarning: 1

[Editor]
DistanceSpacing: 0.8
BeatDivisor: 6
GridSize: 16

[Metadata]
Title:little hippo and crow
Artist:Yang Taeyeong
Creator:amil12
Version:kinfe
Source:
Tags:little,hippo,crow,korean,

[Difficulty]
HPDrainRate:5
CircleSize:4
OverallDifficulty:6
ApproachRate:7
SliderMultiplier:1.39999990463257
SliderTickRate:0.5

[Events]
//Background and Video events
Video,0,"little hippo and crow.avi"
0,0,"hippo.jpg"
//Break Periods
2,37160,37820
2,52519,55260
2,71720,81660
2,96440,97020
2,114839,116220
2,123080,124380
2,133160,139740
//Storyboard Layer 0 (Background)
//Storyboard Layer 1 (Fail)
//Storyboard Layer 2 (Pass)
//Storyboard Layer 3 (Foreground)
//Storyboard Sound Samples
//Background Colour Transformations
3,100,255,0,128

[TimingPoints]
0,480,4,2,0,41,1,0
26400,960,4,2,0,41,1,0
27360,480,4,2,0,40,1,0
30240,960,4,2,0,41,1,0
31200,480,4,2,0,41,1,0
57120,240,4,2,0,41,1,1
82560,480,4,2,0,41,1,0
117120,240,4,2,0,41,1,1
133440,480,4,2,0,41,1,0
141600,240,4,2,0,41,1,0
142560,480,4,2,0,41,1,0
143520,240,4,2,0,41,1,0
144480,480,4,2,0,41,1,0
145440,240,4,2,0,41,1,0
146400,480,4,2,0,41,1,0
147360,240,4,2,0,41,1,0
148320,480,4,2,0,41,1,0
149280,240,4,2,0,41,1,0
150240,480,4,2,0,41,1,0
151200,240,4,2,0,41,1,0
152160,480,4,2,0,41,1,0
153120,240,4,2,0,41,1,0
154080,480,4,2,0,41,1,0
155040,240,4,2,0,41,1,0
170400,960,4,2,0,41,1,0
171360,1920,4,2,0,41,1,0
173280,240,4,2,0,41,1,1

[Colours]
Combo1 : 255,0,0
Combo2 : 255,128,255
Combo3 : 0,0,0

[HitObjects]
256,192,23040,1,4
256,128,23520,5,8
288,96,23680,1,0
320,64,23840,1,0
400,128,24000,1,8
368,160,24160,1,0
336,192,24320,1,0
128,256,24480,5,8
160,224,24640,1,0
192,192,24800,1,0
256,256,24960,1,8
224,288,25120,1,0
192,320,25280,1,0
192,128,25440,5,8
160,96,25600,1,0
128,64,25760,1,0
176,16,25920,1,8
208,48,26080,1,0
240,80,26240,1,0
288,128,26400,6,8,B|320:160|288:208,1,70,4|4
304,192,27360,5,8
336,160,27520,1,0
368,128,27680,1,0
304,192,27840,1,8
336,224,28000,1,0
368,256,28160,1,0
256,240,28320,5,8
224,272,28480,1,0
192,304,28640,1,0
256,240,28800,1,8
288,272,28960,1,0
320,304,29120,1,0
208,192,29280,5,8
176,160,29440,1,0
144,128,29600,1,0
208,192,29760,1,8
176,224,29920,1,0
144,256,30080,1,0
224,112,30240,6,8,B|256:80|288:112,1,70,4|4
336,144,31200,6,0,B|384:176|352:240,1,93.3333269755044,8|0
304,272,31680,1,8
224,192,32000,1,0
176,144,32160,2,0,B|160:80|64:112,1,93.3333269755044,8|0
96,144,32640,2,0,B|64:208|144:256,1,93.3333269755044,8|0
144,304,33120,5,8
192,256,33280,1,0
240,208,33440,1,0
288,160,33600,1,8
336,112,33760,1,0
384,64,33920,1,0
384,64,34080,2,0,B|432:128|368:160,1,93.3333269755044,8|0
416,304,34880,5,0
272,320,35040,2,0,B|304:272|240:240,1,93.3333269755044,8|0
208,224,35520,1,8
176,144,35840,1,0
224,80,36000,1,8
256,64,36320,1,0
336,48,36560,1,8
400,128,36800,1,0
368,160,36960,1,8
256,112,38720,5,0
320,144,38880,2,0,B|368:160|368:240,1,93.3333269755044,8|0
288,288,39360,1,8
192,288,39680,1,0
96,304,39840,2,0,B|64:256|112:224,1,93.3333269755044,8|0
160,176,40640,5,0
224,112,40800,2,0,B|272:64|320:144,1,93.3333269755044,8|0
384,160,41280,1,8
416,256,41600,1,0
352,272,41760,2,0,B|288:304|288:224,1,93.3333269755044,8|0
176,144,42560,5,0
256,144,42720,2,0,B|304:160|304:240,1,93.3333269755044,8|0
288,288,43200,1,8
368,304,43520,1,0
400,240,43680,1,8
400,144,44000,5,0
336,96,44160,2,0,B|256:64|208:112,1,93.3333269755044,8|0
64,288,44640,6,4,B|64:112,1,139.999990463257
448,144,45600,2,4,B|448:288,1,139.999990463257
448,144,46560,6,0,B|416:64|352:80,1,93.3333269755044
304,80,47040,1,8
192,112,47360,1,0
128,256,47520,2,0,B|96:208|144:176,1,93.3333269755044,8|0
160,320,48320,5,0
208,224,48480,2,0,B|256:240|256:320,1,93.3333269755044,8|0
256,160,48960,1,8
368,128,49280,1,0
400,240,49440,2,0,B|352:304|288:240,1,93.3333269755047,8|0
144,160,50240,5,0
208,96,50400,2,0,B|256:32|320:112,1,93.3333269755044,8|0
368,112,50880,1,8
432,176,51200,1,0
368,240,51360,1,8
304,176,51680,1,0
96,176,51840,6,4,B|176:112|240:208,1,139.999990463257
80,176,56160,5,8
112,144,56320,1,0
144,112,56480,1,0
176,96,56640,6,0,B|256:192,1,93.3333269755047,8|0
384,192,57120,6,4,B|224:352,1,186.666653951009,4|4
256,192,57600,2,4,B|416:352,1,186.666653951009,4|4
80,112,58080,5,8
112,144,58240,1,0
144,160,58400,1,0
176,176,58560,5,8
208,160,58720,1,0
240,128,58880,1,0
384,192,59040,6,4,B|224:352,1,186.666653951009,4|4
256,192,59520,2,4,B|416:352,1,186.666653951009,4|4
112,256,60000,5,8
144,240,60160,1,0
176,208,60320,1,0
208,176,60480,6,0,B|256:128|288:192,2,93.3333269755047,8|0|8
400,288,60960,5,4
288,192,61440,1,4
336,64,61680,5,0
224,32,61920,1,8
112,96,62160,1,0
80,320,62400,5,8
80,320,62520,1,0
80,320,62640,1,0
384,96,62880,5,4
80,320,63360,1,4
128,96,63840,5,8
128,96,63960,1,0
128,96,64080,2,0,B|160:48|208:112,1,93.3333269755047
304,64,64320,5,8
304,64,64440,1,0
304,64,64560,2,0,B|240:64|224:128,1,93.3333269755047
240,160,64800,6,4,B|368:352,1,186.666653951009,4|4
224,304,65280,2,4,B|368:160,1,186.666653951009,4|4
112,176,65760,5,8
160,80,65920,1,0
256,48,66080,1,0
384,112,66240,5,8
384,112,66400,1,0
384,112,66560,1,0
352,160,66720,6,4,B|240:336,1,186.666653951009,4|4
240,176,67200,2,4,B|384:304,1,186.666653951009,4|4
96,128,67680,5,8
112,80,67840,1,0
144,48,68000,1,0
272,64,68160,6,0,B|368:48|288:144,2,93.3333269755047,8|0|8
48,352,68640,5,4
288,128,69120,1,4
256,48,69440,1,0
146,51,69600,1,0
83,128,69840,1,0
84,129,70080,6,4,B|4:193|180:177|52:257,1,139.999990463257
256,320,70560,5,0
368,288,70880,1,0
432,192,71040,1,0
368,80,71360,1,0
256,32,71520,1,0
256,192,82560,21,4
128,128,83040,5,8
176,80,83200,1,0
240,64,83360,1,0
400,256,83520,1,8
368,320,83680,1,0
304,336,83840,1,0
336,64,84000,5,8
384,112,84160,1,0
400,176,84320,1,0
208,320,84480,1,8
160,272,84640,1,0
128,208,84800,1,0
256,112,84960,5,8
208,128,85120,1,0
192,176,85280,1,0
208,224,85440,1,8
256,240,85600,1,0
304,224,85760,1,0
320,160,85920,2,4,B|272:64|192:144,1,139.999990463257
96,80,86880,5,8
112,128,87040,1,0
144,80,87200,1,0
160,128,87360,1,8
192,80,87520,1,0
208,128,87680,1,0
368,80,87840,5,8
400,112,88000,1,0
416,160,88160,1,0
400,192,88320,1,8
384,224,88480,1,0
352,256,88640,1,0
144,64,88800,5,8
96,224,88960,1,0
224,112,89120,1,0
64,112,89280,1,8
208,224,89440,1,0
144,64,89600,1,0
256,84,89760,6,4,B|248:96|248:96|264:104|264:104|248:108|248:108|264:116|264:116|248:120|248:120|264:128|264:128|248:136|248:136|264:140|264:140|248:144|248:144|264:152|264:152|256:152,1,139.999990463257
288,96,90720,6,0,B|336:64|368:128,1,93.3333269755047,8|0
400,192,91200,1,8
352,272,91520,1,0
240,288,91680,2,0,B|176:336|128:256,1,93.3333269755047,8|0
96,144,92160,2,0,B|64:208|144:256,1,93.3333269755044,8|0
256,224,92640,6,0,B|208:208|192:144,1,93.3333269755047,8|0
256,144,93120,2,0,B|288:144|320:224,1,93.3333269755047,8|0
144,128,93600,2,0,B|176:80|192:128,2,69.9999952316285,8|0|8
368,192,94400,5,0
334,279,94560,2,0,B|318:311|254:279,1,69.9999952316285,8|0
272,288,95040,1,8
192,240,95360,1,0
176,192,95520,1,8
176,144,95840,1,0
320,80,96000,1,8
352,112,96240,1,0
256,192,97920,5,4
256,112,98240,5,0
320,144,98400,2,0,B|320:208|384:192,1,93.3333269755047,8|0
208,144,98880,2,0,B|208:208|144:192,1,93.3333269755047,8|0
208,80,99360,2,0,B|256:32|320:80,1,116.666658719381,8|0
144,224,100160,5,0
221,178,100320,2,0,B|269:130|301:194,1,93.3333269755047,8|0
287,185,100800,2,0,B|255:249|211:166,1,93.3333269755047,8|0
192,128,101280,2,0,B|256:64|320:144,1,139.999990463257,8|0
128,272,102080,5,0
320,288,102240,2,0,B|272:320|208:288,1,116.666658719381,8|0
400,272,102720,1,8
160,224,103040,1,0
192,176,103200,1,8
384,208,103520,5,0
336,144,103680,2,0,B|256:112|208:160,1,93.3333269755044,8|0
32,192,104160,6,4,B|160:96,1,139.999990463257
464,192,105120,2,4,B|336:288,1,139.999990463257
256,192,105920,6,0,B|304:160,2,46.6666634877523,0|0|0
208,240,106560,2,0,B|208:304|144:320,1,93.3333269755047,8|0
112,272,107040,2,0,B|112:192|176:208,1,93.3333269755047,8|0
208,176,107840,5,0
224,112,108000,2,0,B|272:128|272:208,1,93.3333269755044,8|0
336,176,108480,1,8
240,48,108800,1,0
192,256,108960,2,0,B|112:272|128:192,1,116.666658719381,8|0
144,160,109760,5,0
208,96,109920,2,0,B|256:32|320:112,1,93.3333269755044,8|0
368,112,110400,1,8
432,176,110720,1,0
368,240,110880,1,8
304,176,111200,1,0
208,176,111360,1,0
112,176,111600,1,0
240,16,111840,5,4
480,352,112320,1,4
32,352,112800,1,4
256,80,113280,2,4,B|240:96|240:96|272:112|272:112|240:128|240:128|272:144|272:144|240:160|240:160|272:176|272:176|240:192|240:192|272:208|272:208|240:224|240:224|272:240|272:240|240:256|240:256|272:272,1,396.666639645895
256,192,117120,5,4
176,192,117600,5,8
192,128,117760,1,0
256,112,117920,1,0
336,192,118080,1,8
320,256,118240,1,0
256,272,118400,1,0
336,96,118560,6,4,B|336:304,1,186.666653951009,4|0
405,265,119040,2,4,B|340:322|340:322|263:254,1,186.666653951009,4|0
176,192,119520,5,8
192,128,119680,1,0
256,112,119840,1,0
336,192,120000,5,8
320,256,120160,1,0
256,288,120320,1,0
336,96,120480,6,4,B|336:304,1,186.666653951009,4|0
405,265,120960,2,4,B|340:322|340:322|263:254,1,186.666653951009,4|0
144,176,121440,5,0
192,128,121600,1,0
256,112,121760,1,0
336,192,121920,5,8
320,256,122080,1,0
256,288,122240,1,0
480,32,122400,5,4
32,352,122880,1,4
64,192,125280,5,8
64,192,125400,1,0
64,192,125520,2,0,B|80:128|128:160,1,69.9999952316285
176,64,125760,6,8,B|176:96|176:96|208:64|208:64|208:112,2,93.3333269755047
320,112,126240,6,4,B|320:320,1,186.666653951009,4|0
389,281,126720,2,4,B|324:338|324:338|247:270,1,186.666653951009,4|0
304,48,127200,5,8
304,48,127320,1,0
304,48,127440,2,0,B|384:32|352:80,1,69.9999952316285
448,208,127680,6,8,B|448:240|448:240|432:208|432:208|480:256,2,93.3333269755047
320,112,128160,6,4,B|320:320,1,186.666653951009,4|0
389,281,128640,2,4,B|324:338|324:338|247:270,1,186.666653951009,4|0
80,144,129120,5,8
80,144,129240,1,0
80,144,129360,2,0,B|128:96|144:160,1,69.9999952316285
176,192,129600,6,8,B|176:256|176:256|176:224|176:224|160:256,2,93.3333269755047
320,112,130080,6,4,B|320:320,1,186.666653951009,4|0
389,281,130560,2,4,B|324:338|324:338|247:270,1,186.666653951009,4|0
112,176,131040,5,8
128,256,131560,1,8
256,320,132000,5,0
368,288,132320,1,0
432,192,132480,1,0
368,80,132800,1,0
256,32,132960,1,4
192,192,140640,38,0,B|208:128|256:128,1,93.3333269755047
320,192,141120,2,0,B|304:256|256:256,1,93.3333269755047
129,176,141600,2,0,B|161:48|285:69,1,186.666653951009
392,212,142080,2,0,B|338:349|216:319,1,186.666653951009
192,192,142560,22,0,B|176:256|256:256,1,93.3333269755047
320,192,143040,2,0,B|336:128|272:128,1,93.3333269755047
127,187,143520,2,0,B|110:327|262:312,1,186.666653951009
386,197,144000,2,0,B|400:80|288:64,1,186.666653951009
192,192,144480,6,0,B|208:128|256:128,1,93.3333269755047
320,192,144960,2,0,B|304:256|256:256,1,93.3333269755047
266,65,145440,2,0,B|153:52|119:193,1,186.666653951009
250,317,145920,2,0,B|369:333|387:173,1,186.666653951009
192,192,146400,22,0,B|176:256|256:256,1,93.3333269755047
320,193,146880,2,0,B|336:129|272:129,1,93.3333269755047,0|0
248,321,147360,2,0,B|110:313|124:174,1,186.666653951009
289,63,147840,2,0,B|400:80|390:202,1,186.666653951009
192,192,148320,6,0,B|208:128|256:128,1,93.3333269755047
320,192,148800,2,0,B|304:256|256:256,1,93.3333269755047
129,176,149280,2,0,B|161:48|285:69,1,186.666653951009
392,212,149760,2,0,B|338:349|216:319,1,186.666653951009
192,192,150240,22,0,B|176:256|256:256,1,93.3333269755047
320,192,150720,2,0,B|336:128|272:128,1,93.3333269755047
127,187,151200,2,0,B|110:327|262:312,1,186.666653951009
386,197,151680,2,0,B|400:80|288:64,1,186.666653951009
192,192,152160,6,0,B|208:128|256:128,1,93.3333269755047
320,192,152640,2,0,B|304:256|256:256,1,93.3333269755047
266,65,153120,2,0,B|153:52|119:193,1,186.666653951009
250,317,153600,2,0,B|369:333|387:173,1,186.666653951009
192,192,154080,22,0,B|176:256|256:256,1,93.3333269755047
320,193,154560,2,0,B|336:129|272:129,1,93.3333269755047,0|0
248,321,155040,2,0,B|110:313|124:174,1,186.666653951009
289,63,155520,2,0,B|400:80|390:202,1,186.666653951009
288,288,156000,5,8
288,288,156160,1,0
288,288,156320,1,0
288,64,156480,1,8
288,64,156640,1,0
288,64,156800,1,0
256,32,156960,2,0,B|128:48|144:192,1,186.666653951009
143,158,157440,2,0,B|158:300|279:308,1,186.666653951009
288,288,157920,5,8
288,288,158080,1,0
288,288,158240,1,0
288,80,158400,1,8
288,80,158560,1,0
288,80,158720,1,0
256,32,158880,2,0,B|128:48|144:192,1,186.666653951009
143,158,159360,2,0,B|158:300|279:308,1,186.666653951009
288,304,159840,5,8
288,304,160000,1,0
288,304,160160,1,0
288,80,160320,1,8
288,80,160480,1,0
288,80,160640,1,0
256,32,160800,2,0,B|128:48|144:192,1,186.666653951009
142,155,161360,1,0
256,96,161680,5,0
256,96,161840,2,0,B|256:192|128:224,1,186.666653951009,8|0
144,224,162320,2,0,B|220:247|220:343,1,139.999990463257,8|0
160,96,162720,2,0,B|352:304,2,279.999980926514,0|0|8
160,96,163840,5,0
160,96,164000,1,0
160,96,164160,1,8
160,96,164320,1,0
160,96,164480,1,0
352,112,164640,2,2,B|352:352,2,233.333317438762
352,112,165600,5,8
352,112,165760,1,0
352,112,165920,1,0
352,112,166080,1,8
352,112,166240,1,0
352,112,166400,1,0
352,112,166560,22,2,B|352:352,2,233.333317438762,2|2|2
352,112,167520,5,8
352,112,167680,1,0
352,112,167840,1,0
352,112,168000,1,8
352,112,168160,1,0
352,112,168320,1,0
352,112,168480,22,2,B|352:352,1,233.333317438762
352,345,169200,1,0
208,320,169440,1,0
128,304,169680,1,0
64,240,169920,1,0
80,144,170400,6,0,B|48:96|112:112,1,46.6666634877523
128,80,170880,1,0
224,80,171200,1,0
320,160,171360,6,0,B|384:192|336:256,1,116.666658719381
256,336,173280,5,8
336,304,173440,1,0
384,224,173600,1,0
384,144,173760,1,8
336,64,173920,1,0
256,32,174080,1,0
256,32,174240,2,0,B|128:48|144:192,1,186.666653951009,4|0
143,158,174720,2,0,B|158:300|279:308,1,186.666653951009,4|0
256,336,175200,5,8
176,304,175360,1,0
112,240,175520,1,0
80,160,175680,1,8
112,64,175840,1,0
192,32,176000,1,0
304,96,176160,2,0,B|304:160|304:160|304:240|320:240|384:224,1,186.666653951009,4|0
208,96,176640,2,0,B|208:160|208:160|208:240|192:240|128:224,1,186.666653951009,4|0
80,112,177200,6,0,B|96:192|96:192|32:256,1,139.999990463257,8|0
57,230,177600,1,8
96,304,177760,1,0
176,288,177920,1,0
288,160,178080,2,0,B|160:176|176:320,1,186.666653951009,4|0
176,288,178560,1,4
368,80,178960,5,0
416,128,179120,1,0
432,192,179360,1,0
416,256,179600,1,8
368,320,179840,1,0
304,128,180080,2,4,B|272:176|272:176|320:192|320:192|272:224|272:224|320:256|320:256|272:272|288:272,1,233.333317438762
256,80,180960,5,8
256,304,181120,1,0
336,112,181280,1,0
176,272,181440,1,8
368,192,181600,1,0
144,192,181760,1,0
256,192,181920,21,4
256,192,182400,1,4
256,80,182880,21,8
256,304,183040,1,0
176,112,183200,1,0
336,272,183360,1,8
144,192,183520,1,0
368,192,183680,1,0
256,192,183840,5,4
256,192,184320,1,4
256,96,184800,6,0,B|256:320,1,186.666653951009,8|0
368,192,185280,1,8
256,288,185440,1,0
144,192,185600,1,0
256,192,185760,21,4
256,192,186240,1,4
120,78,186640,5,0
170,172,186800,1,0
345,172,187040,1,0
383,57,187280,1,8
250,71,187520,1,0
352,240,187760,2,0,B|240:336|108:210,1,233.333317438762,4|0
151,103,188480,5,0
199,158,188640,1,0
243,162,188880,1,0
261,100,189120,1,8
212,68,189360,1,0
168,311,189600,2,0,B|187:222|187:222|222:313|222:313|254:222,1,279.999980926514,4|0
400,64,190400,5,0
352,96,190560,1,0
96,96,190800,1,0
144,128,191040,1,8
256,192,191280,1,0
256,192,191520,12,0,193440
