osu file format v9

[General]
AudioFilename: yangwang yangchenglin.mp3
AudioLeadIn: 2007
PreviewTime: -1
Countdown: 0
SampleSet: Soft
StackLeniency: 0.6
Mode: 0
LetterboxInBreaks: 1

[Editor]
DistanceSpacing: 0.8
BeatDivisor: 4
GridSize: 4

[Metadata]
Title:Yang Wang
Artist:Yang Chenglin
Creator:yi11031024
Version:Normal
Source:
Tags:cpop

[Difficulty]
HPDrainRate:4
CircleSize:4
OverallDifficulty:3
ApproachRate:4
SliderMultiplier:1.20000000596046
SliderTickRate:1

[Events]
//Background and Video events
0,0,"b50d8618c5710dc44aedbcf6.png"
//Break Periods
2,165796,176079
//Storyboard Layer 0 (Background)
//Storyboard Layer 1 (Fail)
//Storyboard Layer 2 (Pass)
//Storyboard Layer 3 (Foreground)
Sprite,Foreground,Centre,"BS\g14.png",320,240 F,0,60851,61342,0.04255997,1 F,0,61342,61834,1 F,0,61834,62326,1,0.1552
//Storyboard Sound Samples
//Background Colour Transformations
3,100,163,162,255

[TimingPoints]
16088,491.803278688525,4,2,1,30,1,0
51506,-100,4,2,1,50,0,1
67282,-100,4,2,1,50,0,1
82982,-100,4,2,1,30,0,0
118392,-100,4,2,1,50,0,1
134129,-100,4,2,1,50,0,1
149867,-100,4,2,1,30,0,0
181342,-100,4,2,1,50,0,1
197080,-100,4,2,1,30,0,0

[Colours]
Combo1 : 255,255,128
Combo2 : 255,128,255
Combo3 : 128,255,255
Combo4 : 128,255,128
Combo5 : 255,128,128

[HitObjects]
48,88,16087,1,0
144,88,16579,1,0
240,88,17071,2,0,B|352:88|352:88|472:128|472:128,1,240.000001192092
480,224,18547,6,0,B|477:365,1,120.000000596046
428,344,19284,2,0,B|356:344,1,60.000000298023
328,264,20022,5,0
296,296,20268,1,0
264,336,20514,1,0
168,336,21006,2,0,B|232:224|232:224|336:176|336:176,1,240.000001192092
392,104,22481,6,0,B|536:104,2,120.000000596046
312,48,23956,2,0,B|264:16|232:16|192:56,1,120.000000596046
208,96,24694,1,2
208,144,24940,2,0,B|160:176|128:176|88:136,1,120.000000596046
64,176,25678,1,2
64,224,25924,6,0,B|112:256|144:256|192:232,1,120.000000596046
224,256,26661,1,2
256,288,26907,2,0,B|352:184,1,120.000000596046
384,224,27645,1,0
432,224,27891,5,0
432,128,28383,1,0
376,48,28874,1,0
296,104,29366,1,0
200,80,29858,5,0
152,96,30104,1,0
112,120,30350,1,0
80,208,30842,6,0,B|232:208|232:208|232:320|232:320,1,240.000001192092
328,296,32317,1,0
424,296,32809,2,0,B|424:168,1,120.000000596046
328,176,33792,5,0
272,248,34284,1,0
192,296,34776,1,0
144,288,35022,1,0
120,248,35268,1,0
104,152,35760,5,0
152,152,36006,1,0
200,152,36251,2,0,B|280:64|280:64,1,120.000000596046
376,40,37235,1,0
424,120,37727,5,0
424,168,37973,1,0
400,208,38219,1,0
320,264,38710,6,0,B|256:200|344:152|328:88|240:64,1,240.000001192092
176,136,40186,21,2
104,72,40678,54,0,B|40:96|-8:176|128:208|56:288,1,240.000001192092
160,272,42153,1,0
240,328,42645,1,0
336,320,43137,1,0
432,320,43628,6,0,B|472:256|440:192,1,120.000000596046
376,144,44612,2,0,B|336:208|368:272,1,120.000000596046
264,256,45596,5,2
176,208,46088,1,2
264,160,46579,1,2
344,208,47071,1,2
440,216,47563,6,0,B|440:360,3,120.000000596046
368,272,49530,6,0,B|233:273,1,120.000000596046
152,264,50514,2,0,B|88:264,2,60.000000298023,12|4|12
144,168,51497,6,8,B|144:32,3,120.000000596046
240,48,53465,5,2
328,88,53956,1,2
416,120,54448,1,4
448,152,54694,1,4
464,200,54940,1,4
392,264,55432,6,8,B|288:336,3,120.000000596046
208,376,57399,5,2
120,336,57891,1,2
48,272,58383,1,4
56,224,58628,1,4
88,192,58874,1,4
184,192,59366,6,0,B|328:192|328:192|328:304|328:304|208:304|208:304,1,360.000001788138
128,304,61333,5,2
128,208,61825,1,2
128,112,62317,1,0
256,192,62809,12,0,64284
40,208,64776,6,8,B|88:136,1,60.000000298023
120,176,65268,2,8,B|160:104,1,60.000000298023
200,120,65760,2,8,B|272:120,1,60.000000298023
296,88,66251,2,8,B|376:88,1,60.000000298023
408,88,66743,1,0
456,168,67235,5,2
408,248,67727,1,2
328,200,68219,1,4
280,200,68465,1,4
232,200,68710,1,4
232,296,69202,6,0,B|296:296,2,60.000000298023
288,216,70186,2,0,B|360:216,2,60.000000298023
288,120,71169,5,2
384,144,71661,1,2
400,48,72153,1,4
352,48,72399,1,4
304,48,72645,1,4
200,64,73137,6,8,B|120:64,1,60.000000298023
144,112,73628,2,8,B|144:176,1,60.000000298023
144,224,74120,2,8,B|144:296|144:296,1,60.000000298023
144,336,74612,2,8,B|64:336|64:336,1,60.000000298023
70,289,75104,5,0
76,193,75596,1,2
76,144,75842,1,2
79,96,76088,1,2
184,64,76579,1,0
184,160,77071,6,0,B|184:296,3,120.000000596046
280,280,79038,6,0,B|280:144,3,120.000000596046
472,192,81497,5,0
299,108,82481,1,0
365,178,82973,6,0,B|232:281|178:8|53:186,1,360.000001788138
134,237,84940,6,0,B|134:309,2,60.000000298023
210,295,85924,2,0,B|210:215|210:215,2,60.000000298023
304,313,86907,6,0,B|432:281|440:73|280:65,1,360.000001788138
280,160,88874,5,0
256,256,89366,1,0
184,192,89858,2,0,B|184:336,1,120.000000596046
288,312,90842,5,0
288,264,91088,1,0
288,216,91333,1,0
288,120,91825,1,0
288,120,92071,1,0
288,120,92317,1,0
208,152,92809,5,0
208,200,93055,1,0
208,248,93301,1,0
304,320,93792,2,0,B|304:240,2,60.000000298023
362,243,94776,2,0,B|427:132|427:132|375:128|375:128|336:67|336:67,1,240.000001192092
248,88,96251,1,0
152,101,96743,5,0
87,172,97235,1,0
152,240,97727,1,0
184,208,97973,1,0
216,176,98219,1,0
304,136,98710,6,0,B|416:216|416:216|304:336|304:336|248:296|248:296,1,360.000001788138
176,256,100678,6,0,B|120:216,2,60.000000298023
136,160,101661,1,0
192,88,102153,1,0
280,64,102645,6,0,B|400:96|448:264|256:336,1,360.000001788138
256,232,104612,5,0
256,136,105104,1,0
184,200,105596,2,0,B|152:280|152:280,2,60.000000298023
104,248,106579,5,0
56,216,106825,1,0
56,168,107071,1,0
56,72,107563,1,0
128,136,108055,1,0
160,48,108547,5,0
208,48,108792,1,0
256,48,109038,1,0
352,48,109530,1,0
448,48,110022,1,0
480,136,110514,6,0,B|352:136|352:136,1,120.000000596046
352,232,111497,2,0,B|432:344|432:344,1,120.000000596046
324,328,112481,5,0
232,328,112973,1,0
136,328,113465,1,0
96,300,113710,1,0
72,260,113956,1,0
40,168,114448,6,0,B|184:168|184:168,3,120.000000596046
196,180,116169,1,0
292,184,116661,5,0
388,184,117153,1,0
436,184,117399,2,8,B|508:184,2,60.000000298023
392,100,118383,6,8,B|264:100,3,120.000000596046
176,100,120350,5,0
104,164,120842,1,0
84,256,121333,2,4,B|164:296,1,90.0000004470345
184,176,122317,6,8,B|320:176,3,120.000000596046
352,176,124038,1,0
400,176,124284,6,0,B|400:40,1,120.000000596046
352,56,125022,1,0
304,56,125268,2,0,B|304:176,1,120.000000596046
208,176,126251,6,8,B|120:176,2,60.000000298023
152,256,127235,2,8,B|80:256,2,60.000000298023
216,328,128219,5,0
224,232,128710,1,0
304,288,129202,1,2
304,240,129448,1,2
304,192,129694,1,2
312,96,130186,6,8,B|376:144,1,60.000000298023
400,152,130678,2,8,B|472:152,1,60.000000298023
464,200,131169,1,2
440,240,131415,1,0
392,256,131661,1,2
296,264,132153,6,8,B|224:264,2,60.000000298023
248,176,133137,2,8,B|328:176,2,60.000000298023
152,176,134120,6,0,B|32:176|32:176|-32:296|-32:296|88:296|88:296,1,360.000001788138
168,288,136088,6,8,B|248:288,2,60.000000298023
224,208,137071,2,8,B|160:208,2,60.000000298023
296,264,138055,6,0,B|424:264|424:264|376:136|376:136|280:136|280:136,1,360.000001788138
208,200,140022,6,8,B|208:72,3,120.000000596046
304,72,141989,5,0
352,152,142481,1,2
312,176,142727,1,2
264,160,142973,1,2
168,136,143465,1,0
160,232,143956,6,0,B|24:232,2,120.000000596046
40,184,145432,1,0
256,192,145924,12,0,148383
120,64,149858,6,2,B|248:64,1,120.000000596046
240,160,150842,2,2,B|104:160,1,120.000000596046
40,208,151825,2,0,B|56:272|132:289,1,120.000000596046
226,289,152809,1,2
226,289,153055,1,0
226,289,153301,1,0
320,288,153792,6,2,B|416:176,2,120.000000596046
240,232,155268,1,2
160,176,155760,1,2
256,168,156251,5,2
168,120,156743,1,2
72,128,157235,1,2
72,224,157727,6,0,B|136:256,1,60.000000298023
168,264,158219,1,2
272,264,158710,2,2,B|328:216,1,60.000000298023
352,192,159202,1,2
360,96,159694,5,2
320,8,160186,1,0
256,72,160678,1,2
256,72,160924,1,2
256,72,161169,1,2
176,120,161661,6,0,B|128:160,2,60.000000298023
176,216,162645,2,0,B|176:304,2,60.000000298023
272,216,163628,2,0,B|400:216,1,120.000000596046
392,120,164612,2,0,B|256:120,1,120.000000596046
208,192,165596,1,0
256,192,177399,12,0,180350
168,56,181333,6,8,B|104:24|40:56,1,120.000000596046
56,96,182071,1,0
48,144,182317,2,8,B|104:184|160:144,1,120.000000596046
208,144,183055,1,0
256,144,183301,6,8,B|312:88|248:24,3,120.000000596046
360,48,185268,6,8,B|464:144,1,120.000000596046
448,176,186006,1,0
448,224,186251,2,8,B|352:320|352:320,1,120.000000596046
296,240,187235,5,0
224,176,187727,1,0
136,224,188219,2,0,B|72:280,1,60.000000298023
56,296,188710,1,0
56,200,189202,6,0,B|56:120,1,60.000000298023
92,108,189694,1,0
92,108,189940,1,0
92,108,190186,1,0
184,140,190678,2,0,B|184:204,1,60.000000298023
208,240,191169,5,0
206,242,191415,1,0
206,242,191661,1,0
288,192,192153,1,0
192,192,192645,1,0
256,192,193137,12,0,197071
