osu file format v9

[General]
AudioFilename: yangwang yangchenglin.mp3
AudioLeadIn: 2007
PreviewTime: -1
Countdown: 0
SampleSet: Soft
StackLeniency: 0.6
Mode: 0
LetterboxInBreaks: 1

[Editor]
Bookmarks: 51409,82885
DistanceSpacing: 1
BeatDivisor: 4
GridSize: 4

[Metadata]
Title:Yang Wang
Artist:Yang Chenglin
Creator:yi11031024
Version:Hard
Source:
Tags:cpop

[Difficulty]
HPDrainRate:5
CircleSize:4
OverallDifficulty:6
ApproachRate:7
SliderMultiplier:1.50000000596046
SliderTickRate:1

[Events]
//Background and Video events
0,0,"b50d8618c5710dc44aedbcf5.png"
//Break Periods
//Storyboard Layer 0 (Background)
//Storyboard Layer 1 (Fail)
//Storyboard Layer 2 (Pass)
//Storyboard Layer 3 (Foreground)
Sprite,Foreground,Centre,"BS\g14.png",320,240 F,0,60851,61342,0.04255997,1 F,0,61342,61834,1 F,0,61834,62326,1,0.1552 M,0,62203,,379,247
//Storyboard Sound Samples
//Background Colour Transformations
3,100,163,162,255

[TimingPoints]
16088,491.803278688525,4,2,1,30,1,0
51506,-100,4,2,1,50,0,1
67282,-100,4,2,1,50,0,1
82982,-100,4,2,1,30,0,0
118392,-100,4,2,1,50,0,1
134129,-100,4,2,1,50,0,1
149867,-100,4,2,1,30,0,0
181342,-100,4,2,1,50,0,1
197080,-100,4,2,1,30,0,0

[Colours]
Combo1 : 255,255,128
Combo2 : 255,128,255
Combo3 : 128,255,255
Combo4 : 128,255,128
Combo5 : 255,128,128

[HitObjects]
64,64,16087,5,2
32,132,16333,1,2
64,200,16579,1,2
96,132,16825,2,0,B|256:132,1,150.000000596046
320,128,17563,1,2
228,244,18055,5,2
288,292,18301,2,0,B|392:172,1,150.000000596046
440,124,19038,2,0,B|304:8,1,150.000000596046
324,176,20022,6,0,B|324:264,2,75.000000298023
248,164,20760,2,0,B|168:80|268:16,1,150.000000596046
284,96,21497,1,0
284,248,21989,1,0
168,344,22481,5,2
108,296,22727,1,2
136,228,22973,1,2
212,232,23219,1,2
228,304,23465,1,2
376,324,23956,5,2
436,276,24202,1,2
364,252,24448,1,2
328,188,24694,2,0,B|252:120|336:52,1,150.000000596046
364,128,25432,1,2
400,192,25678,6,0,B|480:104|372:44,1,150.000000596046
324,64,26415,1,2
248,64,26661,2,0,B|160:64,1,75.000000298023
100,72,27153,1,2
48,128,27399,1,2
16,276,27891,6,0,B|112:308,1,75.000000298023
160,316,28383,1,0
204,256,28628,1,2
272,292,28874,2,0,B|328:216,1,75.000000298023
252,192,29366,6,0,B|92:192,2,150.000000596046
384,116,30842,1,2
384,264,31333,1,2
256,184,31825,6,0,B|200:248,1,75.000000298023
136,272,32317,1,2
120,344,32563,2,0,B|280:344,1,150.000000596046
344,336,33301,1,0
460,244,33792,5,2
460,168,34038,1,2
392,200,34284,1,0
316,200,34530,1,2
316,124,34776,2,0,B|316:20,1,75.000000298023
240,52,35268,1,2
88,52,35760,6,0,B|16:204,2,150.000000596046
140,192,37235,5,0
292,192,37727,1,0
444,192,38219,2,0,B|364:120,1,75.000000298023
332,92,38710,1,0
444,192,39202,1,2
364,316,39694,5,2
364,240,39940,1,2
364,164,40186,1,2
356,88,40432,2,0,B|204:136,1,150.000000596046
140,112,41169,1,0
80,160,41415,6,0,B|120:256,1,75.000000298023
92,304,41907,1,0
168,304,42153,1,2
244,300,42399,2,0,B|228:212|308:164,1,150.000000596046
248,116,43137,1,2
360,32,43628,6,0,B|432:32|488:32|512:32,3,150.000000596046
476,100,45350,1,0
500,172,45596,6,0,B|516:252|444:316,1,150.000000596046
408,256,46333,1,0
456,312,46579,1,2
408,256,46825,1,2
456,312,47071,1,2
316,260,47563,5,0
268,200,47809,1,2
324,148,48055,2,0,B|404:148,1,75.000000298023
404,224,48547,2,0,B|364:304,3,75.000000298023
304,324,49530,5,2
172,248,50022,1,0
48,176,50514,2,0,B|48:264,2,75.000000298023
152,284,51497,5,2
128,356,51743,1,2
200,344,51989,1,2
276,336,52235,2,8,B|348:240|284:120,1,225.000000894069
276,48,53219,6,8,B|100:48,1,150.000000596046
52,48,53956,1,0
56,200,54448,1,2
56,200,54694,1,2
56,200,54940,1,2
176,288,55432,5,2
136,352,55678,1,2
208,352,55924,1,2
256,296,56169,2,8,B|366:342|467:251,1,225.000000894069
480,176,57153,6,0,B|400:128,1,75.000000298023
408,64,57645,2,0,B|256:64,1,150.000000596046
184,64,58383,1,2
184,64,58628,1,2
184,64,58874,1,2
160,208,59366,6,8,B|64:216|24:288,1,150.000000596046
96,312,60104,1,2
160,280,60350,1,2
296,216,60842,6,8,B|240:296|320:352,1,150.000000596046
376,304,61579,1,2
376,232,61825,1,2
504,304,62317,2,8,B|504:216,2,75.000000298023
432,176,63301,5,2
352,48,63792,2,0,B|352:144,1,75.000000298023
288,88,64284,2,0,B|288:184,1,75.000000298023
224,120,64776,2,0,B|224:200,1,75.000000298023
160,152,65268,6,0,B|160:232,1,75.000000298023
88,232,65760,1,0
88,304,66006,1,0
160,320,66251,2,0,B|248:320,1,75.000000298023
200,248,66743,2,0,B|288:248,1,75.000000298023
352,256,67235,5,2
384,320,67481,1,2
312,320,67727,1,2
280,256,67973,2,8,B|360:160|488:192,1,225.000000894069
480,112,68956,1,2
416,80,69202,6,8,B|256:80,1,150.000000596046
264,152,69940,1,2
264,224,70186,2,0,B|168:224,2,75.000000298023
408,256,71169,5,2
440,320,71415,1,2
368,320,71661,1,2
296,320,71907,2,8,B|192:256|180:127,1,225.000000894069
176,64,72891,6,8,B|344:64,1,150.000000596046
400,64,73628,1,0
408,216,74120,1,2
408,216,74366,1,2
408,216,74612,1,2
256,208,75104,6,8,B|152:320,1,150.000000596046
80,288,75842,1,2
80,288,76088,1,2
80,136,76579,5,2
80,208,76825,1,2
152,200,77071,2,8,B|272:72,2,150.000000596046
224,328,78547,6,8,B|64:328,2,150.000000596046
224,176,80022,1,2
368,152,80514,1,2
424,200,80760,1,2
360,232,81006,5,2
224,176,81497,1,2
368,152,81989,1,0
424,200,82235,1,0
360,232,82481,1,0
216,192,82973,5,2
144,192,83219,1,2
216,192,83465,1,2
144,192,83710,1,2
144,344,84202,2,0,B|272:256,1,150.000000596046,4|6
328,216,84940,1,0
392,176,85186,6,0,B|304:48,1,150.000000596046
232,56,85924,2,0,B|152:112,2,75.000000298023
104,128,86907,5,2
48,176,87153,1,2
112,216,87399,1,2
56,264,87645,2,0,B|88:352|176:328,1,150.000000596046
248,328,88383,1,0
400,328,88874,6,0,B|488:192,1,150.000000596046
480,128,89612,2,0,B|384:128,1,75.000000298023
328,128,90104,1,0
328,56,90350,1,2
176,40,90842,5,2
104,24,91088,1,2
120,96,91333,1,2
192,112,91579,2,0,B|320:208,1,150.000000596046
384,208,92317,1,2
456,200,92563,6,0,B|456:32,1,150.000000596046
384,48,93301,1,0
312,48,93547,2,0,B|144:48,1,150.000000596046
88,56,94284,2,0,B|88:136,1,75.000000298023
152,176,94776,6,0,B|72:240|152:320,1,150.000000596046
192,248,95514,1,2
232,184,95760,2,0,B|304:248|232:312,1,150.000000596046
296,352,96497,1,2
368,352,96743,6,0,B|368:264,1,75.000000298023
424,232,97235,1,0
424,160,97481,1,0
424,88,97727,2,0,B|248:88,1,150.000000596046
208,48,98465,1,0
136,56,98710,5,2
64,80,98956,1,2
120,128,99202,1,2
184,160,99448,2,0,B|248:88|328:168,1,150.000000596046
368,208,100186,1,0
252,304,100678,5,2
180,332,100924,1,2
176,256,101169,1,0
244,224,101415,1,2
312,256,101661,2,0,B|400:304|464:216,1,150.000000596046
448,88,102645,5,2
400,144,102891,1,2
344,200,103137,1,2
288,152,103383,2,0,B|343:53|231:53,1,150.000000596046
216,128,104120,1,0
80,60,104612,5,2
152,84,104858,1,2
92,124,105104,1,0
156,160,105350,1,0
152,236,105596,2,0,B|56:244|72:356,1,150.000000596046
216,336,106579,5,2
256,272,106825,1,2
288,344,107071,1,2
328,280,107317,2,0,B|392:208|352:112,1,150.000000596046
320,80,108055,1,2
264,32,108301,2,0,B|168:96|272:176,1,150.000000596046
312,200,109038,5,2
248,232,109284,2,0,B|168:328|280:376|280:376,1,150.000000596046
328,352,110022,1,2
328,352,110268,1,2
400,360,110514,6,0,B|464:288|392:216,1,150.000000596046
344,176,111251,2,0,B|272:248|344:312,1,150.000000596046
296,368,111989,6,0,B|128:368,2,150.000000596046
296,296,113219,1,0
304,224,113465,2,0,B|200:224,1,75.000000298023
232,152,113956,2,0,B|328:152,1,75.000000298023
384,160,114448,5,2
384,232,114694,1,2
456,232,114940,2,0,B|456:136,1,75.000000298023
456,80,115432,1,0
392,40,115678,1,0
320,72,115924,2,0,B|264:72|280:152,1,75.000000298023
264,192,116415,5,0
280,264,116661,2,0,B|312:320|368:304,1,75.000000298023
352,232,117153,2,8,B|352:144,3,75.000000298023
204,176,118383,5,2
140,140,118628,1,2
132,216,118874,1,2
196,256,119120,2,8,B|331:340|419:291,1,225.000000894069
436,228,120104,1,2
476,164,120350,5,2
400,168,120596,1,2
436,104,120842,1,2
288,92,121333,2,8,B|200:92,2,75.000000298023
272,240,122317,5,2
288,312,122563,1,2
216,296,122809,1,2
160,344,123055,2,8,B|64:296|80:200,1,150.000000596046
72,152,123792,1,0
120,96,124038,6,0,B|280:96,1,150.000000596046
344,96,124776,1,0
480,32,125268,1,2
424,80,125514,1,2
488,120,125760,1,2
480,272,126251,6,8,B|328:272,1,150.000000596046
256,280,126989,1,2
256,280,127235,1,2
112,320,127727,6,8,B|64:232|144:184,1,150.000000596046
208,176,128465,2,2,B|208:88,1,75.000000298023
328,192,129202,1,2
376,248,129448,1,2
424,192,129694,2,8,B|424:104,1,75.000000298023
360,80,130186,5,2
264,192,130678,2,8,B|264:104,1,75.000000298023
304,56,131169,2,8,B|216:56,1,75.000000298023
152,56,131661,1,2
104,112,131907,6,8,B|200:176|72:264|120:248,1,150.000000596046
160,296,132645,1,0
232,296,132891,1,2
232,224,133137,1,2
304,224,133383,1,2
312,296,133628,1,0
384,296,133874,1,0
440,248,134120,5,2
488,192,134366,1,2
416,184,134612,1,2
368,240,134858,2,8,B|265:306|177:179,1,225.000000894069
112,216,135842,1,2
88,144,136088,6,8,B|80:36|200:64,1,150.000000596046
248,64,136825,1,0
320,64,137071,2,0,B|416:64,2,75.000000298023
376,208,138055,5,2
376,280,138301,1,2
320,328,138547,2,8,B|168:264,1,150.000000596046
48,336,139530,6,8,B|48:176,1,150.000000596046
80,120,140268,1,0
152,144,140514,2,8,B|320:144,1,150.000000596046
376,144,141251,1,0
408,208,141497,1,0
272,272,141989,5,0
200,272,142235,1,2
232,208,142481,1,2
156,212,142727,1,2
184,144,142973,1,2
72,48,143465,6,8,B|168:48,4,75.000000298023,6|8|6|8|6
144,176,144940,1,2
152,328,145432,1,2
224,328,145678,1,0
296,328,145924,6,0,B|296:240,1,75.000000298023
296,256,146415,2,0,B|296:160,1,75.000000298023
296,184,146907,2,0,B|296:104|296:104,1,75.000000298023
296,112,147399,2,0,B|296:32,1,75.000000298023
368,40,147891,5,2
432,80,148137,1,0
368,120,148383,1,2
432,160,148628,1,2
368,200,148874,1,2
432,240,149120,1,0
368,280,149366,1,2
432,320,149612,1,0
368,352,149858,6,10,B|280:352,1,75.000000298023
312,280,150350,2,10,B|216:280,1,75.000000298023
264,208,150842,2,10,B|184:208,1,75.000000298023
112,208,151333,6,10,B|64:128|128:64,2,150.000000596046
256,176,152809,2,10,B|256:88,2,75.000000298023
408,176,153792,6,10,B|408:80,2,75.000000298023
336,176,154530,1,2
264,176,154776,2,10,B|264:72,2,75.000000298023
264,248,155514,6,10,B|264:344,2,75.000000298023
188,244,156251,1,2
112,248,156497,1,2
76,180,156743,1,2
152,176,156989,1,2
120,108,157235,1,2
44,112,157481,1,2
16,40,157727,6,10,B|96:40,2,75.000000298023
40,112,158465,2,10,B|120:112,2,75.000000298023
64,184,159202,2,10,B|144:184,2,75.000000298023
88,256,159940,6,10,B|176:256,2,75.000000298023
112,328,160678,1,2
112,328,160924,1,2
112,328,161169,1,2
264,328,161661,6,10,B|416:328,1,150.000000596046
416,252,162399,1,0
416,176,162645,2,2,B|416:84,1,75.000000298023
416,24,163137,2,0,B|316:24,1,75.000000298023
264,24,163628,1,2
264,100,163874,6,10,B|360:100,2,75.000000298023
200,64,164612,2,10,B|200:216,1,150.000000596046
196,364,165596,6,0,B|28:364,1,150.000000596046
48,212,166579,2,0,B|224:212,1,150.000000596046
348,212,167563,5,4
352,56,168055,1,4
200,56,168547,1,6
48,56,169038,1,6
40,208,169530,6,0,B|40:368,1,150.000000596046
192,352,170514,2,0,B|192:192,1,150.000000596046
192,48,171497,5,4
344,48,171989,1,4
496,48,172481,1,4
496,200,172973,1,4
344,200,173465,6,0,B|344:368,1,150.000000596046
192,352,174448,1,2
40,352,174940,6,0,B|40:176,1,150.000000596046
192,192,175924,1,0
344,192,176415,2,0,B|448:192,2,75.000000298023
296,48,177399,6,0,B|448:48,3,150.000000596046
448,120,179120,5,2
392,168,179366,1,2
336,216,179612,1,2
280,264,179858,1,2
336,216,180104,1,2
280,264,180350,1,2
224,320,180596,1,2
168,368,180842,1,2
96,376,181088,1,0
40,328,181333,6,8,B|40:160,3,150.000000596046
112,176,183055,1,0
112,104,183301,2,0,B|216:104,1,75.000000298023
184,104,183792,2,0,B|272:104,1,75.000000298023
256,104,184284,2,0,B|352:104,1,75.000000298023
328,104,184776,2,0,B|424:104,1,75.000000298023
408,176,185268,6,8,B|240:176,3,150.000000596046
192,136,186989,5,2
168,208,187235,1,2
232,248,187481,2,8,B|392:320|384:320,1,150.000000596046
384,240,188219,2,0,B|472:240,1,75.000000298023
464,168,188710,2,0,B|464:80,1,75.000000298023
400,48,189202,5,2
400,120,189448,1,2
336,88,189694,1,2
264,88,189940,2,8,B|160:88,1,75.000000298023
40,56,190678,1,2
40,128,190924,1,2
104,96,191169,5,2
112,168,191415,2,8,B|176:248,1,75.000000298023
160,376,192153,1,2
232,376,192399,1,2
200,312,192645,1,2
272,312,192891,1,2
312,376,193137,5,2
408,264,193628,1,2
304,152,194120,1,2
208,272,194612,1,2
256,192,195104,12,2,196579
112,184,197071,5,2
200,104,197563,1,2
288,184,198055,1,2
376,104,198547,1,2
488,152,199038,5,2
488,216,199284,1,2
488,280,199530,1,2
352,304,200022,2,4,B|264:176,1,150.000000596046
192,320,201006,5,2
128,296,201251,1,2
88,248,201497,1,2
64,128,201989,2,4,B|208:80,1,150.000000596046
224,200,202973,5,2
312,120,203465,1,2
400,200,203956,1,2
312,280,204448,1,2
208,304,204940,5,2
160,264,205186,1,2
120,224,205432,1,2
40,136,205924,1,2
80,184,206169,1,2
120,224,206415,1,2
200,312,206907,5,2
248,272,207153,1,2
296,232,207399,1,2
376,144,207891,2,4,B|224:144,1,150.000000596046
256,192,208874,12,6,212809
