osu file format v14

[General]
AudioFilename: Oregairu Season 2 (Zoku) OP - Opening - Harumodoki by Yanagi Nagi.mp3
AudioLeadIn: 0
PreviewTime: -1
Countdown: 1
SampleSet: None
StackLeniency: 0.7
Mode: 3
LetterboxInBreaks: 1
SpecialStyle: 0
WidescreenStoryboard: 0

[Editor]
DistanceSpacing: 0.8
BeatDivisor: 4
GridSize: 32
TimelineZoom: 2.6

[Metadata]
Title:Harumodoki - (TV Size)
TitleUnicode:Harumodoki - (TV Size)
Artist:Yanaginagi
ArtistUnicode:Yanaginagi
Creator:-Mirinai Mina-
Version:NM
Source:
Tags:Oregairu
BeatmapID:682112
BeatmapSetID:304469

[Difficulty]
HPDrainRate:5
CircleSize:4
OverallDifficulty:6
ApproachRate:5
SliderMultiplier:1.4
SliderTickRate:1

[Events]
//Background and Video events
0,0,"Yahari ore no seishun love come wa machiagatteiru.jpg",0,0
//Break Periods
//Storyboard Layer 0 (Background)
//Storyboard Layer 1 (Fail)
//Storyboard Layer 2 (Pass)
//Storyboard Layer 3 (Foreground)
//Storyboard Sound Samples

[TimingPoints]
3123.9018404908,368.098159509202,4,2,0,100,1,0

[HitObjects]
192,192,455,5,0,0:0:0:0:
320,192,823,1,0,0:0:0:0:
448,192,1191,1,0,0:0:0:0:
320,192,1559,1,0,0:0:0:0:
192,192,1927,1,0,0:0:0:0:
64,192,2295,1,0,0:0:0:0:
192,192,2571,1,0,0:0:0:0:
320,192,2939,1,0,0:0:0:0:
448,192,3307,1,0,0:0:0:0:
448,192,3676,128,0,7265:0:0:0:0:
320,192,3676,1,0,0:0:0:0:
192,192,7265,1,0,0:0:0:0:
320,192,7265,1,0,0:0:0:0:
64,192,7541,1,0,0:0:0:0:
192,192,7909,1,0,0:0:0:0:
320,192,8277,1,0,0:0:0:0:
448,192,8645,1,0,0:0:0:0:
320,192,9013,1,0,0:0:0:0:
192,192,9381,1,0,0:0:0:0:
64,192,9749,1,0,0:0:0:0:
64,192,10025,1,0,0:0:0:0:
192,192,10025,1,0,0:0:0:0:
192,192,10301,1,0,0:0:0:0:
320,192,10669,1,0,0:0:0:0:
448,192,11038,1,0,0:0:0:0:
448,192,11406,1,0,0:0:0:0:
448,192,11774,1,0,0:0:0:0:
448,192,12142,1,0,0:0:0:0:
448,192,12510,1,0,0:0:0:0:
320,192,12786,1,0,0:0:0:0:
448,192,12786,1,0,0:0:0:0:
192,192,13062,1,0,0:0:0:0:
64,192,13430,1,0,0:0:0:0:
192,192,13798,1,0,0:0:0:0:
64,192,14166,1,0,0:0:0:0:
192,192,14534,1,0,0:0:0:0:
64,192,14903,1,0,0:0:0:0:
192,192,15271,1,0,0:0:0:0:
64,192,15547,128,0,17755:0:0:0:0:
192,192,15547,1,0,0:0:0:0:
320,192,15547,1,0,0:0:0:0:
192,192,17755,1,0,0:0:0:0:
320,192,17755,1,0,0:0:0:0:
192,192,17939,1,0,0:0:0:0:
320,192,17939,1,0,0:0:0:0:
64,192,18307,1,0,0:0:0:0:
448,192,18307,1,0,0:0:0:0:
192,192,18584,1,0,0:0:0:0:
320,192,18952,1,0,0:0:0:0:
192,192,19320,1,0,0:0:0:0:
320,192,19688,1,0,0:0:0:0:
192,192,20056,1,0,0:0:0:0:
320,192,20516,1,0,0:0:0:0:
448,192,20516,1,0,0:0:0:0:
192,192,20700,1,0,0:0:0:0:
320,192,20700,1,0,0:0:0:0:
64,192,21068,1,0,0:0:0:0:
448,192,21068,1,0,0:0:0:0:
448,192,21344,1,0,0:0:0:0:
320,192,21712,1,0,0:0:0:0:
192,192,22080,1,0,0:0:0:0:
64,192,22449,1,0,0:0:0:0:
192,192,22817,1,0,0:0:0:0:
320,192,23277,1,0,0:0:0:0:
448,192,23277,1,0,0:0:0:0:
192,192,23461,1,0,0:0:0:0:
320,192,23461,1,0,0:0:0:0:
64,192,23829,1,0,0:0:0:0:
448,192,23829,1,0,0:0:0:0:
192,192,24105,1,0,0:0:0:0:
320,192,24473,1,0,0:0:0:0:
192,192,24841,1,0,0:0:0:0:
320,192,25209,1,0,0:0:0:0:
192,192,25577,1,0,0:0:0:0:
448,192,26038,128,0,26590:0:0:0:0:
192,192,26590,1,0,0:0:0:0:
320,192,26590,1,0,0:0:0:0:
192,192,28798,1,0,0:0:0:0:
320,192,28798,1,0,0:0:0:0:
192,192,28982,1,0,0:0:0:0:
320,192,28982,1,0,0:0:0:0:
64,192,29350,1,0,0:0:0:0:
448,192,29350,1,0,0:0:0:0:
192,192,29626,1,0,0:0:0:0:
320,192,29995,1,0,0:0:0:0:
448,192,30363,1,0,0:0:0:0:
320,192,30731,1,0,0:0:0:0:
192,192,31099,1,0,0:0:0:0:
192,192,31559,1,0,0:0:0:0:
320,192,31559,1,0,0:0:0:0:
192,192,31743,1,0,0:0:0:0:
320,192,31743,1,0,0:0:0:0:
64,192,32111,1,0,0:0:0:0:
448,192,32111,1,0,0:0:0:0:
192,192,32387,1,0,0:0:0:0:
320,192,32755,1,0,0:0:0:0:
448,192,33123,1,0,0:0:0:0:
320,192,33491,1,0,0:0:0:0:
192,192,33860,1,0,0:0:0:0:
64,192,34320,1,0,0:0:0:0:
192,192,34320,1,0,0:0:0:0:
64,192,34504,1,0,0:0:0:0:
192,192,34504,1,0,0:0:0:0:
64,192,34872,1,0,0:0:0:0:
448,192,34872,1,0,0:0:0:0:
192,192,35240,1,0,0:0:0:0:
320,192,35608,1,0,0:0:0:0:
448,192,35976,1,0,0:0:0:0:
448,192,36344,1,0,0:0:0:0:
448,192,36712,1,0,0:0:0:0:
448,192,37080,1,0,0:0:0:0:
320,192,37080,1,0,0:0:0:0:
320,192,37265,1,0,0:0:0:0:
448,192,37265,1,0,0:0:0:0:
64,192,37633,1,0,0:0:0:0:
448,192,37633,1,0,0:0:0:0:
192,192,37909,1,0,0:0:0:0:
320,192,38093,1,0,0:0:0:0:
448,192,38461,1,0,0:0:0:0:
448,192,38829,1,0,0:0:0:0:
448,192,39197,1,0,0:0:0:0:
448,192,39565,1,0,0:0:0:0:
320,192,39933,1,0,0:0:0:0:
64,192,40393,1,0,0:0:0:0:
192,192,40393,1,0,0:0:0:0:
448,192,41130,128,0,46099:0:0:0:0:
320,192,41130,1,0,0:0:0:0:
320,192,41498,1,0,0:0:0:0:
320,192,41866,1,0,0:0:0:0:
192,192,42234,1,0,0:0:0:0:
192,192,42418,1,0,0:0:0:0:
64,192,43246,1,0,0:0:0:0:
64,192,43614,1,0,0:0:0:0:
192,192,44258,1,0,0:0:0:0:
192,192,44626,1,0,0:0:0:0:
192,192,45179,1,0,0:0:0:0:
192,192,45455,1,0,0:0:0:0:
320,192,45455,1,0,0:0:0:0:
320,192,45639,1,0,0:0:0:0:
192,192,45823,1,0,0:0:0:0:
320,192,45823,1,0,0:0:0:0:
320,192,46099,1,0,0:0:0:0:
64,192,46099,1,0,0:0:0:0:
192,192,46375,1,0,0:0:0:0:
192,192,46743,1,0,0:0:0:0:
192,192,47111,1,0,0:0:0:0:
192,192,47479,1,0,0:0:0:0:
192,192,47755,1,0,0:0:0:0:
320,192,47939,1,0,0:0:0:0:
448,192,48584,1,0,0:0:0:0:
448,192,48768,1,0,0:0:0:0:
448,192,49044,1,0,0:0:0:0:
320,192,49412,1,0,0:0:0:0:
192,192,49780,1,0,0:0:0:0:
64,192,50148,1,0,0:0:0:0:
192,192,50516,1,0,0:0:0:0:
320,192,50884,1,0,0:0:0:0:
448,192,51252,1,0,0:0:0:0:
320,192,51620,1,0,0:0:0:0:
192,192,51988,1,0,0:0:0:0:
64,192,52357,1,0,0:0:0:0:
192,192,52725,1,0,0:0:0:0:
320,192,53093,1,0,0:0:0:0:
448,192,53553,1,0,0:0:0:0:
64,192,53553,128,0,58338:0:0:0:0:
192,192,58338,1,0,0:0:0:0:
320,192,58338,1,0,0:0:0:0:
192,192,59718,1,0,0:0:0:0:
320,192,60087,1,0,0:0:0:0:
448,192,60455,1,0,0:0:0:0:
320,192,60823,1,0,0:0:0:0:
192,192,61191,1,0,0:0:0:0:
64,192,61559,1,0,0:0:0:0:
192,192,61927,1,0,0:0:0:0:
320,192,62295,1,0,0:0:0:0:
448,192,62939,128,0,64688:0:0:0:0:
192,192,62939,1,0,0:0:0:0:
192,192,64688,1,0,0:0:0:0:
192,192,64964,1,0,0:0:0:0:
320,192,65148,1,0,0:0:0:0:
192,192,65332,1,0,0:0:0:0:
448,192,65792,1,0,0:0:0:0:
448,192,66160,1,0,0:0:0:0:
448,192,66528,1,0,0:0:0:0:
320,192,66712,1,0,0:0:0:0:
192,192,66896,1,0,0:0:0:0:
64,192,67080,1,0,0:0:0:0:
64,192,67357,1,0,0:0:0:0:
64,192,67725,1,0,0:0:0:0:
64,192,68093,1,0,0:0:0:0:
192,192,68369,1,0,0:0:0:0:
320,192,68737,1,0,0:0:0:0:
448,192,69197,128,0,70209:0:0:0:0:
192,192,69197,1,0,0:0:0:0:
192,192,70209,1,0,0:0:0:0:
448,192,70761,1,0,0:0:0:0:
320,192,71130,1,0,0:0:0:0:
192,192,71498,1,0,0:0:0:0:
64,192,71866,1,0,0:0:0:0:
192,192,72142,1,0,0:0:0:0:
320,192,72510,1,0,0:0:0:0:
448,192,72878,1,0,0:0:0:0:
320,192,73246,1,0,0:0:0:0:
64,192,73890,128,0,75731:0:0:0:0:
192,192,73890,1,0,0:0:0:0:
192,192,75731,1,0,0:0:0:0:
192,192,76375,1,0,0:0:0:0:
320,192,76743,1,0,0:0:0:0:
320,192,77111,1,0,0:0:0:0:
448,192,77387,1,0,0:0:0:0:
320,192,77571,1,0,0:0:0:0:
448,192,77755,1,0,0:0:0:0:
320,192,78031,1,0,0:0:0:0:
64,192,78399,1,0,0:0:0:0:
64,192,78768,1,0,0:0:0:0:
64,192,79136,1,0,0:0:0:0:
448,192,79136,128,0,81804:0:0:0:0:
64,192,81804,1,0,0:0:0:0:
448,192,82080,1,0,0:0:0:0:
448,192,82449,1,0,0:0:0:0:
448,192,82817,1,0,0:0:0:0:
448,192,83185,1,0,0:0:0:0:
448,192,83553,1,0,0:0:0:0:
320,192,83921,1,0,0:0:0:0:
192,192,84289,1,0,0:0:0:0:
64,192,84657,128,0,85853:0:0:0:0:
192,192,85853,1,0,0:0:0:0:
320,192,85853,1,0,0:0:0:0:
448,192,86314,1,0,0:0:0:0:
320,192,86682,1,0,0:0:0:0:
192,192,87142,128,0,88246:0:0:0:0:
